osu file format v14

[General]
AudioFilename: audio.mp3
AudioLeadIn: 0
PreviewTime: 60742
Countdown: 0
SampleSet: Normal
StackLeniency: 0.7
Mode: 1
LetterboxInBreaks: 0
WidescreenStoryboard: 0

[Editor]
DistanceSpacing: 0.3
BeatDivisor: 4
GridSize: 32
TimelineZoom: 2

[Metadata]
Title:Karen Setsugetsuka (Artethia & Epsilon Remix)
TitleUnicode:可憐雪月花 (Artethia & Epsilon Remix)
Artist:KEiNA
ArtistUnicode:KEiNA
Creator:yassu-
Version:29's Inner Oni
Source:絆きらめく恋いろは
Tags:kizuna kirameku koi iroha eroge visual novel opening remix dnb drum and bass drumstep crystalia namaniku
BeatmapID:2003401
BeatmapSetID:953713

[Difficulty]
HPDrainRate:6
CircleSize:5
OverallDifficulty:6
ApproachRate:5
SliderMultiplier:1.4
SliderTickRate:1

[Events]
//Background and Video events
0,0,"bg.jpg",0,75
//Break Periods
2,3004,7028
2,104699,111435
//Storyboard Layer 0 (Background)
//Storyboard Layer 1 (Fail)
//Storyboard Layer 2 (Pass)
//Storyboard Layer 3 (Foreground)
//Storyboard Layer 4 (Overlay)
//Storyboard Sound Samples

[TimingPoints]
93,338.983050847458,4,1,0,70,1,0
2889,-133.333333333333,4,1,0,70,0,0
8228,-111.111111111111,4,1,0,85,0,0
13482,-100,4,1,0,85,0,0
46109,-111.111111111111,4,1,0,85,0,0
54330,-100,4,1,0,85,0,0
60770,-80,4,1,0,85,0,0
61109,-100,4,1,0,100,0,1
82804,-100,4,1,0,85,0,0
93821,-100,4,1,0,85,0,0
101957,-100,4,1,0,70,0,0
104584,-133.333333333333,4,1,0,70,0,0
112550,-117.647058823529,4,1,0,70,0,0
121025,-114.942528735632,4,1,0,85,0,0
121194,-113.636363636364,4,1,0,85,0,0
121406,-112.359550561798,4,1,0,85,0,0
121533,-111.111111111111,4,1,0,85,0,0
121703,-109.89010989011,4,1,0,85,0,0
121915,-108.695652173913,4,1,0,85,0,0
122084,-107.52688172043,4,1,0,85,0,0
122211,-106.382978723404,4,1,0,85,0,0
122381,-105.263157894737,4,1,0,85,0,0
122550,-104.166666666667,4,1,0,85,0,0
122762,-103.092783505155,4,1,0,85,0,0
122931,-102.040816326531,4,1,0,85,0,0
123101,-101.010101010101,4,1,0,85,0,0
123270,-100,4,1,0,85,0,0
123440,-99.009900990099,4,1,0,85,0,0
123609,-98.0392156862745,4,1,0,85,0,0
123779,-97.0873786407767,4,1,0,85,0,0
123948,-96.1538461538461,4,1,0,85,0,0
124118,-95.2380952380952,4,1,0,85,0,0
124287,-94.3396226415094,4,1,0,85,0,0
124457,-93.4579439252336,4,1,0,85,0,0
124626,-92.5925925925926,4,1,0,85,0,0
124796,-91.743119266055,4,1,0,85,0,0
124923,-66.6666666666667,4,1,0,20,0,0
125770,-100,4,1,0,70,0,0
126194,-90.9090909090909,4,1,0,100,0,1
136957,-86.9565217391304,4,1,0,100,0,1
145431,-88.4955752212389,4,1,0,100,0,1
145601,-89.2857142857143,4,1,0,100,0,1
145940,-90.9090909090909,4,1,0,100,0,1
146109,-91.743119266055,4,1,0,100,0,1
146448,-93.4579439252336,4,1,0,100,0,1
146618,-94.3396226415094,4,1,0,100,0,1
146957,-96.1538461538461,4,1,0,100,0,1
147169,-97.0873786407767,4,1,0,100,0,1
147296,-98.0392156862745,4,1,0,100,0,1
147465,-99.009900990099,4,1,0,100,0,1
147635,-100,4,1,0,100,0,1
147889,-100,4,1,0,90,0,0

[HitObjects]
256,192,2465,5,6,0:0:0:0:
256,192,2804,1,4,0:0:0:0:
256,192,8228,5,4,0:0:0:0:
256,192,8567,1,2,0:0:0:0:
256,192,9076,1,0,0:0:0:0:
256,192,9245,1,2,0:0:0:0:
256,192,9415,1,0,0:0:0:0:
256,192,9754,1,0,0:0:0:0:
256,192,9923,1,2,0:0:0:0:
256,192,10262,1,0,0:0:0:0:
256,192,10431,1,0,0:0:0:0:
256,192,10601,1,2,0:0:0:0:
256,192,10940,1,4,0:0:0:0:
256,192,11279,1,2,0:0:0:0:
256,192,11448,1,0,0:0:0:0:
256,192,11787,1,0,0:0:0:0:
256,192,11957,1,2,0:0:0:0:
256,192,12126,1,0,0:0:0:0:
256,192,12211,1,0,0:0:0:0:
256,192,12296,1,2,0:0:0:0:
256,192,12465,1,0,0:0:0:0:
256,192,12635,1,0,0:0:0:0:
256,192,12804,1,2,0:0:0:0:
256,192,12974,1,0,0:0:0:0:
256,192,13059,1,0,0:0:0:0:
256,192,13143,1,0,0:0:0:0:
256,192,13228,1,0,0:0:0:0:
256,192,13313,1,2,0:0:0:0:
256,192,13652,1,4,0:0:0:0:
256,192,13991,1,2,0:0:0:0:
256,192,14245,1,2,0:0:0:0:
256,192,14330,1,0,0:0:0:0:
256,192,14499,5,0,0:0:0:0:
256,192,14669,1,2,0:0:0:0:
256,192,14838,1,2,0:0:0:0:
256,192,14923,1,2,0:0:0:0:
256,192,15008,1,0,0:0:0:0:
256,192,15177,1,0,0:0:0:0:
256,192,15347,1,2,0:0:0:0:
256,192,15516,1,0,0:0:0:0:
256,192,15601,1,2,0:0:0:0:
256,192,15686,1,0,0:0:0:0:
256,192,15855,1,0,0:0:0:0:
256,192,16025,1,2,0:0:0:0:
256,192,16194,1,2,0:0:0:0:
256,192,16364,1,0,0:0:0:0:
256,192,16703,1,2,0:0:0:0:
256,192,16957,1,2,0:0:0:0:
256,192,17042,1,0,0:0:0:0:
256,192,17211,1,0,0:0:0:0:
256,192,17381,1,2,0:0:0:0:
256,192,17550,1,0,0:0:0:0:
256,192,17635,1,2,0:0:0:0:
256,192,17804,1,2,0:0:0:0:
256,192,17889,1,0,0:0:0:0:
256,192,18059,1,2,0:0:0:0:
256,192,18228,1,0,0:0:0:0:
256,192,18313,1,0,0:0:0:0:
256,192,18398,1,2,0:0:0:0:
256,192,18482,1,2,0:0:0:0:
256,192,18567,1,0,0:0:0:0:
256,192,18737,1,2,0:0:0:0:
256,192,18906,1,2,0:0:0:0:
256,192,19076,1,4,0:0:0:0:
256,192,19415,1,2,0:0:0:0:
256,192,19584,1,0,0:0:0:0:
256,192,19669,1,2,0:0:0:0:
256,192,19754,1,0,0:0:0:0:
256,192,19923,1,0,0:0:0:0:
256,192,20093,1,2,0:0:0:0:
256,192,20262,1,2,0:0:0:0:
256,192,20347,1,2,0:0:0:0:
256,192,20431,1,0,0:0:0:0:
256,192,20601,1,0,0:0:0:0:
256,192,20770,1,2,0:0:0:0:
256,192,20940,1,0,0:0:0:0:
256,192,21025,1,2,0:0:0:0:
256,192,21109,1,2,0:0:0:0:
256,192,21194,1,0,0:0:0:0:
256,192,21279,1,0,0:0:0:0:
256,192,21448,1,2,0:0:0:0:
256,192,21618,1,2,0:0:0:0:
256,192,21787,1,4,0:0:0:0:
256,192,22126,1,2,0:0:0:0:
256,192,22296,1,4,0:0:0:0:
256,192,22635,1,0,0:0:0:0:
256,192,22720,1,0,0:0:0:0:
256,192,22804,1,2,0:0:0:0:
256,192,23313,1,0,0:0:0:0:
256,192,23482,1,2,0:0:0:0:
256,192,23652,1,0,0:0:0:0:
256,192,23737,1,2,0:0:0:0:
256,192,23821,1,0,0:0:0:0:
256,192,23991,1,0,0:0:0:0:
256,192,24160,1,2,0:0:0:0:
256,192,24499,1,4,0:0:0:0:
256,192,24754,1,0,0:0:0:0:
256,192,24838,1,2,0:0:0:0:
256,192,25008,1,0,0:0:0:0:
256,192,25177,1,2,0:0:0:0:
256,192,25262,1,0,0:0:0:0:
256,192,25347,1,0,0:0:0:0:
256,192,25516,1,2,0:0:0:0:
256,192,25855,1,0,0:0:0:0:
256,192,26025,1,0,0:0:0:0:
256,192,26109,1,0,0:0:0:0:
256,192,26194,1,2,0:0:0:0:
256,192,26364,1,0,0:0:0:0:
256,192,26533,1,2,0:0:0:0:
256,192,26703,1,0,0:0:0:0:
256,192,26787,1,2,0:0:0:0:
256,192,26872,1,0,0:0:0:0:
256,192,27042,1,2,0:0:0:0:
256,192,27211,1,0,0:0:0:0:
256,192,27465,1,0,0:0:0:0:
256,192,27550,1,2,0:0:0:0:
256,192,27720,1,0,0:0:0:0:
256,192,27889,1,2,0:0:0:0:
256,192,27974,1,2,0:0:0:0:
256,192,28059,1,0,0:0:0:0:
256,192,28228,1,2,0:0:0:0:
256,192,28567,1,0,0:0:0:0:
256,192,28737,1,2,0:0:0:0:
256,192,28821,1,0,0:0:0:0:
256,192,28906,1,2,0:0:0:0:
256,192,29076,1,0,0:0:0:0:
256,192,29245,1,2,0:0:0:0:
256,192,29415,1,0,0:0:0:0:
256,192,29499,1,0,0:0:0:0:
256,192,29584,1,0,0:0:0:0:
256,192,29754,1,2,0:0:0:0:
256,192,29923,1,0,0:0:0:0:
256,192,30177,1,0,0:0:0:0:
256,192,30262,1,2,0:0:0:0:
256,192,30431,1,0,0:0:0:0:
256,192,30686,1,2,0:0:0:0:
256,192,30770,1,0,0:0:0:0:
256,192,30940,1,2,0:0:0:0:
256,192,31109,1,0,0:0:0:0:
256,192,31194,1,2,0:0:0:0:
256,192,31279,1,0,0:0:0:0:
256,192,31448,1,0,0:0:0:0:
256,192,31618,1,2,0:0:0:0:
256,192,31787,1,0,0:0:0:0:
256,192,31872,1,0,0:0:0:0:
256,192,31957,1,2,0:0:0:0:
256,192,32042,1,2,0:0:0:0:
256,192,32126,1,0,0:0:0:0:
256,192,32296,1,0,0:0:0:0:
256,192,32465,1,2,0:0:0:0:
256,192,32635,1,4,0:0:0:0:
256,192,32974,1,2,0:0:0:0:
256,192,33144,1,4,0:0:0:0:
256,192,33482,1,0,0:0:0:0:
256,192,33652,1,6,0:0:0:0:
256,192,33821,1,4,0:0:0:0:
256,192,34160,1,4,0:0:0:0:
256,192,34330,1,2,0:0:0:0:
256,192,34499,1,2,0:0:0:0:
256,192,34584,1,2,0:0:0:0:
256,192,34669,1,0,0:0:0:0:
256,192,34838,1,0,0:0:0:0:
256,192,35008,1,2,0:0:0:0:
256,192,35347,1,4,0:0:0:0:
256,192,35686,1,2,0:0:0:0:
256,192,35855,1,0,0:0:0:0:
256,192,35940,1,2,0:0:0:0:
256,192,36025,1,0,0:0:0:0:
256,192,36194,1,0,0:0:0:0:
256,192,36364,1,2,0:0:0:0:
256,192,36533,1,0,0:0:0:0:
256,192,36618,1,2,0:0:0:0:
256,192,36787,1,2,0:0:0:0:
256,192,36872,1,0,0:0:0:0:
256,192,37042,1,2,0:0:0:0:
256,192,37211,1,0,0:0:0:0:
256,192,37296,1,0,0:0:0:0:
256,192,37381,1,2,0:0:0:0:
256,192,37465,1,2,0:0:0:0:
256,192,37550,1,0,0:0:0:0:
256,192,37720,1,2,0:0:0:0:
256,192,37889,1,2,0:0:0:0:
256,192,38059,1,0,0:0:0:0:
256,192,38398,1,2,0:0:0:0:
256,192,38567,1,0,0:0:0:0:
256,192,38652,1,0,0:0:0:0:
256,192,38737,1,2,0:0:0:0:
256,192,38906,1,0,0:0:0:0:
256,192,39076,1,2,0:0:0:0:
256,192,39132,1,2,0:0:0:0:
256,192,39189,1,2,0:0:0:0:
256,192,39245,1,0,0:0:0:0:
256,192,39330,1,2,0:0:0:0:
256,192,39415,1,0,0:0:0:0:
256,192,39584,1,0,0:0:0:0:
256,192,39754,1,2,0:0:0:0:
256,192,39923,1,0,0:0:0:0:
256,192,40093,1,2,0:0:0:0:
256,192,40177,1,2,0:0:0:0:
256,192,40262,1,0,0:0:0:0:
256,192,40347,1,0,0:0:0:0:
256,192,40431,1,2,0:0:0:0:
256,192,40601,1,2,0:0:0:0:
256,192,40770,1,0,0:0:0:0:
256,192,41109,1,2,0:0:0:0:
256,192,41279,1,0,0:0:0:0:
256,192,41364,1,0,0:0:0:0:
256,192,41448,1,2,0:0:0:0:
256,192,41618,1,0,0:0:0:0:
256,192,41787,1,2,0:0:0:0:
256,192,41844,1,0,0:0:0:0:
256,192,41900,1,0,0:0:0:0:
256,192,41957,1,2,0:0:0:0:
256,192,42042,1,2,0:0:0:0:
256,192,42126,1,0,0:0:0:0:
256,192,42296,1,0,0:0:0:0:
256,192,42465,1,2,0:0:0:0:
256,192,42635,1,0,0:0:0:0:
256,192,42720,1,2,0:0:0:0:
256,192,42889,1,2,0:0:0:0:
256,192,42974,1,0,0:0:0:0:
256,192,43143,1,2,0:0:0:0:
256,192,43313,1,2,0:0:0:0:
256,192,43482,1,0,0:0:0:0:
256,192,43821,1,2,0:0:0:0:
256,192,43991,1,0,0:0:0:0:
256,192,44076,1,2,0:0:0:0:
256,192,44160,1,0,0:0:0:0:
256,192,44330,1,0,0:0:0:0:
256,192,44669,1,6,0:0:0:0:
256,192,45008,1,0,0:0:0:0:
256,192,45177,1,2,0:0:0:0:
256,192,45347,1,0,0:0:0:0:
256,192,45516,1,0,0:0:0:0:
256,192,45573,1,0,0:0:0:0:
256,192,45629,1,0,0:0:0:0:
256,192,45686,1,0,0:0:0:0:
256,192,45855,1,6,0:0:0:0:
256,192,46194,1,4,0:0:0:0:
256,192,46533,1,2,0:0:0:0:
256,192,46872,1,0,0:0:0:0:
256,192,47042,1,0,0:0:0:0:
256,192,47211,1,2,0:0:0:0:
256,192,47550,1,0,0:0:0:0:
256,192,47889,1,2,0:0:0:0:
256,192,48059,1,2,0:0:0:0:
256,192,48228,1,0,0:0:0:0:
256,192,48398,1,0,0:0:0:0:
256,192,48567,1,2,0:0:0:0:
256,192,48906,1,4,0:0:0:0:
256,192,49245,1,2,0:0:0:0:
256,192,49584,1,0,0:0:0:0:
256,192,49754,1,0,0:0:0:0:
256,192,49923,1,2,0:0:0:0:
256,192,50262,1,0,0:0:0:0:
256,192,50601,1,2,0:0:0:0:
256,192,50770,1,0,0:0:0:0:
256,192,50855,1,0,0:0:0:0:
256,192,50940,1,0,0:0:0:0:
256,192,51109,1,0,0:0:0:0:
256,192,51279,1,2,0:0:0:0:
256,192,51618,1,4,0:0:0:0:
256,192,51872,1,2,0:0:0:0:
256,192,51957,1,0,0:0:0:0:
256,192,52126,1,0,0:0:0:0:
256,192,52296,1,2,0:0:0:0:
256,192,52635,1,2,0:0:0:0:
256,192,52720,1,2,0:0:0:0:
256,192,52804,1,2,0:0:0:0:
256,192,52889,1,2,0:0:0:0:
256,192,52974,1,0,0:0:0:0:
256,192,53143,1,2,0:0:0:0:
256,192,53313,1,0,0:0:0:0:
256,192,53652,1,2,0:0:0:0:
256,192,53906,1,0,0:0:0:0:
256,192,53991,1,2,0:0:0:0:
256,192,54076,1,2,0:0:0:0:
256,192,54160,1,2,0:0:0:0:
256,192,54245,1,2,0:0:0:0:
256,192,54330,1,0,0:0:0:0:
256,192,54584,1,0,0:0:0:0:
256,192,54669,1,2,0:0:0:0:
256,192,54838,1,0,0:0:0:0:
256,192,54923,1,0,0:0:0:0:
256,192,55008,1,2,0:0:0:0:
256,192,55093,1,2,0:0:0:0:
256,192,55177,1,0,0:0:0:0:
256,192,55347,1,2,0:0:0:0:
256,192,55516,1,0,0:0:0:0:
256,192,55601,1,0,0:0:0:0:
256,192,55686,1,2,0:0:0:0:
256,192,55770,1,0,0:0:0:0:
256,192,55940,1,0,0:0:0:0:
256,192,56025,1,2,0:0:0:0:
256,192,56194,1,0,0:0:0:0:
256,192,56279,1,0,0:0:0:0:
256,192,56364,1,2,0:0:0:0:
256,192,56448,1,2,0:0:0:0:
256,192,56533,1,0,0:0:0:0:
256,192,56618,1,2,0:0:0:0:
256,192,56703,1,2,0:0:0:0:
256,192,56872,1,0,0:0:0:0:
256,192,56929,1,0,0:0:0:0:
256,192,56985,1,0,0:0:0:0:
256,192,57042,1,2,0:0:0:0:
256,192,57296,1,0,0:0:0:0:
256,192,57550,1,0,0:0:0:0:
256,192,57720,1,2,0:0:0:0:
256,192,57974,1,0,0:0:0:0:
256,192,58059,1,2,0:0:0:0:
256,192,58228,1,0,0:0:0:0:
256,192,58398,1,2,0:0:0:0:
256,192,58652,1,0,0:0:0:0:
256,192,58737,1,2,0:0:0:0:
256,192,58821,1,2,0:0:0:0:
256,192,58906,1,0,0:0:0:0:
256,192,59076,1,2,0:0:0:0:
256,192,59245,1,0,0:0:0:0:
256,192,59415,1,2,0:0:0:0:
256,192,59584,1,2,0:0:0:0:
256,192,59669,1,2,0:0:0:0:
256,192,59754,1,0,0:0:0:0:
256,192,59923,12,0,60601,0:0:0:0:
256,192,60770,5,6,0:0:0:0:
256,192,61109,5,4,0:0:0:0:
256,192,61448,1,2,0:0:0:0:
256,192,61618,1,0,0:0:0:0:
256,192,61703,1,0,0:0:0:0:
256,192,61787,1,2,0:0:0:0:
256,192,61957,1,0,0:0:0:0:
256,192,62126,1,2,0:0:0:0:
256,192,62296,1,0,0:0:0:0:
256,192,62381,1,2,0:0:0:0:
256,192,62550,1,2,0:0:0:0:
256,192,62635,1,0,0:0:0:0:
256,192,62804,1,2,0:0:0:0:
256,192,62974,1,0,0:0:0:0:
256,192,63059,1,0,0:0:0:0:
256,192,63143,1,2,0:0:0:0:
256,192,63228,1,0,0:0:0:0:
256,192,63313,1,0,0:0:0:0:
256,192,63482,1,2,0:0:0:0:
256,192,63652,1,2,0:0:0:0:
256,192,63737,1,2,0:0:0:0:
256,192,63821,1,0,0:0:0:0:
256,192,64076,1,0,0:0:0:0:
256,192,64160,1,2,0:0:0:0:
256,192,64330,1,0,0:0:0:0:
256,192,64499,1,2,0:0:0:0:
256,192,64584,1,2,0:0:0:0:
256,192,64669,1,0,0:0:0:0:
256,192,64838,1,2,0:0:0:0:
256,192,65008,1,0,0:0:0:0:
256,192,65093,1,2,0:0:0:0:
256,192,65177,1,2,0:0:0:0:
256,192,65347,1,0,0:0:0:0:
256,192,65516,1,2,0:0:0:0:
256,192,65686,1,0,0:0:0:0:
256,192,65770,1,0,0:0:0:0:
256,192,65855,1,2,0:0:0:0:
256,192,65940,1,2,0:0:0:0:
256,192,66025,1,0,0:0:0:0:
256,192,66194,1,2,0:0:0:0:
256,192,66364,1,2,0:0:0:0:
256,192,66533,1,0,0:0:0:0:
256,192,66872,1,2,0:0:0:0:
256,192,67042,1,0,0:0:0:0:
256,192,67211,1,2,0:0:0:0:
256,192,67296,1,2,0:0:0:0:
256,192,67381,1,0,0:0:0:0:
256,192,67550,1,2,0:0:0:0:
256,192,67720,1,0,0:0:0:0:
256,192,67804,1,2,0:0:0:0:
256,192,67889,1,0,0:0:0:0:
256,192,68059,1,0,0:0:0:0:
256,192,68228,1,2,0:0:0:0:
256,192,68398,1,0,0:0:0:0:
256,192,68567,1,2,0:0:0:0:
256,192,68652,1,2,0:0:0:0:
256,192,68737,1,0,0:0:0:0:
256,192,68821,1,0,0:0:0:0:
256,192,68906,1,2,0:0:0:0:
256,192,69076,1,2,0:0:0:0:
256,192,69245,1,4,0:0:0:0:
256,192,69584,1,2,0:0:0:0:
256,192,69754,1,0,0:0:0:0:
256,192,70093,5,0,0:0:0:0:
256,192,70262,1,2,0:0:0:0:
256,192,70431,1,0,0:0:0:0:
256,192,70516,1,0,0:0:0:0:
256,192,70601,1,2,0:0:0:0:
256,192,70855,1,0,0:0:0:0:
256,192,70940,1,2,0:0:0:0:
256,192,71109,5,0,0:0:0:0:
256,192,71279,1,2,0:0:0:0:
256,192,71364,1,0,0:0:0:0:
256,192,71448,1,0,0:0:0:0:
256,192,71618,1,2,0:0:0:0:
256,192,71703,1,0,0:0:0:0:
256,192,71787,1,2,0:0:0:0:
256,192,71872,1,2,0:0:0:0:
256,192,71957,1,0,0:0:0:0:
256,192,72296,1,2,0:0:0:0:
256,192,72465,1,0,0:0:0:0:
256,192,72550,1,2,0:0:0:0:
256,192,72635,1,0,0:0:0:0:
256,192,72804,1,0,0:0:0:0:
256,192,72974,1,2,0:0:0:0:
256,192,73143,1,0,0:0:0:0:
256,192,73228,1,2,0:0:0:0:
256,192,73398,1,2,0:0:0:0:
256,192,73482,1,0,0:0:0:0:
256,192,73652,1,2,0:0:0:0:
256,192,73821,1,0,0:0:0:0:
256,192,73991,1,2,0:0:0:0:
256,192,74076,1,2,0:0:0:0:
256,192,74160,1,0,0:0:0:0:
256,192,74245,1,0,0:0:0:0:
256,192,74330,1,2,0:0:0:0:
256,192,74499,1,2,0:0:0:0:
256,192,74669,1,4,0:0:0:0:
256,192,74923,1,0,0:0:0:0:
256,192,75008,1,2,0:0:0:0:
256,192,75177,1,0,0:0:0:0:
256,192,75347,1,2,0:0:0:0:
256,192,75431,1,2,0:0:0:0:
256,192,75516,1,0,0:0:0:0:
256,192,75686,1,2,0:0:0:0:
256,192,75855,1,0,0:0:0:0:
256,192,75940,1,0,0:0:0:0:
256,192,76025,1,2,0:0:0:0:
256,192,76194,1,0,0:0:0:0:
256,192,76364,1,2,0:0:0:0:
256,192,76533,1,0,0:0:0:0:
256,192,76618,1,2,0:0:0:0:
256,192,76703,1,2,0:0:0:0:
256,192,76787,1,0,0:0:0:0:
256,192,76872,1,0,0:0:0:0:
256,192,77042,1,2,0:0:0:0:
256,192,77211,1,2,0:0:0:0:
256,192,77381,1,4,0:0:0:0:
256,192,77720,1,2,0:0:0:0:
256,192,77889,1,0,0:0:0:0:
256,192,77974,1,0,0:0:0:0:
256,192,78059,1,2,0:0:0:0:
256,192,78143,1,2,0:0:0:0:
256,192,78228,1,0,0:0:0:0:
256,192,78398,1,2,0:0:0:0:
256,192,78567,1,0,0:0:0:0:
256,192,78652,1,2,0:0:0:0:
256,192,78737,1,0,0:0:0:0:
256,192,78906,1,0,0:0:0:0:
256,192,79076,1,2,0:0:0:0:
256,192,79245,1,2,0:0:0:0:
256,192,79330,1,2,0:0:0:0:
256,192,79415,1,0,0:0:0:0:
256,192,79499,1,2,0:0:0:0:
256,192,79584,1,0,0:0:0:0:
256,192,79669,1,0,0:0:0:0:
256,192,79754,1,2,0:0:0:0:
256,192,79923,1,2,0:0:0:0:
256,192,80093,1,4,0:0:0:0:
256,192,80347,1,0,0:0:0:0:
256,192,80431,1,2,0:0:0:0:
256,192,80601,1,0,0:0:0:0:
256,192,80770,1,2,0:0:0:0:
256,192,80855,1,2,0:0:0:0:
256,192,80940,1,0,0:0:0:0:
256,192,81109,1,2,0:0:0:0:
256,192,81448,1,2,0:0:0:0:
256,192,81618,1,0,0:0:0:0:
256,192,81787,1,2,0:0:0:0:
256,192,81957,1,0,0:0:0:0:
256,192,82013,1,0,0:0:0:0:
256,192,82070,1,0,0:0:0:0:
256,192,82126,1,2,0:0:0:0:
256,192,82296,1,0,0:0:0:0:
256,192,82465,1,2,0:0:0:0:
256,192,82635,1,0,0:0:0:0:
256,192,82804,1,4,0:0:0:0:
256,192,83143,1,2,0:0:0:0:
256,192,83312,1,0,0:0:0:0:
256,192,83397,1,0,0:0:0:0:
256,192,83482,1,2,0:0:0:0:
256,192,83651,1,0,0:0:0:0:
256,192,83821,1,2,0:0:0:0:
256,192,83990,1,0,0:0:0:0:
256,192,84075,1,2,0:0:0:0:
256,192,84244,1,2,0:0:0:0:
256,192,84329,1,0,0:0:0:0:
256,192,84499,1,2,0:0:0:0:
256,192,84668,1,0,0:0:0:0:
256,192,84753,1,0,0:0:0:0:
256,192,84838,1,2,0:0:0:0:
256,192,84922,1,2,0:0:0:0:
256,192,85007,1,0,0:0:0:0:
256,192,85177,1,2,0:0:0:0:
256,192,85346,1,2,0:0:0:0:
256,192,85516,1,0,0:0:0:0:
256,192,85855,1,2,0:0:0:0:
256,192,86109,1,2,0:0:0:0:
256,192,86194,1,0,0:0:0:0:
256,192,86363,1,0,0:0:0:0:
256,192,86533,1,2,0:0:0:0:
256,192,86702,1,0,0:0:0:0:
256,192,86787,1,0,0:0:0:0:
256,192,86957,1,2,0:0:0:0:
256,192,87041,1,0,0:0:0:0:
256,192,87211,1,2,0:0:0:0:
256,192,87380,1,0,0:0:0:0:
256,192,87550,1,2,0:0:0:0:
256,192,87634,1,2,0:0:0:0:
256,192,87719,1,0,0:0:0:0:
256,192,87804,1,0,0:0:0:0:
256,192,87888,1,2,0:0:0:0:
256,192,88058,1,2,0:0:0:0:
256,192,88227,1,0,0:0:0:0:
256,192,88566,1,2,0:0:0:0:
256,192,88736,1,0,0:0:0:0:
256,192,88906,1,2,0:0:0:0:
256,192,88991,1,2,0:0:0:0:
256,192,89076,1,0,0:0:0:0:
256,192,89245,1,2,0:0:0:0:
256,192,89415,1,0,0:0:0:0:
256,192,89499,1,2,0:0:0:0:
256,192,89584,1,0,0:0:0:0:
256,192,89754,1,0,0:0:0:0:
256,192,89923,1,2,0:0:0:0:
256,192,90093,1,2,0:0:0:0:
256,192,90177,1,0,0:0:0:0:
256,192,90262,1,2,0:0:0:0:
256,192,90347,1,2,0:0:0:0:
256,192,90431,1,0,0:0:0:0:
256,192,90601,1,6,0:0:0:0:
256,192,90940,1,4,0:0:0:0:
256,192,91279,1,2,0:0:0:0:
256,192,91618,1,0,0:0:0:0:
256,192,91787,1,0,0:0:0:0:
256,192,91957,1,2,0:0:0:0:
256,192,92126,1,0,0:0:0:0:
256,192,92465,1,0,0:0:0:0:
256,192,92635,1,2,0:0:0:0:
256,192,92974,1,0,0:0:0:0:
256,192,93143,1,0,0:0:0:0:
256,192,93313,1,2,0:0:0:0:
256,192,93482,1,2,0:0:0:0:
256,192,93567,1,2,0:0:0:0:
256,192,93652,1,0,0:0:0:0:
256,192,93991,1,2,0:0:0:0:
256,192,94160,1,0,0:0:0:0:
256,192,94245,1,0,0:0:0:0:
256,192,94330,1,2,0:0:0:0:
256,192,94499,1,0,0:0:0:0:
256,192,94669,1,2,0:0:0:0:
256,192,94838,1,0,0:0:0:0:
256,192,94923,1,2,0:0:0:0:
256,192,95093,1,2,0:0:0:0:
256,192,95177,1,0,0:0:0:0:
256,192,95347,1,2,0:0:0:0:
256,192,95516,1,0,0:0:0:0:
256,192,95686,1,2,0:0:0:0:
256,192,95770,1,2,0:0:0:0:
256,192,95855,1,0,0:0:0:0:
256,192,95940,1,0,0:0:0:0:
256,192,96025,1,2,0:0:0:0:
256,192,96194,1,2,0:0:0:0:
256,192,96364,1,0,0:0:0:0:
256,192,96703,1,2,0:0:0:0:
256,192,96957,1,2,0:0:0:0:
256,192,97042,1,0,0:0:0:0:
256,192,97211,1,0,0:0:0:0:
256,192,97381,1,2,0:0:0:0:
256,192,97550,1,0,0:0:0:0:
256,192,97635,1,2,0:0:0:0:
256,192,97804,1,2,0:0:0:0:
256,192,97889,1,0,0:0:0:0:
256,192,98059,1,2,0:0:0:0:
256,192,98228,1,0,0:0:0:0:
256,192,98313,1,2,0:0:0:0:
256,192,98398,1,0,0:0:0:0:
256,192,98482,1,0,0:0:0:0:
256,192,98567,1,2,0:0:0:0:
256,192,98652,1,0,0:0:0:0:
256,192,98737,1,2,0:0:0:0:
256,192,98906,1,2,0:0:0:0:
256,192,99076,1,0,0:0:0:0:
256,192,99415,1,2,0:0:0:0:
256,192,99584,1,0,0:0:0:0:
256,192,99669,1,2,0:0:0:0:
256,192,99754,1,2,0:0:0:0:
256,192,99923,1,0,0:0:0:0:
256,192,100093,1,2,0:0:0:0:
256,192,100262,1,0,0:0:0:0:
256,192,100347,1,2,0:0:0:0:
256,192,100431,1,0,0:0:0:0:
256,192,100601,1,0,0:0:0:0:
256,192,100770,1,2,0:0:0:0:
256,192,100855,1,2,0:0:0:0:
256,192,100940,1,0,0:0:0:0:
256,192,101025,1,0,0:0:0:0:
256,192,101109,1,2,0:0:0:0:
256,192,101279,1,0,0:0:0:0:
256,192,101448,1,2,0:0:0:0:
256,192,101787,1,4,0:0:0:0:
256,192,101957,12,0,103991,0:0:0:0:
256,192,104160,5,6,0:0:0:0:
256,192,104499,1,4,0:0:0:0:
256,192,112635,5,4,0:0:0:0:
256,192,112889,1,2,0:0:0:0:
256,192,112974,1,2,0:0:0:0:
256,192,113143,1,0,0:0:0:0:
256,192,113313,1,2,0:0:0:0:
256,192,113398,1,2,0:0:0:0:
256,192,113482,1,0,0:0:0:0:
256,192,113567,1,2,0:0:0:0:
256,192,113652,1,0,0:0:0:0:
256,192,113821,1,2,0:0:0:0:
256,192,113991,1,2,0:0:0:0:
256,192,114160,1,0,0:0:0:0:
256,192,114330,1,2,0:0:0:0:
256,192,114415,1,0,0:0:0:0:
256,192,114499,1,2,0:0:0:0:
256,192,114584,1,2,0:0:0:0:
256,192,114669,1,0,0:0:0:0:
256,192,114725,1,2,0:0:0:0:
256,192,114782,1,2,0:0:0:0:
256,192,114838,1,0,0:0:0:0:
256,192,115008,1,2,0:0:0:0:
256,192,115347,1,4,0:0:0:0:
256,192,115686,1,2,0:0:0:0:
256,192,115855,1,0,0:0:0:0:
256,192,115940,1,0,0:0:0:0:
256,192,116025,1,2,0:0:0:0:
256,192,116194,1,0,0:0:0:0:
256,192,116364,1,2,0:0:0:0:
256,192,116533,1,0,0:0:0:0:
256,192,116618,1,0,0:0:0:0:
256,192,116703,1,2,0:0:0:0:
256,192,117042,1,2,0:0:0:0:
256,192,117211,1,0,0:0:0:0:
256,192,117296,1,0,0:0:0:0:
256,192,117381,1,2,0:0:0:0:
256,192,117550,1,0,0:0:0:0:
256,192,117720,1,2,0:0:0:0:
256,192,117889,1,2,0:0:0:0:
256,192,118059,1,0,0:0:0:0:
256,192,118398,1,2,0:0:0:0:
256,192,118567,1,0,0:0:0:0:
256,192,118652,1,0,0:0:0:0:
256,192,118737,1,2,0:0:0:0:
256,192,118906,1,0,0:0:0:0:
256,192,119076,1,2,0:0:0:0:
256,192,119245,1,0,0:0:0:0:
269,168,119330,1,0,0:0:0:0:
256,192,119415,1,2,0:0:0:0:
256,192,119754,1,2,0:0:0:0:
256,192,119923,1,0,0:0:0:0:
256,192,120008,1,0,0:0:0:0:
256,192,120093,1,2,0:0:0:0:
256,192,120262,1,0,0:0:0:0:
256,192,120432,1,2,0:0:0:0:
256,192,120601,1,2,0:0:0:0:
256,192,120771,1,0,0:0:0:0:
256,192,121109,1,2,0:0:0:0:
256,192,121279,1,0,0:0:0:0:
256,192,121364,1,0,0:0:0:0:
256,192,121448,1,2,0:0:0:0:
256,192,121618,1,0,0:0:0:0:
256,192,121787,1,2,0:0:0:0:
256,192,121872,1,0,0:0:0:0:
256,192,121957,1,2,0:0:0:0:
256,192,122042,1,2,0:0:0:0:
256,192,122126,1,0,0:0:0:0:
256,192,122296,1,0,0:0:0:0:
256,192,122465,1,2,0:0:0:0:
256,192,122635,1,0,0:0:0:0:
256,192,122720,1,0,0:0:0:0:
256,192,122804,1,2,0:0:0:0:
256,192,122889,1,2,0:0:0:0:
256,192,122974,1,0,0:0:0:0:
256,192,123059,1,2,0:0:0:0:
256,192,123143,1,0,0:0:0:0:
256,192,123313,1,2,0:0:0:0:
256,192,123482,1,0,0:0:0:0:
256,192,123567,1,2,0:0:0:0:
256,192,123652,1,0,0:0:0:0:
256,192,123737,1,0,0:0:0:0:
256,192,123821,1,2,0:0:0:0:
256,192,123906,1,0,0:0:0:0:
256,192,123991,1,2,0:0:0:0:
256,192,124076,1,2,0:0:0:0:
256,192,124160,1,0,0:0:0:0:
256,192,124217,1,0,0:0:0:0:
256,192,124273,1,0,0:0:0:0:
256,192,124330,1,2,0:0:0:0:
256,192,124415,1,2,0:0:0:0:
256,192,124499,1,0,0:0:0:0:
256,192,124584,1,0,0:0:0:0:
256,192,124669,1,2,0:0:0:0:
256,192,124838,1,4,0:0:0:0:
256,192,125516,1,6,0:0:0:0:
256,192,126194,1,4,0:0:0:0:
262,182,126533,1,2,0:0:0:0:
256,192,126703,1,0,0:0:0:0:
256,192,126872,1,2,0:0:0:0:
256,192,127042,1,0,0:0:0:0:
256,192,127126,1,2,0:0:0:0:
256,192,127211,1,2,0:0:0:0:
256,192,127381,1,0,0:0:0:0:
256,192,127635,1,2,0:0:0:0:
256,192,127720,1,0,0:0:0:0:
256,192,127889,1,2,0:0:0:0:
256,192,128059,1,0,0:0:0:0:
256,192,128143,1,0,0:0:0:0:
256,192,128228,1,2,0:0:0:0:
256,192,128313,1,0,0:0:0:0:
256,192,128398,1,2,0:0:0:0:
256,192,128567,1,0,0:0:0:0:
256,192,128737,1,2,0:0:0:0:
256,192,128906,1,0,0:0:0:0:
256,192,129245,1,2,0:0:0:0:
256,192,129415,1,0,0:0:0:0:
256,192,129499,1,0,0:0:0:0:
256,192,129584,1,2,0:0:0:0:
256,192,129754,1,0,0:0:0:0:
256,192,129923,1,2,0:0:0:0:
256,192,130093,1,4,0:0:0:0:
256,192,130431,1,0,0:0:0:0:
256,192,130601,1,2,0:0:0:0:
256,192,130770,1,4,0:0:0:0:
256,192,130940,1,2,0:0:0:0:
256,192,131025,1,0,0:0:0:0:
256,192,131109,1,2,0:0:0:0:
256,192,131194,1,2,0:0:0:0:
256,192,131279,1,0,0:0:0:0:
256,192,131448,1,2,0:0:0:0:
256,192,131618,1,4,0:0:0:0:
256,192,131957,1,2,0:0:0:0:
256,192,132126,1,0,0:0:0:0:
256,192,132211,1,0,0:0:0:0:
256,192,132296,1,2,0:0:0:0:
256,192,132465,1,2,0:0:0:0:
256,192,132550,1,2,0:0:0:0:
256,192,132635,1,0,0:0:0:0:
256,192,132804,1,2,0:0:0:0:
256,192,132974,1,0,0:0:0:0:
256,192,133143,1,0,0:0:0:0:
256,192,133228,1,2,0:0:0:0:
256,192,133313,1,2,0:0:0:0:
256,192,133398,1,2,0:0:0:0:
256,192,133482,1,0,0:0:0:0:
256,192,133652,1,2,0:0:0:0:
256,192,133821,1,0,0:0:0:0:
256,192,133906,1,2,0:0:0:0:
256,192,133991,1,0,0:0:0:0:
256,192,134047,1,0,0:0:0:0:
256,192,134104,1,0,0:0:0:0:
256,192,134160,1,2,0:0:0:0:
256,192,134330,1,4,0:0:0:0:
256,192,134584,1,2,0:0:0:0:
256,192,134669,1,2,0:0:0:0:
256,192,134838,1,0,0:0:0:0:
256,192,135008,1,2,0:0:0:0:
256,192,135347,1,4,0:0:0:0:
256,192,135686,1,2,0:0:0:0:
256,192,135742,1,2,0:0:0:0:
256,192,135799,1,2,0:0:0:0:
256,192,135855,1,2,0:0:0:0:
256,192,136025,1,2,0:0:0:0:
256,192,136194,1,0,0:0:0:0:
256,192,136364,1,2,0:0:0:0:
256,192,136533,1,0,0:0:0:0:
256,192,136590,1,2,0:0:0:0:
256,192,136646,1,2,0:0:0:0:
256,192,136703,1,2,0:0:0:0:
256,192,136872,1,2,0:0:0:0:
256,192,137042,1,4,0:0:0:0:
256,192,137381,1,0,0:0:0:0:
256,192,137550,1,0,0:0:0:0:
256,192,137720,1,2,0:0:0:0:
256,192,137889,1,0,0:0:0:0:
256,192,137974,1,2,0:0:0:0:
256,192,138059,1,2,0:0:0:0:
256,192,138228,1,0,0:0:0:0:
256,192,138482,1,2,0:0:0:0:
256,192,138567,1,0,0:0:0:0:
256,192,138737,1,2,0:0:0:0:
256,192,138906,1,0,0:0:0:0:
256,192,138991,1,0,0:0:0:0:
256,192,139076,1,2,0:0:0:0:
256,192,139245,1,0,0:0:0:0:
256,192,139330,1,2,0:0:0:0:
256,192,139415,1,2,0:0:0:0:
256,192,139499,1,0,0:0:0:0:
256,192,139584,1,2,0:0:0:0:
256,192,139669,1,2,0:0:0:0:
256,192,139754,1,0,0:0:0:0:
256,192,140093,1,2,0:0:0:0:
256,192,140262,1,0,0:0:0:0:
256,192,140347,1,0,0:0:0:0:
256,192,140431,1,2,0:0:0:0:
256,192,140516,1,2,0:0:0:0:
256,192,140601,1,0,0:0:0:0:
256,192,140770,1,2,0:0:0:0:
256,192,140940,1,4,0:0:0:0:
256,192,141279,1,2,0:0:0:0:
256,192,141335,1,2,0:0:0:0:
256,192,141392,1,2,0:0:0:0:
256,192,141448,1,0,0:0:0:0:
256,192,141618,1,0,0:0:0:0:
256,192,141787,1,2,0:0:0:0:
256,192,141872,1,0,0:0:0:0:
256,192,141957,1,0,0:0:0:0:
256,192,142042,1,2,0:0:0:0:
256,192,142126,1,0,0:0:0:0:
256,192,142296,1,2,0:0:0:0:
256,192,142465,1,4,0:0:0:0:
256,192,142804,1,0,0:0:0:0:
256,192,142974,1,2,0:0:0:0:
256,192,143059,1,0,0:0:0:0:
256,192,143143,1,2,0:0:0:0:
256,192,143313,1,0,0:0:0:0:
256,192,143398,1,0,0:0:0:0:
256,192,143482,1,2,0:0:0:0:
256,192,143652,1,0,0:0:0:0:
256,192,143821,1,2,0:0:0:0:
256,192,143991,1,0,0:0:0:0:
256,192,144076,1,0,0:0:0:0:
256,192,144160,1,2,0:0:0:0:
256,192,144245,1,2,0:0:0:0:
256,192,144330,1,0,0:0:0:0:
256,192,144499,1,2,0:0:0:0:
256,192,144556,1,2,0:0:0:0:
256,192,144612,1,2,0:0:0:0:
256,192,144669,1,2,0:0:0:0:
256,192,144838,1,0,0:0:0:0:
256,192,145008,1,2,0:0:0:0:
256,192,145177,1,4,0:0:0:0:
256,192,145516,1,2,0:0:0:0:
256,192,145686,1,4,0:0:0:0:
256,192,146025,1,2,0:0:0:0:
256,192,146194,1,4,0:0:0:0:
256,192,146364,1,0,0:0:0:0:
256,192,146533,1,2,0:0:0:0:
256,192,146703,1,4,0:0:0:0:
256,192,147042,1,0,0:0:0:0:
256,192,147098,1,0,0:0:0:0:
256,192,147155,1,0,0:0:0:0:
256,192,147211,1,2,0:0:0:0:
256,192,147381,1,0,0:0:0:0:
256,192,147550,1,2,0:0:0:0:
256,192,147720,1,2,0:0:0:0:
256,192,147804,1,2,0:0:0:0:
256,192,147889,1,0,0:0:0:0:
256,192,148228,1,6,0:0:0:0:
256,192,148482,1,2,0:0:0:0:
256,192,148567,1,0,0:0:0:0:
256,192,148737,1,0,0:0:0:0:
256,192,148906,1,2,0:0:0:0:
256,192,149076,1,0,0:0:0:0:
256,192,149160,1,2,0:0:0:0:
256,192,149245,1,0,0:0:0:0:
256,192,149415,1,0,0:0:0:0:
256,192,149499,1,0,0:0:0:0:
256,192,149584,1,2,0:0:0:0:
256,192,149754,1,0,0:0:0:0:
256,192,149923,1,2,0:0:0:0:
256,192,150008,1,2,0:0:0:0:
256,192,150093,1,0,0:0:0:0:
256,192,150177,1,0,0:0:0:0:
256,192,150262,1,2,0:0:0:0:
256,192,150431,1,2,0:0:0:0:
256,192,150601,1,0,0:0:0:0:
256,192,150940,1,2,0:0:0:0:
256,192,151109,1,0,0:0:0:0:
256,192,151194,1,2,0:0:0:0:
256,192,151279,1,0,0:0:0:0:
256,192,151448,1,0,0:0:0:0:
256,192,151618,1,2,0:0:0:0:
256,192,151703,1,0,0:0:0:0:
256,192,151787,1,2,0:0:0:0:
256,192,151872,1,2,0:0:0:0:
256,192,151957,1,0,0:0:0:0:
256,192,152126,1,0,0:0:0:0:
256,192,152296,1,2,0:0:0:0:
256,192,152465,1,0,0:0:0:0:
256,192,152550,1,0,0:0:0:0:
256,192,152635,1,2,0:0:0:0:
256,192,152720,1,2,0:0:0:0:
256,192,152804,1,0,0:0:0:0:
256,192,152974,1,2,0:0:0:0:
256,192,153143,1,2,0:0:0:0:
256,192,153313,1,0,0:0:0:0:
256,192,153652,1,6,0:0:0:0:
256,192,153906,1,2,0:0:0:0:
256,192,153991,1,0,0:0:0:0:
256,192,154160,1,0,0:0:0:0:
256,192,154330,1,2,0:0:0:0:
256,192,154499,1,2,0:0:0:0:
256,192,154584,1,2,0:0:0:0:
256,192,154669,1,0,0:0:0:0:
256,192,154838,1,0,0:0:0:0:
256,192,155008,1,2,0:0:0:0:
256,192,155093,1,2,0:0:0:0:
256,192,155177,1,0,0:0:0:0:
256,192,155262,1,0,0:0:0:0:
256,192,155347,1,2,0:0:0:0:
256,192,155431,1,0,0:0:0:0:
256,192,155516,1,0,0:0:0:0:
256,192,155686,1,2,0:0:0:0:
256,192,156025,1,4,0:0:0:0:
256,192,156364,1,2,0:0:0:0:
256,192,156533,1,0,0:0:0:0:
256,192,156618,1,0,0:0:0:0:
256,192,156703,1,2,0:0:0:0:
256,192,156787,1,2,0:0:0:0:
256,192,156872,1,0,0:0:0:0:
256,192,156957,1,0,0:0:0:0:
256,192,157042,1,2,0:0:0:0:
256,192,157211,1,0,0:0:0:0:
256,192,157550,1,0,0:0:0:0:
256,192,157720,1,2,0:0:0:0:
256,192,157889,1,0,0:0:0:0:
256,192,157974,1,2,0:0:0:0:
256,192,158059,1,0,0:0:0:0:
256,192,158143,1,0,0:0:0:0:
256,192,158228,1,2,0:0:0:0:
256,192,158398,1,0,0:0:0:0:
256,192,158567,1,2,0:0:0:0:
256,192,158652,1,2,0:0:0:0:
256,192,158737,1,0,0:0:0:0:
256,192,159076,1,2,0:0:0:0:
256,192,159245,1,0,0:0:0:0:
256,192,159330,1,2,0:0:0:0:
256,192,159415,1,0,0:0:0:0:
256,192,159499,1,2,0:0:0:0:
256,192,159584,1,2,0:0:0:0:
256,192,159754,1,0,0:0:0:0:
256,192,159923,1,2,0:0:0:0:
256,192,160008,1,2,0:0:0:0:
256,192,160093,1,0,0:0:0:0:
256,192,160262,1,0,0:0:0:0:
256,192,160431,1,2,0:0:0:0:
256,192,160601,1,0,0:0:0:0:
256,192,160686,1,2,0:0:0:0:
256,192,160770,1,0,0:0:0:0:
256,192,160855,1,0,0:0:0:0:
256,192,160940,1,2,0:0:0:0:
256,192,161025,1,2,0:0:0:0:
256,192,161109,1,0,0:0:0:0:
256,192,161279,1,2,0:0:0:0:
256,192,161448,1,0,0:0:0:0:
256,192,161787,1,2,0:0:0:0:
256,192,161957,1,0,0:0:0:0:
256,192,162042,1,2,0:0:0:0:
256,192,162126,1,0,0:0:0:0:
256,192,162296,1,0,0:0:0:0:
256,192,162381,1,0,0:0:0:0:
256,192,162465,1,2,0:0:0:0:
256,192,162635,1,0,0:0:0:0:
256,192,162804,1,2,0:0:0:0:
256,192,162974,1,2,0:0:0:0:
256,192,163030,1,2,0:0:0:0:
256,192,163087,1,2,0:0:0:0:
256,192,163143,1,2,0:0:0:0:
256,192,163313,1,0,0:0:0:0:
256,192,163398,1,0,0:0:0:0:
256,192,163482,1,2,0:0:0:0:
256,192,163567,1,2,0:0:0:0:
256,192,163652,1,0,0:0:0:0:
256,192,163821,1,2,0:0:0:0:
256,192,163991,1,2,0:0:0:0:
256,192,164047,1,2,0:0:0:0:
256,192,164104,1,2,0:0:0:0:
256,192,164160,1,0,0:0:0:0:
256,192,164499,1,0,0:0:0:0:
256,192,164669,1,0,0:0:0:0:
256,192,164838,1,2,0:0:0:0:
256,192,165093,1,2,0:0:0:0:
256,192,165177,1,0,0:0:0:0:
256,192,165347,1,0,0:0:0:0:
256,192,165516,1,2,0:0:0:0:
256,192,165686,1,0,0:0:0:0:
256,192,165770,1,2,0:0:0:0:
256,192,165855,1,0,0:0:0:0:
256,192,166025,1,0,0:0:0:0:
256,192,166194,1,2,0:0:0:0:
256,192,166279,1,0,0:0:0:0:
256,192,166364,1,2,0:0:0:0:
256,192,166448,1,2,0:0:0:0:
256,192,166533,1,0,0:0:0:0:
256,192,166618,1,0,0:0:0:0:
256,192,166703,1,2,0:0:0:0:
256,192,166787,1,2,0:0:0:0:
256,192,166872,1,0,0:0:0:0:
256,192,167042,12,4,169076,0:0:0:0:
256,192,169245,5,2,0:0:0:0:
256,192,169330,1,2,0:0:0:0:
256,192,169415,1,2,0:0:0:0:
256,192,169471,1,2,0:0:0:0:
256,192,169528,1,2,0:0:0:0:
256,192,169584,1,0,0:0:0:0:
