osu file format v14

[General]
AudioFilename: audioMichael220BPM.mp3
AudioLeadIn: 0
PreviewTime: 17258
Countdown: 0
SampleSet: None
StackLeniency: 0.7
Mode: 0
LetterboxInBreaks: 0
WidescreenStoryboard: 0

[Editor]
DistanceSpacing: 0.4
BeatDivisor: 16
GridSize: 32
TimelineZoom: 2.3

[Metadata]
Title:STARRING STAR
TitleUnicode:スターリングスター
Artist:KEYTALK
ArtistUnicode:KEYTALK
Creator:TheDustOfTimes
Version:Michael220BPM
Source:ドラゴンボール超
Tags:
BeatmapID:2354059
BeatmapSetID:1084317

[Difficulty]
HPDrainRate:5.5
CircleSize:4
OverallDifficulty:9.6
ApproachRate:9.8
SliderMultiplier:1.5
SliderTickRate:1

[Events]
//Background and Video events
0,0,"michael.jpg",0,0
//Break Periods
//Storyboard Layer 0 (Background)
//Storyboard Layer 1 (Fail)
//Storyboard Layer 2 (Pass)
//Storyboard Layer 3 (Foreground)
//Storyboard Layer 4 (Overlay)
//Storyboard Sound Samples

[TimingPoints]
418,272.7273,4,2,0,100,1,0
17873,-100,4,2,0,100,0,1
25508,-100,4,2,0,100,0,0
26600,-100,4,2,0,100,0,1
34236,-100,4,2,0,100,0,0

[HitObjects]
183,168,418,6,0,P|254:188|325:168,1,150
405,97,827,1,0,0:0:0:0:
405,97,963,2,0,P|425:168|405:239,1,150
304,273,1373,1,0,0:0:0:0:
204,238,1509,6,0,B|146:226|146:226|93:238,2,112.5
304,273,2054,2,0,P|338:284|373:272,1,75
512,98,2327,2,0,L|424:98,1,75
273,72,2600,6,0,B|238:87|204:61|204:61|171:38|131:58,1,150
241,224,3009,1,0,0:0:0:0:
250,0,3145,2,0,P|199:51|214:122,1,150
364,208,3555,1,0,0:0:0:0:
363,208,3691,6,0,B|314:237|314:237|259:237,2,112.5
443,131,4236,2,0,L|465:237,1,75
336,100,4509,1,0,0:0:0:0:
416,22,4645,1,0,0:0:0:0:
363,208,4782,6,0,P|291:228|220:208,1,150
185,107,5190,1,0,0:0:0:0:
219,4,5327,2,0,P|271:55|290:127,1,150
115,188,5736,1,0,0:0:0:0:
149,320,5873,6,0,L|226:334,1,75
368,359,6145,1,0,0:0:0:0:
413,218,6281,2,0,L|336:232,1,75
194,257,6554,1,0,0:0:0:0:
363,88,6691,2,0,P|373:123|363:159,1,75
292,338,6964,6,0,B|288:288|288:288|258:252|258:252|253:198,1,150
215,122,7373,2,0,P|250:112|286:122,1,75
348,164,7645,1,0,0:0:0:0:
410,206,7781,2,0,P|400:241|410:277,1,75
459,334,8054,5,0,0:0:0:0:
385,347,8191,1,0,0:0:0:0:
320,308,8327,5,0,0:0:0:0:
246,321,8464,1,0,0:0:0:0:
181,282,8600,5,0,0:0:0:0:
110,127,8736,5,0,0:0:0:0:
144,112,8804,1,0,0:0:0:0:
181,107,8872,1,0,0:0:0:0:
218,112,8941,1,0,0:0:0:0:
252,127,9008,1,0,0:0:0:0:
284,146,9077,1,0,0:0:0:0:
305,177,9145,6,0,P|341:214|395:217,1,75
507,176,9418,2,0,P|471:139|417:136,1,75
431,129,9622,1,0,0:0:0:0:
412,125,9691,1,0,0:0:0:0:
257,86,9827,1,0,0:0:0:0:
301,229,9963,1,0,0:0:0:0:
146,190,10100,1,0,0:0:0:0:
171,51,10236,6,0,B|175:78|175:78|202:95|174:132|210:156|210:156|215:187,1,150
68,178,10645,1,0,0:0:0:0:
170,283,10782,2,0,P|207:287|243:280,1,75
261,273,10986,1,0,0:0:0:0:
276,263,11054,2,0,P|312:256|350:261,1,75
472,321,11327,6,0,L|459:166,1,150
420,39,11736,1,0,0:0:0:0:
420,38,11873,2,0,P|417:78|393:105,1,75
317,128,12145,2,0,P|293:156|291:193,1,75
306,279,12418,6,0,L|225:288,1,75
167,234,12691,2,0,L|86:225,1,75
0,148,12964,2,0,L|81:139,1,75
139,103,13236,1,0,0:0:0:0:
173,87,13304,1,0,0:0:0:0:
210,83,13372,1,0,0:0:0:0:
247,89,13441,1,0,0:0:0:0:
278,108,13509,6,0,P|347:136|417:109,1,150
510,98,14054,2,0,P|464:39|390:27,1,150
302,23,14600,6,0,B|297:75|297:75|267:111|267:111|263:161,1,150
182,202,15145,2,0,P|182:239|200:271,1,75
260,218,15349,5,0,0:0:0:0:
265,199,15418,1,0,0:0:0:0:
265,180,15486,1,0,0:0:0:0:
263,161,15554,1,0,0:0:0:0:
386,80,15691,6,0,P|396:154|367:222,1,150
246,311,16100,1,0,0:0:0:0:
138,43,16236,5,0,0:0:0:0:
367,221,16373,1,0,0:0:0:0:
153,307,16509,5,0,0:0:0:0:
214,28,16645,1,0,0:0:0:0:
434,203,16782,5,0,0:0:0:0:
394,243,16850,1,0,0:0:0:0:
340,261,16918,1,0,0:0:0:0:
285,250,16986,1,0,0:0:0:0:
249,205,17054,5,0,0:0:0:0:
196,185,17123,1,0,0:0:0:0:
144,205,17190,1,0,0:0:0:0:
116,253,17259,1,0,0:0:0:0:
140,301,17327,5,0,0:0:0:0:
195,296,17395,1,0,0:0:0:0:
236,259,17463,1,0,0:0:0:0:
249,205,17531,1,0,0:0:0:0:
233,150,17600,5,0,0:0:0:0:
230,93,17668,1,0,0:0:0:0:
264,49,17736,1,0,0:0:0:0:
316,29,17804,1,0,0:0:0:0:
365,56,17873,6,0,P|408:133|379:213,1,150
288,317,18281,1,0,0:0:0:0:
156,85,18418,2,0,P|146:157|186:218,1,150
364,291,18827,1,0,0:0:0:0:
322,78,18964,5,0,0:0:0:0:
240,301,19100,1,0,0:0:0:0:
198,63,19236,1,0,0:0:0:0:
116,286,19372,1,0,0:0:0:0:
425,227,19509,1,0,0:0:0:0:
425,227,19577,1,0,0:0:0:0:
425,227,19645,1,0,0:0:0:0:
322,78,19782,2,0,P|286:67|250:77,1,75
96,160,20055,6,0,B|84:102|84:102|96:49,2,112.5
261,288,20599,2,0,L|169:293,1,75
22,334,20872,2,0,L|114:329,1,75
186,292,21145,6,0,B|169:212|169:212|211:158,1,150
321,44,21554,1,0,0:0:0:0:
428,171,21690,1,0,0:0:0:0:
428,171,21759,1,0,0:0:0:0:
428,171,21827,1,0,0:0:0:0:
455,16,21963,1,0,0:0:0:0:
303,165,22100,1,0,0:0:0:0:
494,119,22236,6,0,B|505:170|505:170|493:228,2,112.5
406,296,22781,1,0,0:0:0:0:
406,296,22850,1,0,0:0:0:0:
406,296,22918,1,0,0:0:0:0:
378,170,23054,1,0,0:0:0:0:
512,341,23191,1,0,0:0:0:0:
313,358,23327,6,0,B|271:334|239:350|239:350|202:369|168:354,1,150
48,282,23736,1,0,0:0:0:0:
198,198,23872,1,0,0:0:0:0:
215,192,23941,1,0,0:0:0:0:
232,186,24009,1,0,0:0:0:0:
169,354,24145,1,0,0:0:0:0:
77,185,24281,1,0,0:0:0:0:
18,302,24418,6,0,L|28:227,1,75
52,206,24622,1,0,0:0:0:0:
87,110,24691,2,0,L|72:216,1,75
135,289,24964,2,0,L|120:183,1,75
63,42,25236,1,0,0:0:0:0:
278,60,25372,1,0,0:0:0:0:
115,206,25509,5,0,0:0:0:0:
368,150,25645,1,0,0:0:0:0:
368,150,25713,1,0,0:0:0:0:
368,150,25782,1,0,0:0:0:0:
115,206,25918,5,0,0:0:0:0:
130,260,25986,1,0,0:0:0:0:
173,296,26055,1,0,0:0:0:0:
228,293,26122,1,0,0:0:0:0:
269,254,26191,1,0,0:0:0:0:
269,197,26259,1,0,0:0:0:0:
230,155,26327,1,0,0:0:0:0:
174,147,26395,1,0,0:0:0:0:
121,125,26463,1,0,0:0:0:0:
100,72,26532,1,0,0:0:0:0:
121,19,26600,6,0,P|186:-12|257:22,1,150
347,199,27009,1,0,0:0:0:0:
368,0,27145,2,0,L|342:70,1,75
263,167,27418,2,0,L|237:96,1,75
57,122,27690,6,0,P|31:74|40:20,2,112.5
183,195,28236,1,0,0:0:0:0:
199,203,28304,1,0,0:0:0:0:
216,210,28373,1,0,0:0:0:0:
254,336,28509,2,0,P|212:340|180:323,1,75
52,207,28781,6,0,L|70:78,1,112.5
93,68,29054,1,0,0:0:0:0:
177,243,29191,1,0,0:0:0:0:
213,31,29327,2,0,P|248:21|284:31,1,75
403,192,29600,1,0,0:0:0:0:
390,63,29736,1,0,0:0:0:0:
245,125,29872,6,0,P|265:196|245:267,1,150
143,354,30281,1,0,0:0:0:0:
102,208,30418,1,0,0:0:0:0:
93,171,30486,1,0,0:0:0:0:
85,134,30554,1,0,0:0:0:0:
64,347,30691,2,0,P|102:285|174:282,1,150
329,355,31236,5,0,0:0:0:0:
424,250,31372,2,0,L|411:174,1,75
405,138,31577,1,0,0:0:0:0:
398,101,31645,1,0,0:0:0:0:
301,196,31782,1,0,0:0:0:0:
493,168,31918,2,0,L|482:94,2,75
478,222,32259,1,0,0:0:0:0:
424,250,32327,2,0,P|352:270|281:250,1,150
222,203,32668,1,0,0:0:0:0:
208,215,32736,1,0,0:0:0:0:
74,307,32873,1,0,0:0:0:0:
143,160,33009,1,0,0:0:0:0:
47,50,33145,6,0,P|26:122|46:193,1,150
185,297,33554,1,0,0:0:0:0:
251,166,33690,2,0,P|286:176|322:166,1,75
441,93,33963,2,0,P|405:82|369:92,1,75
225,153,34236,6,0,L|243:240,1,75
311,384,34509,2,0,L|329:297,1,75
447,118,34781,5,0,0:0:0:0:
380,94,34850,1,0,0:0:0:0:
319,110,34918,1,0,0:0:0:0:
288,155,34986,1,0,0:0:0:0:
257,196,35053,5,0,0:0:0:0:
219,212,35122,1,0,0:0:0:0:
187,213,35190,1,0,0:0:0:0:
161,202,35259,1,0,0:0:0:0:
150,191,35327,5,0,0:0:0:0:
256,192,35464,12,0,38043,0:0:0:0:
