osu file format v14

[General]
AudioFilename: audioMichael190.000015258789BPM.mp3
AudioLeadIn: 0
PreviewTime: 19994
Countdown: 0
SampleSet: None
StackLeniency: 0.7
Mode: 0
LetterboxInBreaks: 0
WidescreenStoryboard: 1

[Editor]
DistanceSpacing: 0.4
BeatDivisor: 4
GridSize: 32
TimelineZoom: 2.3

[Metadata]
Title:STARRING STAR
TitleUnicode:スターリングスター
Artist:KEYTALK
ArtistUnicode:KEYTALK
Creator:TheDustOfTimes
Version:Michael190
Source:ドラゴンボール超
Tags:
BeatmapID:2354056
BeatmapSetID:1084317

[Difficulty]
HPDrainRate:5.5
CircleSize:4
OverallDifficulty:9
ApproachRate:9.4
SliderMultiplier:1.5
SliderTickRate:1

[Events]
//Background and Video events
0,0,"michael.jpg",0,0
//Break Periods
//Storyboard Layer 0 (Background)
//Storyboard Layer 1 (Fail)
//Storyboard Layer 2 (Pass)
//Storyboard Layer 3 (Foreground)
//Storyboard Layer 4 (Overlay)
//Storyboard Sound Samples

[TimingPoints]
494,315.7895,4,2,0,100,1,0
20704,-100,4,2,0,100,0,1
29546,-100,4,2,0,100,0,0
30809,-100,4,2,0,100,0,1
39651,-100,4,2,0,100,0,0

[HitObjects]
183,168,494,6,0,P|254:188|325:168,1,150
405,97,968,1,0,0:0:0:0:
405,97,1125,2,0,P|425:168|405:239,1,150
304,273,1599,1,0,0:0:0:0:
204,238,1757,6,0,B|146:226|146:226|93:238,2,112.5
304,273,2389,2,0,P|338:284|373:272,1,75
512,98,2704,2,0,L|424:98,1,75
273,72,3020,6,0,B|238:87|204:61|204:61|171:38|131:58,1,150
241,224,3494,1,0,0:0:0:0:
250,0,3652,2,0,P|199:51|214:122,1,150
364,208,4126,1,0,0:0:0:0:
363,208,4283,6,0,B|314:237|314:237|259:237,2,112.5
443,131,4915,2,0,L|465:237,1,75
336,100,5231,1,0,0:0:0:0:
416,22,5388,1,0,0:0:0:0:
363,208,5547,6,0,P|291:228|220:208,1,150
185,107,6020,1,0,0:0:0:0:
219,4,6178,2,0,P|271:55|290:127,1,150
115,188,6652,1,0,0:0:0:0:
149,320,6810,6,0,L|226:334,1,75
368,359,7126,1,0,0:0:0:0:
413,218,7283,2,0,L|336:232,1,75
194,257,7599,1,0,0:0:0:0:
363,88,7757,2,0,P|373:123|363:159,1,75
292,338,8073,6,0,B|288:288|288:288|258:252|258:252|253:198,1,150
215,122,8547,2,0,P|250:112|286:122,1,75
348,164,8862,1,0,0:0:0:0:
410,206,9020,2,0,P|400:241|410:277,1,75
459,334,9336,5,0,0:0:0:0:
385,347,9494,1,0,0:0:0:0:
320,308,9652,5,0,0:0:0:0:
246,321,9810,1,0,0:0:0:0:
181,282,9967,5,0,0:0:0:0:
110,127,10126,5,0,0:0:0:0:
144,112,10204,1,0,0:0:0:0:
181,107,10283,1,0,0:0:0:0:
218,112,10362,1,0,0:0:0:0:
252,127,10442,1,0,0:0:0:0:
284,146,10520,1,0,0:0:0:0:
305,177,10599,6,0,P|341:214|395:217,1,75
507,176,10915,2,0,P|471:139|417:136,1,75
431,129,11152,1,0,0:0:0:0:
412,125,11231,1,0,0:0:0:0:
257,86,11389,1,0,0:0:0:0:
301,229,11547,1,0,0:0:0:0:
146,190,11705,1,0,0:0:0:0:
171,51,11862,6,0,B|175:78|175:78|202:95|174:132|210:156|210:156|215:187,1,150
68,178,12336,1,0,0:0:0:0:
170,283,12494,2,0,P|207:287|243:280,1,75
261,273,12731,1,0,0:0:0:0:
276,263,12810,2,0,P|312:256|350:261,1,75
472,321,13126,6,0,L|459:166,1,150
420,39,13599,1,0,0:0:0:0:
420,38,13757,2,0,P|417:78|393:105,1,75
317,128,14073,2,0,P|293:156|291:193,1,75
306,279,14389,6,0,L|225:288,1,75
167,234,14705,2,0,L|86:225,1,75
0,148,15021,2,0,L|81:139,1,75
139,103,15336,1,0,0:0:0:0:
173,87,15415,1,0,0:0:0:0:
210,83,15494,1,0,0:0:0:0:
247,89,15573,1,0,0:0:0:0:
278,108,15652,6,0,P|347:136|417:109,1,150
510,98,16283,2,0,P|464:39|390:27,1,150
302,23,16915,6,0,B|297:75|297:75|267:111|267:111|263:161,1,150
182,202,17546,2,0,P|182:239|200:271,1,75
260,218,17783,5,0,0:0:0:0:
265,199,17862,1,0,0:0:0:0:
265,180,17941,1,0,0:0:0:0:
263,161,18021,1,0,0:0:0:0:
386,80,18178,6,0,P|396:154|367:222,1,150
246,311,18652,1,0,0:0:0:0:
138,43,18810,5,0,0:0:0:0:
367,221,18968,1,0,0:0:0:0:
153,307,19126,5,0,0:0:0:0:
214,28,19284,1,0,0:0:0:0:
434,203,19441,5,0,0:0:0:0:
394,243,19520,1,0,0:0:0:0:
340,261,19600,1,0,0:0:0:0:
285,250,19678,1,0,0:0:0:0:
249,205,19757,5,0,0:0:0:0:
196,185,19836,1,0,0:0:0:0:
144,205,19915,1,0,0:0:0:0:
116,253,19994,1,0,0:0:0:0:
140,301,20073,5,0,0:0:0:0:
195,296,20152,1,0,0:0:0:0:
236,259,20230,1,0,0:0:0:0:
249,205,20310,1,0,0:0:0:0:
233,150,20389,5,0,0:0:0:0:
230,93,20468,1,0,0:0:0:0:
264,49,20546,1,0,0:0:0:0:
316,29,20625,1,0,0:0:0:0:
365,56,20705,6,0,P|408:133|379:213,1,150
288,317,21178,1,0,0:0:0:0:
156,85,21336,2,0,P|146:157|186:218,1,150
364,291,21810,1,0,0:0:0:0:
322,78,21968,5,0,0:0:0:0:
240,301,22125,1,0,0:0:0:0:
198,63,22284,1,0,0:0:0:0:
116,286,22441,1,0,0:0:0:0:
425,227,22600,1,0,0:0:0:0:
425,227,22678,1,0,0:0:0:0:
425,227,22757,1,0,0:0:0:0:
322,78,22915,2,0,P|286:67|250:77,1,75
96,160,23231,6,0,B|84:102|84:102|96:49,2,112.5
261,288,23862,2,0,L|169:293,1,75
22,334,24178,2,0,L|114:329,1,75
186,292,24494,6,0,B|169:212|169:212|211:158,1,150
321,44,24968,1,0,0:0:0:0:
428,171,25125,1,0,0:0:0:0:
428,171,25204,1,0,0:0:0:0:
428,171,25284,1,0,0:0:0:0:
455,16,25441,1,0,0:0:0:0:
303,165,25599,1,0,0:0:0:0:
494,119,25757,6,0,B|505:170|505:170|493:228,2,112.5
406,296,26389,1,0,0:0:0:0:
406,296,26468,1,0,0:0:0:0:
406,296,26547,1,0,0:0:0:0:
378,170,26704,1,0,0:0:0:0:
512,341,26863,1,0,0:0:0:0:
313,358,27020,6,0,B|271:334|239:350|239:350|202:369|168:354,1,150
48,282,27494,1,0,0:0:0:0:
198,198,27652,1,0,0:0:0:0:
215,192,27729,1,0,0:0:0:0:
232,186,27806,1,0,0:0:0:0:
169,354,27968,1,0,0:0:0:0:
77,185,28125,1,0,0:0:0:0:
18,302,28284,6,0,L|28:227,1,75
52,206,28520,1,0,0:0:0:0:
87,110,28599,2,0,L|72:216,1,75
135,289,28915,2,0,L|120:183,1,75
63,42,29231,1,0,0:0:0:0:
278,60,29389,1,0,0:0:0:0:
115,206,29547,5,0,0:0:0:0:
368,150,29708,1,0,0:0:0:0:
368,150,29785,1,0,0:0:0:0:
368,150,29863,1,0,0:0:0:0:
115,206,30020,5,0,0:0:0:0:
130,260,30099,1,0,0:0:0:0:
173,296,30178,1,0,0:0:0:0:
228,293,30257,1,0,0:0:0:0:
269,254,30336,1,0,0:0:0:0:
269,197,30415,1,0,0:0:0:0:
230,155,30494,1,0,0:0:0:0:
174,147,30573,1,0,0:0:0:0:
121,125,30652,1,0,0:0:0:0:
100,72,30731,1,0,0:0:0:0:
121,19,30810,6,0,P|186:-12|257:22,1,150
347,199,31283,1,0,0:0:0:0:
368,0,31441,2,0,L|342:70,1,75
263,167,31757,2,0,L|237:96,1,75
57,122,32073,6,0,P|31:74|40:20,2,112.5
183,195,32709,1,0,0:0:0:0:
199,203,32786,1,0,0:0:0:0:
216,210,32863,1,0,0:0:0:0:
254,336,33020,2,0,P|212:340|180:323,1,75
52,207,33336,6,0,L|70:78,1,112.5
93,68,33652,1,0,0:0:0:0:
177,243,33810,1,0,0:0:0:0:
213,31,33968,2,0,P|248:21|284:31,1,75
403,192,34283,1,0,0:0:0:0:
390,63,34442,1,0,0:0:0:0:
245,125,34599,6,0,P|265:196|245:267,1,150
143,354,35073,1,0,0:0:0:0:
102,208,35235,1,0,0:0:0:0:
93,171,35312,1,0,0:0:0:0:
85,134,35388,1,0,0:0:0:0:
64,347,35547,2,0,P|102:285|174:282,1,150
329,355,36178,5,0,0:0:0:0:
424,250,36336,2,0,L|411:174,1,75
405,138,36573,1,0,0:0:0:0:
398,101,36652,1,0,0:0:0:0:
301,196,36810,1,0,0:0:0:0:
493,168,36968,2,0,L|482:94,2,75
478,222,37362,1,0,0:0:0:0:
424,250,37442,2,0,P|352:270|281:250,1,150
222,203,37836,1,0,0:0:0:0:
208,215,37915,1,0,0:0:0:0:
74,307,38073,1,0,0:0:0:0:
