osu file format v14

[General]
AudioFilename: KEYTALK - Starring Star.mp3
AudioLeadIn: 2000
PreviewTime: 26110
Countdown: 0
SampleSet: Soft
StackLeniency: 0.6
Mode: 0
LetterboxInBreaks: 0
WidescreenStoryboard: 0

[Editor]
DistanceSpacing: 1.2
BeatDivisor: 4
GridSize: 32
TimelineZoom: 1

[Metadata]
Title:STARRING STAR
TitleUnicode:スターリングスター
Artist:KEYTALK
ArtistUnicode:KEYTALK
Creator:Kagetsu
Version:Insane
Source:ドラゴンボール超
Tags:Marianna HappyRocket88 Dragon Ball Super Akira Toriyama Toei Animation NARASAKI
BeatmapID:828935
BeatmapSetID:378596

[Difficulty]
HPDrainRate:7
CircleSize:4
OverallDifficulty:7
ApproachRate:8.5
SliderMultiplier:1.8
SliderTickRate:1

[Events]
//Background and Video events
0,0,"0000.jpg",0,0
Video,0,"BG.avi"
//Break Periods
//Storyboard Layer 0 (Background)
//Storyboard Layer 1 (Fail)
//Storyboard Layer 2 (Pass)
//Storyboard Layer 3 (Foreground)
//Storyboard Sound Samples

[TimingPoints]
631,410.958904109589,4,2,1,70,1,0
26932,-100,4,2,1,70,0,1
53233,-100,4,2,1,70,0,0
54055,-100,4,2,1,40,0,0
54877,-100,4,2,1,30,0,0
55699,-100,4,2,1,20,0,0
56521,-100,4,2,1,10,0,0
57343,-100,4,2,1,5,0,0

[Colours]
Combo1 : 45,77,225
Combo2 : 172,174,253
Combo3 : 128,255,255

[HitObjects]
33,137,631,6,0,L|225:193,1,180,6|10,0:0|0:0,0:0:0:0:
309,220,1247,1,0,0:0:0:0:
369,129,1453,2,0,P|403:162|410:233,1,90,2|0,0:0|0:0,0:0:0:0:
415,375,1864,2,0,P|382:346|368:303,1,90,2|0,0:0|0:0,0:0:0:0:
459,108,2275,5,2,0:0:0:0:
351,91,2480,1,0,0:0:0:0:
324,195,2685,2,0,P|302:242|252:269,1,90,2|0,0:0|0:0,0:0:0:0:
167,237,3096,2,0,P|189:190|239:163,1,90,2|0,0:0|0:0,0:0:0:0:
324,195,3507,2,0,P|325:148|308:107,1,90,8|0,0:0|0:0,0:0:0:0:
317,294,3918,6,0,P|399:264|420:180,1,180,2|2,0:0|0:0,0:0:0:0:
411,73,4535,1,0,0:0:0:0:
303,81,4741,2,0,L|206:109,1,90,2|0,0:0|0:0,0:0:0:0:
165,200,5151,2,0,L|252:176,1,90,2|0,0:0|0:0,0:0:0:0:
73,151,5562,6,0,P|64:235|128:300,1,180,2|2,0:0|0:0,0:0:0:0:
230,327,6177,1,0,0:0:0:0:
326,194,6384,2,0,P|370:189|410:209,1,90,2|0,0:0|0:0,0:0:0:0:
438,313,6795,2,0,P|393:316|351:298,1,90,8|0,0:0|0:0,0:0:0:0:
225,136,7206,6,0,L|396:68,1,180,6|2,0:0|0:0,0:0:0:0:
501,69,7823,1,0,0:0:0:0:
495,177,8029,2,0,L|401:214,1,90,2|0,0:0|0:0,0:0:0:0:
320,269,8439,2,0,L|380:342,1,90,2|0,0:0|0:0,0:0:0:0:
328,171,8850,6,0,P|239:206|224:292,1,180,2|2,0:0|0:0,0:0:0:0:
297,356,9466,1,0,0:0:0:0:
158,169,9672,2,0,P|115:150|70:153,1,90,2|0,0:0|0:0,0:0:0:0:
98,265,10083,2,0,P|102:309|129:344,1,90,8|0,0:0|0:0,0:0:0:0:
237,339,10494,6,0,P|321:304|370:196,1,180,2|2,0:0|0:0,0:0:0:0:
479,31,11110,2,0,P|389:17|291:84,1,180
260,151,11727,2,0,L|246:243,1,90,2|0,0:0|0:0,0:0:0:0:
176,317,12137,6,0,L|86:305,1,90,2|0,0:0|0:0,0:0:0:0:
281,338,12549,1,2,0:0:0:0:
165,230,12754,1,0,0:0:0:0:
344,251,12960,2,0,L|455:259,1,90,2|8,0:0|0:0,0:0:0:0:
462,223,13267,1,8,0:0:0:0:
481,183,13369,1,8,0:0:0:0:
478,138,13472,1,8,0:0:0:0:
453,102,13575,1,8,0:0:0:0:
413,83,13677,1,8,0:0:0:0:
365,87,13781,6,0,L|196:148,1,180,6|2,0:0|0:0,0:0:0:0:
30,207,14398,1,0,0:0:0:0:
30,207,14501,1,0,0:0:0:0:
30,207,14603,1,2,0:0:0:0:
124,214,14809,1,0,0:0:0:0:
158,306,15014,1,2,0:0:0:0:
195,148,15220,1,0,0:0:0:0:
265,71,15425,6,0,P|344:117|351:216,1,180,2|2,0:0|0:0,0:0:0:0:
316,299,16042,1,0,0:0:0:0:
423,287,16247,2,0,L|500:234,1,90,2|0,0:0|0:0,0:0:0:0:
453,174,16555,1,8,0:0:0:0:
453,174,16658,2,0,L|498:96,1,90,8|0,0:0|0:0,0:0:0:0:
360,18,17069,6,0,L|268:172,1,180,2|2,0:0|0:0,0:0:0:0:
155,156,17686,1,0,0:0:0:0:
203,255,17891,1,0,0:0:0:0:
225,75,18097,1,0,0:0:0:0:
323,224,18302,1,8,0:0:0:0:
489,101,18507,6,0,P|396:73|319:140,1,180
417,181,19124,1,2,0:0:0:0:
413,289,19329,2,0,P|340:338|257:314,1,180
159,270,19946,1,8,0:0:0:0:
127,240,20048,1,8,0:0:0:0:
108,200,20151,1,8,0:0:0:0:
114,156,20254,1,8,0:0:0:0:
146,124,20357,6,0,L|234:92,1,90,6|0,0:0|0:0,0:0:0:0:
247,222,20768,2,0,L|307:150,1,90,2|0,0:0|0:0,0:0:0:0:
384,255,21178,2,0,L|399:162,1,90,2|0,0:0|0:0,0:0:0:0:
399,166,21487,1,0,0:0:0:0:
399,166,21590,1,2,0:0:0:0:
417,60,21795,1,0,0:0:0:0:
230,27,22001,6,0,P|137:40|81:112,1,180,2|8,0:0|0:0,0:0:0:0:
131,198,22617,1,0,0:0:0:0:
19,195,22823,1,2,0:0:0:0:
82,284,23028,1,8,0:0:0:0:
116,299,23130,1,8,0:0:0:0:
153,299,23233,1,8,0:0:0:0:
188,284,23336,1,8,0:0:0:0:
222,271,23438,1,8,0:0:0:0:
259,281,23541,1,8,0:0:0:0:
288,309,23644,6,0,P|370:278|383:176,1,180,6|10,0:0|0:0,0:0:0:0:
271,51,24261,1,8,0:0:0:0:
423,107,24466,1,8,0:0:0:0:
295,210,24671,1,8,0:0:0:0:
361,33,24877,1,8,0:0:0:0:
235,136,25083,1,8,0:0:0:0:
389,195,25288,6,0,L|416:288,1,90,2|8,0:0|0:0,0:0:0:0:
422,326,25597,1,8,0:0:0:0:
387,353,25699,1,8,0:0:0:0:
344,345,25802,1,8,0:0:0:0:
306,321,25905,1,8,0:0:0:0:
263,315,26007,1,8,0:0:0:0:
225,319,26110,5,8,0:0:0:0:
190,329,26212,1,8,0:0:0:0:
153,328,26315,1,8,0:0:0:0:
119,317,26418,1,8,0:0:0:0:
89,296,26520,1,8,0:0:0:0:
67,268,26623,1,8,0:0:0:0:
54,234,26726,1,8,0:0:0:0:
51,198,26829,1,8,0:0:0:0:
56,163,26932,6,0,P|138:130|232:99,1,180,6|8,0:0|0:0,0:0:0:0:
382,62,27549,1,0,0:0:0:0:
327,156,27754,2,0,L|353:243,1,90,2|0,0:0|0:0,0:0:0:0:
475,109,28165,1,8,0:0:0:0:
302,59,28370,1,0,0:0:0:0:
227,223,28576,6,0,P|247:312|323:348,1,180,2|8,0:0|0:0,0:0:0:0:
420,303,29192,1,0,0:0:0:0:
293,154,29398,1,2,0:0:0:0:
293,154,29500,1,8,0:0:0:0:
293,154,29603,1,8,0:0:0:0:
495,175,29809,1,8,0:0:0:0:
324,70,30014,1,0,0:0:0:0:
318,252,30220,6,0,P|382:234|397:139,1,135,2|0,0:0|0:0,0:0:0:0:
391,124,30630,2,0,P|356:83|296:68,1,90,8|0,0:0|0:0,0:0:0:0:
241,55,31041,2,0,P|143:78|98:99,1,135,2|0,0:0|0:0,0:0:0:0:
65,108,31452,2,0,L|36:3,1,90,8|0,0:0|0:0,0:0:0:0:
126,178,31864,6,0,L|315:153,1,180,2|8,0:0|0:0,0:0:0:0:
400,204,32480,1,0,0:0:0:0:
455,34,32686,1,2,0:0:0:0:
455,34,32788,1,8,0:0:0:0:
455,34,32891,1,8,0:0:0:0:
384,121,33097,1,8,0:0:0:0:
495,134,33302,1,0,0:0:0:0:
318,31,33507,6,0,P|227:46|138:65,1,180,6|8,0:0|0:0,0:0:0:0:
33,94,34124,1,0,0:0:0:0:
229,157,34329,1,2,0:0:0:0:
229,157,34432,1,8,0:0:0:0:
229,157,34535,1,8,0:0:0:0:
93,254,34740,1,8,0:0:0:0:
142,65,34946,1,0,0:0:0:0:
187,257,35151,6,0,P|229:244|287:262,1,90,2|0,0:0|0:0,0:0:0:0:
321,350,35562,2,0,P|279:363|221:345,1,90,8|0,0:0|0:0,0:0:0:0:
120,191,35973,1,2,0:0:0:0:
120,191,36076,1,8,0:0:0:0:
120,191,36179,1,8,0:0:0:0:
317,184,36384,1,8,0:0:0:0:
213,151,36590,1,0,0:0:0:0:
398,81,36795,6,0,L|496:101,1,90,2|0,0:0|0:0,0:0:0:0:
473,206,37206,2,0,L|375:226,1,90,8|0,0:0|0:0,0:0:0:0:
379,332,37617,2,0,L|464:364,1,90,2|0,0:0|0:0,0:0:0:0:
286,276,38028,1,8,0:0:0:0:
384,223,38234,1,0,0:0:0:0:
315,38,38439,6,0,P|272:47|241:79,1,90,2|8,0:0|0:0,0:0:0:0:
243,153,38747,1,8,0:0:0:0:
243,153,38850,2,0,P|211:184|168:194,1,90,2|8,0:0|0:0,0:0:0:0:
59,191,39261,1,8,0:0:0:0:
66,235,39363,1,8,0:0:0:0:
90,272,39466,1,8,0:0:0:0:
128,296,39569,1,8,0:0:0:0:
172,304,39671,1,8,0:0:0:0:
215,293,39774,1,8,0:0:0:0:
259,282,39876,1,8,0:0:0:0:
304,291,39979,1,8,0:0:0:0:
339,321,40083,6,0,P|390:249|381:162,1,180,6|8,0:0|0:0,0:0:0:0:
297,94,40699,1,0,0:0:0:0:
163,165,40905,2,0,L|194:69,1,90,2|0,0:0|0:0,0:0:0:0:
297,94,41316,2,0,L|265:189,1,90,8|0,0:0|0:0,0:0:0:0:
207,349,41727,6,0,P|277:310|396:333,1,180,2|8,0:0|0:0,0:0:0:0:
472,364,42343,1,0,0:0:0:0:
365,196,42549,1,2,0:0:0:0:
365,196,42651,1,8,0:0:0:0:
365,196,42754,1,8,0:0:0:0:
207,349,42960,1,8,0:0:0:0:
314,350,43165,1,0,0:0:0:0:
300,153,43370,6,0,P|259:123|213:108,1,90,2|0,0:0|0:0,0:0:0:0:
133,245,43781,2,0,P|182:232|223:207,1,90,8|0,0:0|0:0,0:0:0:0:
408,158,44192,1,2,0:0:0:0:
300,153,44398,1,0,0:0:0:0:
195,351,44603,1,8,0:0:0:0:
393,350,44809,1,0,0:0:0:0:
255,251,45014,6,0,P|161:244|80:328,1,180,2|8,0:0|0:0,0:0:0:0:
23,374,45631,1,0,0:0:0:0:
104,300,45837,1,2,0:0:0:0:
104,300,45939,1,8,0:0:0:0:
104,300,46042,1,8,0:0:0:0:
24,118,46248,1,8,0:0:0:0:
10,224,46453,1,0,0:0:0:0:
129,67,46658,6,0,P|221:80|262:152,1,180,6|8,0:0|0:0,0:0:0:0:
240,352,47275,1,0,0:0:0:0:
154,174,47480,1,2,0:0:0:0:
154,174,47583,1,8,0:0:0:0:
154,174,47685,1,8,0:0:0:0:
351,197,47891,1,8,0:0:0:0:
346,89,48096,1,0,0:0:0:0:
476,238,48302,6,0,P|407:316|326:307,1,180,2|8,0:0|0:0,0:0:0:0:
235,280,48918,1,0,0:0:0:0:
359,124,49124,1,2,0:0:0:0:
359,124,49226,1,8,0:0:0:0:
359,124,49329,1,8,0:0:0:0:
180,207,49535,1,8,0:0:0:0:
377,221,49740,1,0,0:0:0:0:
396,31,49946,6,0,P|296:30|202:32,1,180,6|8,0:0|0:0,0:0:0:0:
109,48,50562,1,0,0:0:0:0:
179,129,50767,2,0,P|210:159|223:218,1,90,2|0,0:0|0:0,0:0:0:0:
163,292,51178,2,0,P|131:261|118:202,1,90,8|0,0:0|0:0,0:0:0:0:
295,128,51589,6,0,P|337:116|394:136,1,90,2|0,0:0|0:0,0:0:0:0:
426,225,52000,2,0,P|383:236|326:216,1,90,8|0,0:0|0:0,0:0:0:0:
295,128,52411,1,8,0:0:0:0:
250,121,52513,1,8,0:0:0:0:
208,136,52616,1,8,0:0:0:0:
178,169,52719,1,8,0:0:0:0:
166,212,52821,1,8,0:0:0:0:
175,255,52924,1,8,0:0:0:0:
204,289,53027,1,8,0:0:0:0:
245,307,53130,1,8,0:0:0:0:
289,303,53232,5,8,0:0:0:0:
256,192,53336,12,0,58165,0:0:0:0:
