osu file format v14

[General]
AudioFilename: KEYTALK - Starring Star.mp3
AudioLeadIn: 2000
PreviewTime: 26110
Countdown: 0
SampleSet: Soft
StackLeniency: 0.7
Mode: 0
LetterboxInBreaks: 0
WidescreenStoryboard: 0

[Editor]
DistanceSpacing: 1
BeatDivisor: 4
GridSize: 16
TimelineZoom: 1

[Metadata]
Title:STARRING STAR
TitleUnicode:スターリングスター
Artist:KEYTALK
ArtistUnicode:KEYTALK
Creator:Kagetsu
Version:Easy
Source:ドラゴンボール超
Tags:Marianna HappyRocket88 Dragon Ball Super Akira Toriyama Toei Animation NARASAKI
BeatmapID:835538
BeatmapSetID:378596

[Difficulty]
HPDrainRate:2
CircleSize:2
OverallDifficulty:2
ApproachRate:3
SliderMultiplier:1.00000000596046
SliderTickRate:1

[Events]
//Background and Video events
0,0,"0000.jpg",0,0
Video,0,"BG.avi"
//Break Periods
//Storyboard Layer 0 (Background)
//Storyboard Layer 1 (Fail)
//Storyboard Layer 2 (Pass)
//Storyboard Layer 3 (Foreground)
//Storyboard Sound Samples

[TimingPoints]
631,410.958904109589,4,2,1,70,1,0
26932,-100,4,2,1,70,0,1
53233,-100,4,2,1,70,0,0
54055,-100,4,2,1,40,0,0
54877,-100,4,2,1,30,0,0
55699,-100,4,2,1,20,0,0
56521,-100,4,2,1,10,0,0
57343,-100,4,2,1,5,0,0

[Colours]
Combo1 : 45,77,225
Combo2 : 172,174,253
Combo3 : 128,255,255

[HitObjects]
90,124,631,6,0,P|48:210|94:295,1,200.000001192092,6|2,0:0|0:0,0:0:0:0:
194,297,1863,1,2,0:0:0:0:
149,207,2275,2,0,P|196:194|245:210,1,100.000000596046,2|2,0:0|0:0,0:0:0:0:
310,284,3097,2,0,P|336:242|342:187,1,100.000000596046,2|8,0:0|0:0,0:0:0:0:
330,94,3918,6,0,P|238:57|132:103,1,200.000001192092,2|2,0:0|0:0,0:0:0:0:
131,187,5151,1,2,0:0:0:0:
36,155,5562,2,0,L|27:50,2,100.000000596046,2|2|2,0:0|0:0|0:0,0:0:0:0:
51,255,6795,1,8,0:0:0:0:
142,301,7206,6,0,B|240:352|240:256|352:304,1,200.000001192092,6|2,0:0|0:0,0:0:0:0:
433,311,8439,1,2,0:0:0:0:
488,227,8850,2,0,P|440:209|389:221,1,100.000000596046,2|2,0:0|0:0,0:0:0:0:
293,212,9672,2,0,P|308:164|345:133,1,100.000000596046,2|8,0:0|0:0,0:0:0:0:
442,107,10494,6,0,B|221:87,1,200.000001192092,2|0,0:0|0:0,0:0:0:0:
144,69,11727,1,2,0:0:0:0:
67,133,12138,2,0,L|95:260,1,100.000000596046,2|2,0:0|0:0,0:0:0:0:
183,263,12960,2,8,L|196:163,1,100.000000596046,2|0,0:0|0:0,0:0:0:0:
231,71,13781,6,0,B|279:87|279:87|375:55|375:55|447:71,1,200.000001192092,6|2,0:0|0:0,0:0:0:0:
445,162,15014,1,2,0:0:0:0:
386,242,15425,2,0,L|286:223,1,100.000000596046,2|2,0:0|0:0,0:0:0:0:
208,162,16247,2,0,L|108:178,1,100.000000596046,2|8,0:0|0:0,0:0:0:0:
29,239,17069,6,0,P|67:272|119:278,1,100.000000596046,2|2,0:0|0:0,0:0:0:0:
212,258,17891,2,0,P|261:258|303:284,1,100.000000596046,0|8,0:0|0:0,0:0:0:0:
401,263,18713,2,0,P|426:222|430:171,2,100.000000596046,0|2|0,0:0|0:0|0:0,0:0:0:0:
303,284,19946,1,8,0:0:0:0:
329,187,20357,6,0,L|307:89,1,100.000000596046,6|2,0:0|0:0,0:0:0:0:
210,62,21179,2,0,L|197:161,1,100.000000596046,2|2,0:0|0:0,0:0:0:0:
212,260,22001,2,0,P|122:228|103:133,1,200.000001192092,2|2,0:0|0:0,0:0:0:0:
155,48,23234,1,8,0:0:0:0:
254,51,23644,6,0,L|369:67,1,100.000000596046,6|10,0:0|0:0,0:0:0:0:
451,85,24466,1,8,0:0:0:0:
484,179,24877,1,8,0:0:0:0:
384,170,25288,2,0,L|255:199,1,100.000000596046,2|8,0:0|0:0,0:0:0:0:
214,261,26110,2,0,L|87:221,1,100.000000596046,8|8,0:0|0:0,0:0:0:0:
160,139,26932,6,0,L|254:100,1,100.000000596046,6|8,0:0|0:0,0:0:0:0:
345,63,27754,1,2,0:0:0:0:
330,161,28165,1,8,0:0:0:0:
429,152,28576,2,0,L|446:267,1,100.000000596046,2|8,0:0|0:0,0:0:0:0:
343,256,29398,2,0,L|357:354,1,100.000000596046,2|8,0:0|0:0,0:0:0:0:
257,340,30220,6,0,P|203:344|133:318,2,100.000000596046,2|8|2,0:0|0:0|0:0,0:0:0:0:
251,239,31453,1,8,0:0:0:0:
154,212,31864,2,0,P|171:115|258:60,1,200.000001192092,2|2,0:0|0:0,0:0:0:0:
451,42,33507,6,0,L|441:153,1,100.000000596046,6|8,0:0|0:0,0:0:0:0:
342,127,34329,2,0,L|352:238,1,100.000000596046,2|8,0:0|0:0,0:0:0:0:
258,267,35151,2,0,P|287:307|333:326,1,100.000000596046,2|8,0:0|0:0,0:0:0:0:
427,291,35972,1,2,0:0:0:0:
462,93,36795,6,0,L|362:79,1,100.000000596046,2|8,0:0|0:0,0:0:0:0:
325,172,37617,2,0,L|203:155,1,100.000000596046,2|8,0:0|0:0,0:0:0:0:
133,119,38439,2,0,P|123:169|139:215,1,100.000000596046,2|2,0:0|0:0,0:0:0:0:
231,253,39261,1,8,0:0:0:0:
325,285,39672,1,8,0:0:0:0:
426,289,40083,6,0,L|427:152,1,100.000000596046,6|8,0:0|0:0,0:0:0:0:
416,89,40905,1,2,0:0:0:0:
318,71,41316,2,0,L|200:36,2,100.000000596046,8|2|8,0:0|0:0|0:0,0:0:0:0:
263,154,42548,2,0,L|163:160,1,100.000000596046,2|8,0:0|0:0,0:0:0:0:
79,215,43370,6,0,P|73:268|90:313,1,100.000000596046,2|8,0:0|0:0,0:0:0:0:
189,305,44192,1,2,0:0:0:0:
240,218,44603,1,8,0:0:0:0:
166,150,45014,2,0,P|150:92|174:28,1,100.000000596046,2|8,0:0|0:0,0:0:0:0:
258,58,45836,2,0,P|316:74|380:50,1,100.000000596046,2|8,0:0|0:0,0:0:0:0:
450,37,46658,6,0,L|466:179,1,100.000000596046,6|8,0:0|0:0,0:0:0:0:
380,196,47480,2,0,L|364:338,2,100.000000596046,2|8|2,0:0|0:0|0:0,0:0:0:0:
357,98,48713,1,8,0:0:0:0:
294,19,49124,2,0,P|262:59|258:111,1,100.000000596046,2|8,0:0|0:0,0:0:0:0:
273,205,49946,6,0,P|246:246|202:268,1,100.000000596046,6|8,0:0|0:0,0:0:0:0:
179,170,50767,1,2,0:0:0:0:
79,177,51178,1,8,0:0:0:0:
99,274,51589,2,0,P|111:321|149:356,1,100.000000596046,2|8,0:0|0:0,0:0:0:0:
247,365,52411,1,8,0:0:0:0:
302,281,52822,1,8,0:0:0:0:
256,192,53233,5,12,0:0:0:0:
256,192,53644,12,0,58165,0:0:0:0:
