osu file format v14

[General]
AudioFilename: audio.mp3
AudioLeadIn: 0
PreviewTime: 26110
Countdown: 0
SampleSet: Soft
StackLeniency: 0.7
Mode: 3
LetterboxInBreaks: 0
SpecialStyle: 0
WidescreenStoryboard: 0

[Editor]
DistanceSpacing: 1.3
BeatDivisor: 4
GridSize: 8
TimelineZoom: 1.399999

[Metadata]
Title:STARRING STAR
TitleUnicode:スターリングスター
Artist:KEYTALK
ArtistUnicode:KEYTALK
Creator:CrumpetFiddler
Version:Lefrave's Normal
Source:ドラゴンボール超
Tags:Lefrave Akira Toriyama Toei Animation DragonBall Super
BeatmapID:1247427
BeatmapSetID:589167

[Difficulty]
HPDrainRate:7
CircleSize:4
OverallDifficulty:7
ApproachRate:5
SliderMultiplier:1.4
SliderTickRate:1

[Events]
//Background and Video events
Video,0,"BG.avi"
0,0,"Lefraves Bg.jpg",0,0
//Break Periods
//Storyboard Layer 0 (Background)
//Storyboard Layer 1 (Fail)
//Storyboard Layer 2 (Pass)
//Storyboard Layer 3 (Foreground)
//Storyboard Sound Samples

[TimingPoints]
631,410.958904109589,4,2,1,40,1,0
26932,-100,4,2,1,40,0,1
38439,-100,4,2,1,40,0,0
40083,-100,4,2,1,40,0,1
53233,-100,4,2,1,40,0,0

[HitObjects]
448,192,631,128,2,2274:0:0:0:0:
320,192,631,1,4,0:0:0:0:
192,192,836,1,0,0:0:0:0:
64,192,1041,1,4,0:0:0:0:
192,192,1247,1,0,0:0:0:0:
64,192,1452,1,4,0:0:0:0:
320,192,1658,1,0,0:0:0:0:
64,192,1863,1,4,0:0:0:0:
192,192,2069,1,0,0:0:0:0:
320,192,2274,1,4,0:0:0:0:
192,192,2480,1,0,0:0:0:0:
320,192,2685,1,4,0:0:0:0:
64,192,2891,1,0,0:0:0:0:
448,192,3096,1,4,0:0:0:0:
192,192,3302,1,0,0:0:0:0:
448,192,3507,1,0,0:0:0:0:
320,192,3507,1,12,0:0:0:0:
64,192,3713,1,0,0:0:0:0:
192,192,3918,1,4,0:0:0:0:
320,192,3918,128,0,5562:0:0:0:0:
64,192,4124,1,0,0:0:0:0:
448,192,4329,1,4,0:0:0:0:
192,192,4535,1,0,0:0:0:0:
64,192,4740,1,4,0:0:0:0:
448,192,4946,1,0,0:0:0:0:
192,192,5151,1,4,0:0:0:0:
64,192,5357,1,0,0:0:0:0:
448,192,5562,1,4,0:0:0:0:
192,192,5767,1,0,0:0:0:0:
64,192,5973,1,4,0:0:0:0:
320,192,6178,1,0,0:0:0:0:
448,192,6384,1,4,0:0:0:0:
192,192,6589,1,0,0:0:0:0:
64,192,6795,1,12,0:0:0:0:
320,192,6795,1,0,0:0:0:0:
448,192,7000,1,0,0:0:0:0:
192,192,7206,1,4,0:0:0:0:
64,192,7206,128,2,8850:0:0:0:0:
448,192,7411,1,0,0:0:0:0:
192,192,7617,1,4,0:0:0:0:
320,192,7822,1,0,0:0:0:0:
448,192,8028,1,4,0:0:0:0:
320,192,8233,1,0,0:0:0:0:
448,192,8439,1,4,0:0:0:0:
192,192,8644,1,0,0:0:0:0:
320,192,8850,1,4,0:0:0:0:
192,192,9055,1,0,0:0:0:0:
448,192,9261,1,4,0:0:0:0:
64,192,9466,1,0,0:0:0:0:
320,192,9672,1,4,0:0:0:0:
448,192,9877,1,0,0:0:0:0:
320,192,10083,1,0,0:0:0:0:
192,192,10083,1,4,0:0:0:0:
64,192,10288,1,0,0:0:0:0:
192,192,10494,1,4,0:0:0:0:
448,192,10699,1,0,0:0:0:0:
192,192,10904,1,4,0:0:0:0:
448,192,11110,1,0,0:0:0:0:
320,192,11315,1,4,0:0:0:0:
64,192,11521,1,0,0:0:0:0:
448,192,11726,1,4,0:0:0:0:
192,192,11932,1,0,0:0:0:0:
320,192,12137,1,4,0:0:0:0:
448,192,12343,1,0,0:0:0:0:
64,192,12343,1,0,0:0:0:0:
192,192,12548,1,4,0:0:0:0:
64,192,12754,1,0,0:0:0:0:
448,192,12754,1,0,0:0:0:0:
320,192,12959,1,4,0:0:0:0:
64,192,13165,128,8,13370:0:0:0:0:
320,192,13370,128,12,13576:0:0:0:0:
448,192,13576,128,8,13781:0:0:0:0:
192,192,13781,5,6,0:0:0:0:
64,192,13781,128,0,15425:0:0:0:0:
320,192,13987,1,0,0:0:0:0:
448,192,14192,1,4,0:0:0:0:
320,192,14398,1,0,0:0:0:0:
448,192,14603,1,4,0:0:0:0:
192,192,14809,1,0,0:0:0:0:
320,192,15014,1,12,0:0:0:0:
448,192,15014,1,0,0:0:0:0:
192,192,15220,1,0,0:0:0:0:
448,192,15425,1,4,0:0:0:0:
320,192,15425,128,0,17069:0:0:0:0:
192,192,15631,1,0,0:0:0:0:
64,192,15836,1,4,0:0:0:0:
448,192,16041,1,0,0:0:0:0:
192,192,16247,1,4,0:0:0:0:
64,192,16452,1,0,0:0:0:0:
448,192,16658,1,0,0:0:0:0:
192,192,16658,1,12,0:0:0:0:
448,192,16863,1,0,0:0:0:0:
192,192,17069,128,0,18302:0:0:0:0:
64,192,17069,1,4,0:0:0:0:
448,192,17274,1,0,0:0:0:0:
320,192,17480,1,4,0:0:0:0:
64,192,17685,1,0,0:0:0:0:
320,192,17891,1,4,0:0:0:0:
448,192,18096,1,0,0:0:0:0:
320,192,18302,1,12,0:0:0:0:
64,192,18302,1,0,0:0:0:0:
448,192,18713,128,0,19535:0:0:0:0:
192,192,18713,1,4,0:0:0:0:
320,192,18918,1,0,0:0:0:0:
64,192,19124,1,4,0:0:0:0:
192,192,19329,1,0,0:0:0:0:
320,192,19535,1,4,0:0:0:0:
64,192,19740,128,0,19946:0:0:0:0:
448,192,19946,128,8,20151:0:0:0:0:
192,192,19946,1,0,0:0:0:0:
320,192,20151,128,8,20357:0:0:0:0:
64,192,20357,1,0,0:0:0:0:
192,192,20357,1,6,0:0:0:0:
448,192,20562,1,0,0:0:0:0:
64,192,20767,1,12,0:0:0:0:
192,192,20767,1,0,0:0:0:0:
448,192,20973,1,0,0:0:0:0:
192,192,21178,1,4,0:0:0:0:
320,192,21178,1,0,0:0:0:0:
64,192,21384,1,0,0:0:0:0:
320,192,21589,1,12,0:0:0:0:
448,192,21589,1,0,0:0:0:0:
192,192,21795,1,0,0:0:0:0:
64,192,22000,1,4,0:0:0:0:
320,192,22000,1,0,0:0:0:0:
448,192,22206,1,0,0:0:0:0:
64,192,22411,1,12,0:0:0:0:
192,192,22411,1,0,0:0:0:0:
320,192,22617,128,0,23028:0:0:0:0:
64,192,23028,1,8,0:0:0:0:
448,192,23233,1,12,0:0:0:0:
192,192,23439,1,4,0:0:0:0:
320,192,23644,1,2,0:0:0:0:
448,192,23644,1,4,0:0:0:0:
64,192,24055,1,8,0:0:0:0:
192,192,24055,1,4,0:0:0:0:
448,192,24261,1,8,0:0:0:0:
320,192,24261,1,0,0:0:0:0:
64,192,24466,1,12,0:0:0:0:
192,192,24466,1,0,0:0:0:0:
320,192,24672,1,8,0:0:0:0:
448,192,24672,1,0,0:0:0:0:
64,192,24877,1,12,0:0:0:0:
192,192,24877,1,0,0:0:0:0:
320,192,25083,1,8,0:0:0:0:
448,192,25083,1,0,0:0:0:0:
64,192,25288,1,14,0:0:0:0:
448,192,25288,1,0,0:0:0:0:
192,192,25494,1,8,0:0:0:0:
320,192,25699,1,12,0:0:0:0:
448,192,25904,1,8,0:0:0:0:
64,192,26110,128,12,26521:0:0:0:0:
448,192,26521,128,12,26932:0:0:0:0:
64,192,26932,1,6,0:0:0:0:
192,192,26932,1,0,0:0:0:0:
320,192,27137,1,0,0:0:0:0:
64,192,27343,1,12,0:0:0:0:
192,192,27343,1,0,0:0:0:0:
448,192,27548,1,0,0:0:0:0:
320,192,27754,1,4,0:0:0:0:
192,192,27959,1,0,0:0:0:0:
320,192,28165,1,12,0:0:0:0:
448,192,28165,1,0,0:0:0:0:
64,192,28370,1,0,0:0:0:0:
192,192,28576,1,4,0:0:0:0:
320,192,28781,1,0,0:0:0:0:
448,192,28987,1,0,0:0:0:0:
64,192,28987,1,12,0:0:0:0:
192,192,29192,1,0,0:0:0:0:
448,192,29398,1,4,0:0:0:0:
192,192,29500,1,8,0:0:0:0:
320,192,29603,1,0,0:0:0:0:
64,192,29809,1,12,0:0:0:0:
192,192,29809,1,0,0:0:0:0:
448,192,30014,1,0,0:0:0:0:
320,192,30220,1,4,0:0:0:0:
192,192,30425,1,0,0:0:0:0:
320,192,30630,1,0,0:0:0:0:
64,192,30630,1,12,0:0:0:0:
448,192,30836,1,0,0:0:0:0:
192,192,31041,1,4,0:0:0:0:
64,192,31247,1,0,0:0:0:0:
192,192,31452,1,12,0:0:0:0:
320,192,31452,1,0,0:0:0:0:
448,192,31658,1,0,0:0:0:0:
64,192,31863,1,4,0:0:0:0:
320,192,32069,1,0,0:0:0:0:
192,192,32274,1,12,0:0:0:0:
448,192,32274,1,0,0:0:0:0:
64,192,32480,1,0,0:0:0:0:
192,192,32685,1,4,0:0:0:0:
448,192,32788,1,8,0:0:0:0:
320,192,32891,1,0,0:0:0:0:
64,192,33096,1,12,0:0:0:0:
448,192,33096,1,0,0:0:0:0:
320,192,33302,1,0,0:0:0:0:
64,192,33507,1,6,0:0:0:0:
192,192,33507,1,0,0:0:0:0:
448,192,33713,1,0,0:0:0:0:
320,192,33918,1,0,0:0:0:0:
192,192,33918,1,12,0:0:0:0:
64,192,34124,1,0,0:0:0:0:
320,192,34329,1,4,0:0:0:0:
448,192,34432,1,8,0:0:0:0:
64,192,34535,1,0,0:0:0:0:
320,192,34740,1,12,0:0:0:0:
448,192,34740,1,0,0:0:0:0:
192,192,34946,1,0,0:0:0:0:
64,192,35151,1,4,0:0:0:0:
320,192,35357,1,0,0:0:0:0:
64,192,35562,1,12,0:0:0:0:
192,192,35562,1,0,0:0:0:0:
448,192,35767,1,0,0:0:0:0:
320,192,35973,1,4,0:0:0:0:
192,192,36076,1,8,0:0:0:0:
448,192,36178,1,0,0:0:0:0:
64,192,36384,1,12,0:0:0:0:
320,192,36384,1,0,0:0:0:0:
192,192,36589,1,0,0:0:0:0:
64,192,36795,1,4,0:0:0:0:
320,192,37000,1,0,0:0:0:0:
192,192,37206,1,12,0:0:0:0:
448,192,37206,1,0,0:0:0:0:
64,192,37411,1,0,0:0:0:0:
192,192,37617,1,4,0:0:0:0:
320,192,37822,1,0,0:0:0:0:
64,192,38028,1,12,0:0:0:0:
448,192,38028,1,0,0:0:0:0:
192,192,38233,1,0,0:0:0:0:
64,192,38439,1,4,0:0:0:0:
448,192,38644,1,8,0:0:0:0:
448,192,38850,1,12,0:0:0:0:
64,192,39055,1,8,0:0:0:0:
64,192,39261,128,12,39672:0:0:0:0:
320,192,39672,128,12,40083:0:0:0:0:
448,192,40083,1,0,0:0:0:0:
64,192,40083,1,6,0:0:0:0:
192,192,40288,1,0,0:0:0:0:
320,192,40494,1,12,0:0:0:0:
448,192,40494,1,0,0:0:0:0:
64,192,40699,1,0,0:0:0:0:
320,192,40904,1,4,0:0:0:0:
448,192,41110,1,0,0:0:0:0:
192,192,41315,1,0,0:0:0:0:
64,192,41315,1,12,0:0:0:0:
320,192,41521,1,0,0:0:0:0:
64,192,41726,1,4,0:0:0:0:
192,192,41932,1,0,0:0:0:0:
320,192,42137,1,12,0:0:0:0:
448,192,42137,1,0,0:0:0:0:
64,192,42343,1,0,0:0:0:0:
448,192,42548,1,4,0:0:0:0:
192,192,42651,1,8,0:0:0:0:
320,192,42754,1,0,0:0:0:0:
64,192,42959,1,12,0:0:0:0:
448,192,42959,1,0,0:0:0:0:
192,192,43165,1,0,0:0:0:0:
320,192,43370,1,12,0:0:0:0:
192,192,43576,1,0,0:0:0:0:
320,192,43781,1,0,0:0:0:0:
64,192,43781,1,12,0:0:0:0:
448,192,43987,1,0,0:0:0:0:
320,192,44192,1,4,0:0:0:0:
64,192,44398,1,0,0:0:0:0:
192,192,44603,1,12,0:0:0:0:
448,192,44603,1,0,0:0:0:0:
320,192,44809,1,0,0:0:0:0:
448,192,45014,1,4,0:0:0:0:
320,192,45220,1,0,0:0:0:0:
64,192,45425,1,12,0:0:0:0:
192,192,45425,1,0,0:0:0:0:
448,192,45630,1,0,0:0:0:0:
192,192,45836,1,4,0:0:0:0:
64,192,45939,1,8,0:0:0:0:
320,192,46041,1,0,0:0:0:0:
192,192,46247,1,4,0:0:0:0:
448,192,46247,1,0,0:0:0:0:
64,192,46452,1,0,0:0:0:0:
320,192,46658,1,6,0:0:0:0:
448,192,46658,1,0,0:0:0:0:
192,192,46863,1,0,0:0:0:0:
64,192,47069,1,12,0:0:0:0:
320,192,47069,1,0,0:0:0:0:
448,192,47274,1,0,0:0:0:0:
64,192,47480,1,4,0:0:0:0:
320,192,47583,1,8,0:0:0:0:
192,192,47685,1,0,0:0:0:0:
448,192,47891,1,0,0:0:0:0:
64,192,47891,1,12,0:0:0:0:
320,192,48096,1,0,0:0:0:0:
192,192,48302,1,4,0:0:0:0:
64,192,48507,1,0,0:0:0:0:
192,192,48713,1,12,0:0:0:0:
320,192,48713,1,0,0:0:0:0:
448,192,48918,1,0,0:0:0:0:
192,192,49124,1,4,0:0:0:0:
64,192,49226,1,8,0:0:0:0:
320,192,49329,1,0,0:0:0:0:
64,192,49535,1,12,0:0:0:0:
448,192,49535,1,0,0:0:0:0:
320,192,49740,1,0,0:0:0:0:
448,192,49946,1,6,0:0:0:0:
192,192,49946,1,0,0:0:0:0:
64,192,50151,1,0,0:0:0:0:
192,192,50357,1,12,0:0:0:0:
320,192,50357,1,0,0:0:0:0:
64,192,50562,1,0,0:0:0:0:
320,192,50767,1,0,0:0:0:0:
448,192,50767,1,4,0:0:0:0:
192,192,50973,1,0,0:0:0:0:
320,192,51178,1,0,0:0:0:0:
64,192,51178,1,12,0:0:0:0:
448,192,51384,1,0,0:0:0:0:
192,192,51589,1,4,0:0:0:0:
320,192,51589,1,0,0:0:0:0:
448,192,51795,1,0,0:0:0:0:
64,192,52000,1,12,0:0:0:0:
320,192,52000,1,0,0:0:0:0:
192,192,52206,1,0,0:0:0:0:
320,192,52411,1,12,0:0:0:0:
448,192,52411,1,0,0:0:0:0:
64,192,52617,1,8,0:0:0:0:
192,192,52822,1,12,0:0:0:0:
320,192,53028,1,8,0:0:0:0:
192,192,53233,128,6,58165:0:0:0:0:
448,192,53233,128,0,58165:0:0:0:0:
64,192,53644,128,0,55288:0:0:0:0:
