osu file format v14

[General]
AudioFilename: audio.mp3
AudioLeadIn: 0
PreviewTime: 46231
Countdown: 0
SampleSet: Soft
StackLeniency: 0.7
Mode: 0
LetterboxInBreaks: 0
WidescreenStoryboard: 1

[Editor]
Bookmarks: 679,10279,19879,32679,46879,59679,75879,82279,87079
DistanceSpacing: 1
BeatDivisor: 4
GridSize: 8
TimelineZoom: 1.8

[Metadata]
Title:OUKARANMAN (TV Size)
TitleUnicode:桜花爛漫 (TV Size)
Artist:KEYTALK
ArtistUnicode:KEYTALK
Creator:Cris-
Version:XENON'S NORMAL
Source:境界のRINNE
Tags:TheShadowOfDark Xen Xenon- Xehn Hazu- Kyoukai Kyokai no Rinne りんね Opening Anime Japanese
BeatmapID:2233024
BeatmapSetID:972282

[Difficulty]
HPDrainRate:4
CircleSize:3.6
OverallDifficulty:4
ApproachRate:5.5
SliderMultiplier:0.999999999999999
SliderTickRate:1

[Events]
//Background and Video events
0,0,"Rinne.jpg",0,0
Video,0,"Rinne Opening.mp4"
//Break Periods
//Storyboard Layer 0 (Background)
//Storyboard Layer 1 (Fail)
//Storyboard Layer 2 (Pass)
//Storyboard Layer 3 (Foreground)
//Storyboard Layer 4 (Overlay)
//Storyboard Sound Samples

[TimingPoints]
731,400,4,2,1,60,1,0
731,-86.9565217391304,4,2,1,70,0,0
19931,-86.9565217391304,4,2,1,50,0,0
32731,-86.9565217391304,4,2,1,60,0,0
42331,-86.9565217391304,4,2,1,70,0,0
46931,-86.9565217391304,4,2,1,80,0,1
59131,-86.9565217391304,4,2,1,80,0,0
59731,-86.9565217391304,4,2,1,80,0,1
75931,-86.9565217391304,4,2,1,70,0,0
83131,-86.9565217391304,4,2,1,60,0,0
83931,-86.9565217391304,4,2,1,50,0,0
84731,-86.9565217391304,4,2,1,40,0,0
85531,-86.9565217391304,4,2,1,30,0,0
86331,-86.9565217391304,4,2,1,20,0,0
86731,-86.9565217391304,4,2,1,10,0,0
87131,-86.9565217391304,4,2,1,5,0,0

[Colours]
Combo1 : 255,215,91
Combo2 : 249,141,89
Combo3 : 255,85,85
Combo4 : 255,130,255

[HitObjects]
313,142,731,6,0,B|295:67|387:11|387:11|393:2|393:2|396:12|396:12|472:89|437:157,1,345.000006580353,6|0,3:2|0:0,0:0:0:0:
461,261,2331,6,0,B|370:272|370:272|302:226|302:226|248:287|248:287|157:298,1,345.000006580353,6|2,3:2|0:0,0:0:0:0:
46,281,3931,6,0,B|28:226|28:226|61:179,1,115.000002193451,6|2,3:2|0:0,0:0:0:0:
174,196,4731,2,0,B|191:250|191:250|158:297,1,115.000002193451,6|2,3:2|0:0,0:0:0:0:
234,384,5531,6,0,L|348:369,1,115.000002193451,6|2,3:2|3:2,0:0:0:0:
383,325,6131,1,8,0:3:0:0:
383,325,6331,2,0,L|462:334,1,57.5000010967254,10|8,0:3|0:3,0:0:0:0:
484,295,6731,2,0,L|475:224,1,57.5000010967254,10|8,0:3|0:3,0:0:0:0:
428,206,7131,6,0,L|443:86,1,115.000002193451,6|2,3:2|3:2,0:0:0:0:
353,18,7931,2,0,P|314:0|246:40,1,115.000002193451,2|2,3:2|3:2,0:0:0:0:
225,79,8531,1,14,1:2:0:0:
289,174,8931,6,0,L|346:180,2,57.5000010967254,10|10|10,3:2|3:2|3:2,0:0:0:0:
248,214,9531,2,0,P|200:185|147:203,1,115.000002193451,14|10,1:2|0:0,0:0:0:0:
111,247,10131,1,8,3:2:0:0:
111,247,10331,6,0,L|126:119,1,115.000002193451,14|10,3:2|0:0,0:0:0:0:
203,49,11131,2,0,P|250:20|303:38,1,115.000002193451,2|10,3:2|0:0,0:0:0:0:
343,83,11731,1,0,1:2:0:0:
343,83,11931,6,0,L|334:154,1,57.5000010967254,2|0,3:2|1:2,0:0:0:0:
294,180,12331,2,0,L|303:251,1,57.5000010967254,10|0,0:0|1:2,0:0:0:0:
312,293,12731,1,2,3:2:0:0:
410,352,13131,2,0,P|436:331|473:334,1,57.5000010967254,10|2,0:0|1:2,0:0:0:0:
499,371,13531,6,0,L|513:252,1,115.000002193451,2|10,3:2|0:0,0:0:0:0:
458,155,14331,2,0,P|436:136|408:132,1,57.5000010967254,2|0,3:2|1:2,0:0:0:0:
365,93,14731,2,0,P|337:99|318:120,1,57.5000010967254,10|2,0:0|1:2,0:0:0:0:
280,164,15131,6,0,L|145:147,1,115.000002193451,2|10,3:2|0:0,0:0:0:0:
120,181,15731,1,0,1:2:0:0:
120,181,15931,2,0,L|129:253,1,57.5000010967254,2|14,3:2|0:0,0:0:0:0:
175,269,16331,2,0,L|167:333,1,57.5000010967254,14|8,0:0|0:0,0:0:0:0:
130,370,16731,5,14,3:2:0:0:
244,364,17131,1,10,0:0:0:0:
358,358,17531,2,0,L|371:243,1,115.000002193451,2|10,3:2|0:0,0:0:0:0:
341,201,18131,1,0,1:2:0:0:
341,201,18331,6,0,P|326:176|327:148,1,57.5000010967254,10|10,3:2|0:0,0:0:0:0:
362,102,18731,2,0,P|363:73|348:49,1,57.5000010967254,10|10,0:0|0:0,0:0:0:0:
300,17,19131,2,0,L|165:33,1,115.000002193451,12|10,0:0|0:0,0:0:0:0:
105,113,19931,5,14,3:2:0:0:
187,192,20331,2,0,L|258:201,1,57.5000010967254,10|0,0:0|0:0,0:0:0:0:
292,168,20731,2,0,P|339:139|392:157,1,115.000002193451,2|10,3:2|0:0,0:0:0:0:
430,205,21331,1,0,0:0:0:0:
430,205,21531,6,0,L|414:340,1,115.000002193451,2|8,3:2|0:0,0:0:0:0:
309,360,22331,2,0,P|261:331|208:349,1,115.000002193451,0|10,3:2|0:0,0:0:0:0:
167,384,22931,1,0,0:0:0:0:
167,384,23131,5,2,3:2:0:0:
63,332,23531,1,10,0:0:0:0:
79,217,23931,1,2,3:2:0:0:
192,197,24331,1,10,0:0:0:0:
247,300,24731,6,0,L|361:286,1,115.000002193451,2|8,3:2|0:0,0:0:0:0:
408,181,25531,2,0,L|293:167,1,115.000002193451,2|10,3:2|0:0,0:0:0:0:
260,128,26131,1,2,0:0:0:0:
260,128,26331,5,2,3:2:0:0:
161,188,26731,1,10,0:0:0:0:
73,112,27131,1,2,3:2:0:0:
117,5,27531,1,10,0:0:0:0:
233,15,27931,6,0,L|304:24,1,57.5000010967254,2|0,3:2|0:0,0:0:0:0:
324,68,28331,2,0,L|381:60,1,57.5000010967254,10|0,0:0|0:0,0:0:0:0:
430,30,28731,2,0,P|401:78|419:131,1,115.000002193451,2|10,3:2|0:0,0:0:0:0:
372,236,29531,6,0,L|301:245,1,57.5000010967254,2|0,3:2|0:0,0:0:0:0:
281,289,29931,2,0,L|223:281,1,57.5000010967254,10|0,0:0|0:0,0:0:0:0:
185,325,30331,2,0,P|132:307|84:336,1,115.000002193451,2|10,3:2|0:0,0:0:0:0:
42,373,30931,1,2,0:0:0:0:
42,373,31131,6,0,L|56:258,1,115.000002193451,2|10,3:2|0:0,0:0:0:0:
101,222,31731,1,0,1:2:0:0:
101,222,31931,2,0,P|129:222|153:207,1,57.5000010967254,2|10,3:2|3:0,0:0:0:0:
174,154,32331,2,0,P|198:139|226:139,1,57.5000010967254,10|10,3:0|3:0,0:0:0:0:
274,172,32731,5,6,3:2:0:0:
368,237,33131,1,10,0:0:0:0:
469,183,33531,2,0,L|461:125,1,57.5000010967254,2|0,3:2|1:2,0:0:0:0:
408,105,33931,2,0,L|414:47,1,57.5000010967254,10|0,0:0|1:2,0:0:0:0:
446,0,34331,6,0,L|331:14,1,115.000002193451,2|10,3:2|0:0,0:0:0:0:
292,54,34931,1,0,1:2:0:0:
292,54,35131,2,0,L|177:39,1,115.000002193451,2|10,3:2|0:0,0:0:0:0:
82,104,35931,6,0,P|64:156|93:204,1,115.000002193451,2|10,3:2|0:0,0:0:0:0:
147,232,36531,1,0,1:2:0:0:
147,232,36731,2,0,L|204:225,1,57.5000010967254,2|0,3:2|1:2,0:0:0:0:
246,186,37131,2,0,L|318:194,1,57.5000010967254,10|0,0:0|1:2,0:0:0:0:
352,162,37531,6,0,P|399:133|452:150,1,115.000002193451,2|10,3:2|0:0,0:0:0:0:
470,264,38331,2,0,P|422:292|369:275,1,115.000002193451,2|10,3:2|0:0,0:0:0:0:
328,245,38931,1,10,0:0:0:0:
328,245,39131,5,6,3:2:0:0:
231,307,39531,1,10,0:0:0:0:
141,234,39931,2,0,L|148:176,1,57.5000010967254,2|0,3:2|3:2,0:0:0:0:
192,139,40331,2,0,L|184:81,1,57.5000010967254,10|0,0:0|3:2,0:0:0:0:
146,39,40731,6,0,L|260:53,1,115.000002193451,2|10,3:2|0:0,0:0:0:0:
298,99,41331,1,0,3:2:0:0:
298,99,41531,2,0,P|322:84|350:84,1,57.5000010967254,2|14,3:2|0:0,0:0:0:0:
401,109,41931,1,14,0:0:0:0:
336,204,42331,6,0,L|201:188,1,115.000002193451,6|8,3:2|0:0,0:0:0:0:
179,229,42931,1,2,1:2:0:0:
229,332,43331,2,0,L|286:324,1,57.5000010967254,2|10,1:2|0:0,0:0:0:0:
330,361,43731,6,0,L|457:376,1,115.000002193451,0|0,1:2|1:2,0:0:0:0:
487,336,44331,1,10,0:0:0:0:
448,288,44531,2,0,L|440:231,1,57.5000010967254,0|2,1:2|3:2,0:0:0:0:
352,152,45131,1,10,0:0:0:0:
283,243,45531,6,0,P|259:228|231:228,1,57.5000010967254,10|8,3:2|1:2,0:0:0:0:
186,265,45931,2,0,P|157:265|133:250,1,57.5000010967254,10|8,0:0|1:2,0:0:0:0:
98,212,46331,1,10,0:0:0:0:
98,212,46531,1,2,1:2:0:0:
174,125,46931,6,0,B|221:92|221:92|275:109,1,115.000002193451,6|2,3:2|1:2,0:0:0:0:
326,135,47531,1,10,0:0:0:0:
379,115,47731,1,0,1:0:0:0:
426,147,47931,2,0,L|418:210,1,57.5000010967254,2|2,3:2|1:2,0:0:0:0:
458,322,48531,6,0,B|411:289|411:289|357:306,1,115.000002193451,2|0,1:2|1:0,0:0:0:0:
306,332,49131,1,10,0:0:0:0:
253,312,49331,1,2,1:2:0:0:
206,344,49531,2,0,L|221:216,1,115.000002193451,2|10,3:2|0:0,0:0:0:0:
326,185,50331,6,0,L|318:127,1,57.5000010967254,2|0,3:2|1:0,0:0:0:0:
267,102,50731,2,0,L|273:44,1,57.5000010967254,10|0,0:0|1:0,0:0:0:0:
310,0,51131,1,2,3:2:0:0:
195,14,51531,1,10,0:0:0:0:
195,14,51731,6,0,P|146:17|110:91,1,115.000002193451,2|2,1:2|1:2,0:0:0:0:
71,110,52331,2,0,L|80:182,1,57.5000010967254,10|0,0:0|1:2,0:0:0:0:
126,197,52731,2,0,L|118:260,1,57.5000010967254,2|8,3:2|1:2,0:0:0:0:
151,301,53131,1,8,0:0:0:0:
250,243,53531,6,0,L|236:128,1,115.000002193451,6|10,3:2|0:0,0:0:0:0:
281,91,54131,1,0,1:0:0:0:
332,116,54331,1,2,3:2:0:0:
377,81,54531,2,0,L|384:23,1,57.5000010967254,2|8,1:2|0:0,0:0:0:0:
437,1,54931,6,0,P|484:12|507:91,1,115.000002193451,2|2,1:2|1:2,0:0:0:0:
478,115,55531,1,10,0:0:0:0:
392,192,55931,2,0,L|400:255,1,57.5000010967254,2|0,3:2|1:0,0:0:0:0:
440,289,56331,1,10,0:0:0:0:
403,333,56531,6,0,L|268:316,1,115.000002193451,2|2,1:2|1:2,0:0:0:0:
260,274,57131,1,8,0:0:0:0:
260,274,57331,2,0,L|145:288,1,115.000002193451,2|2,1:2|1:2,0:0:0:0:
99,262,57931,1,8,0:0:0:0:
99,262,58131,6,0,P|128:309|111:362,2,115.000002193451,2|2|2,1:2|1:2|1:2,0:0:0:0:
58,220,59131,1,8,3:2:0:0:
80,166,59331,2,0,L|72:108,1,57.5000010967254,8|8,0:0|0:0,0:0:0:0:
104,61,59731,6,0,B|158:44|158:44|205:77,1,115.000002193451,6|2,3:2|1:2,0:0:0:0:
246,118,60331,1,10,0:0:0:0:
229,173,60531,1,0,1:0:0:0:
262,219,60731,2,0,L|270:282,1,57.5000010967254,2|2,3:2|1:2,0:0:0:0:
201,369,61331,6,0,L|336:385,1,115.000002193451,2|0,1:2|1:0,0:0:0:0:
364,353,61931,1,10,0:0:0:0:
417,374,62131,1,2,1:2:0:0:
459,334,62331,2,0,L|442:199,1,115.000002193451,2|10,3:0|0:0,0:0:0:0:
361,140,63131,6,0,P|332:139|308:154,1,57.5000010967254,2|0,3:2|1:0,0:0:0:0:
279,204,63531,2,0,P|254:219|226:218,1,57.5000010967254,10|0,0:0|1:0,0:0:0:0:
178,186,63931,1,2,3:2:0:0:
121,286,64331,1,10,0:0:0:0:
121,286,64531,6,0,B|168:319|168:319|222:302,1,115.000002193451,2|2,1:2|1:2,0:0:0:0:
275,278,65131,2,0,L|347:287,1,57.5000010967254,10|0,0:0|1:0,0:0:0:0:
371,326,65531,2,0,L|434:318,1,57.5000010967254,2|8,3:2|1:2,0:0:0:0:
466,275,65931,1,10,0:0:0:0:
494,163,66331,6,0,L|423:154,1,57.5000010967254,6|0,3:2|1:0,0:0:0:0:
388,186,66731,1,10,0:0:0:0:
343,149,66931,2,0,L|359:14,1,115.000002193451,0|0,1:0|1:0,0:0:0:0:
310,1,67531,2,0,B|256:-16|256:-16|209:17,1,115.000002193451,10|2,0:0|3:2,0:0:0:0:
168,59,68131,5,0,1:0:0:0:
119,32,68331,2,0,L|55:24,1,57.5000010967254,10|2,0:0|1:2,0:0:0:0:
4,18,68731,1,2,3:2:0:0:
40,127,69131,1,10,0:0:0:0:
2,235,69531,6,0,L|116:248,1,115.000002193451,6|10,3:2|0:0,0:0:0:0:
206,176,70331,2,0,P|231:161|259:162,1,57.5000010967254,2|0,3:2|1:0,0:0:0:0:
295,206,70731,2,0,P|323:206|347:191,1,57.5000010967254,10|0,0:0|1:0,0:0:0:0:
394,158,71131,6,0,L|378:285,1,115.000002193451,2|8,3:2|0:0,0:0:0:0:
417,319,71731,1,2,1:2:0:0:
417,319,71931,2,0,B|363:302|363:302|316:335,1,115.000002193451,0|10,3:2|0:0,0:0:0:0:
271,368,72531,1,8,0:0:0:0:
271,368,72731,6,0,L|208:360,1,57.5000010967254,14|0,3:2|1:0,0:0:0:0:
162,384,73131,1,10,0:0:0:0:
120,344,73331,2,0,L|137:209,1,115.000002193451,0|0,1:0|1:0,0:0:0:0:
181,196,73931,1,10,0:0:0:0:
83,134,74331,6,0,L|75:76,1,57.5000010967254,2|10,3:2|0:0,0:0:0:0:
120,40,74731,1,10,0:0:0:0:
171,66,74931,1,8,0:0:0:0:
217,31,75131,2,0,P|269:13|317:42,1,115.000002193451,10|10,0:0|0:0,0:0:0:0:
327,157,75931,5,6,3:2:0:0:
440,177,76331,1,10,0:0:0:0:
420,290,76731,1,6,3:2:0:0:
307,270,77131,1,10,0:0:0:0:
213,202,77531,6,0,L|98:216,1,115.000002193451,6|14,3:2|0:0,0:0:0:0:
57,182,78131,1,0,3:2:0:0:
57,182,78331,2,0,L|67:102,1,57.5000010967254,14|0,0:0|3:2,0:0:0:0:
73,68,78731,1,14,0:0:0:0:
180,109,79131,5,6,3:2:0:0:
293,93,79531,1,10,0:0:0:0:
309,206,79931,1,6,3:2:0:0:
195,222,80331,1,10,0:0:0:0:
126,314,80731,6,0,L|253:330,1,115.000002193451,6|14,3:2|0:0,0:0:0:0:
286,369,81331,1,0,3:2:0:0:
286,369,81531,2,0,L|343:361,1,57.5000010967254,14|0,0:0|3:2,0:0:0:0:
400,355,81931,1,8,3:2:0:0:
475,267,82331,5,14,0:0:0:0:
256,192,82431,12,0,87131,0:0:0:0:
