osu file format v14

[General]
AudioFilename: audio.mp3
AudioLeadIn: 0
PreviewTime: 46231
Countdown: 0
SampleSet: Soft
StackLeniency: 0.4
Mode: 0
LetterboxInBreaks: 0
WidescreenStoryboard: 0

[Editor]
Bookmarks: 679,10279,19879,32679,38679,39079,42279,46779,46879,59679,75879,82279
DistanceSpacing: 1.6
BeatDivisor: 4
GridSize: 32
TimelineZoom: 1.2

[Metadata]
Title:OUKARANMAN (TV Size)
TitleUnicode:桜花爛漫 (TV Size)
Artist:KEYTALK
ArtistUnicode:KEYTALK
Creator:Cris-
Version:THESHADOW'S EASY
Source:境界のRINNE
Tags:TheShadowOfDark Xen Xenon- Xehn Hazu- Kyoukai Kyokai no Rinne りんね Opening Anime Japanese
BeatmapID:2217615
BeatmapSetID:972282

[Difficulty]
HPDrainRate:3
CircleSize:2
OverallDifficulty:2
ApproachRate:3
SliderMultiplier:1
SliderTickRate:1

[Events]
//Background and Video events
0,0,"Rinne.jpg",0,0
Video,0,"Rinne Opening.mp4"
//Break Periods
//Storyboard Layer 0 (Background)
//Storyboard Layer 1 (Fail)
//Storyboard Layer 2 (Pass)
//Storyboard Layer 3 (Foreground)
//Storyboard Layer 4 (Overlay)
//Storyboard Sound Samples

[TimingPoints]
731,400,4,2,1,60,1,0
731,-100,4,2,1,60,0,0
2331,-100,4,2,1,60,0,0
3931,-100,4,2,1,60,0,0
4731,-100,4,2,1,60,0,0
5531,-100,4,2,1,60,0,0
6331,-100,4,2,1,60,0,0
10331,-100,4,2,1,70,0,0
19931,-100,4,2,1,50,0,0
32731,-100,4,2,1,60,0,0
42331,-100,4,2,1,70,0,0
46931,-100,4,2,1,80,0,1
56531,-100,4,2,1,80,0,1
57331,-100,4,2,1,80,0,1
58131,-100,4,2,1,80,0,1
59131,-100,4,2,1,80,0,0
59731,-100,4,2,1,80,0,1
75931,-100,4,2,1,70,0,0
76231,-100,4,2,1,5,0,0
76331,-100,4,2,1,70,0,0
76631,-100,4,2,1,5,0,0
76731,-100,4,2,1,70,0,0
77031,-100,4,2,1,5,0,0
77131,-100,4,2,1,70,0,0
77431,-100,4,2,1,5,0,0
77531,-100,4,2,1,70,0,0
79431,-100,4,2,1,5,0,0
79531,-100,4,2,1,70,0,0
79831,-100,4,2,1,5,0,0
79931,-100,4,2,1,70,0,0
80231,-100,4,2,1,5,0,0
80331,-100,4,2,1,70,0,0
80631,-100,4,2,1,5,0,0
80731,-100,4,2,1,70,0,0
82231,-100,4,2,1,5,0,0
82331,-100,4,2,1,70,0,0
83131,-100,4,2,1,60,0,0
83931,-100,4,2,1,50,0,0
84731,-100,4,2,1,40,0,0
85531,-100,4,2,1,30,0,0
86331,-100,4,2,1,20,0,0
86731,-100,4,2,1,10,0,0
87131,-100,4,2,1,5,0,0

[Colours]
Combo1 : 255,215,91
Combo2 : 249,141,89
Combo3 : 255,85,85
Combo4 : 255,130,255

[HitObjects]
464,115,731,6,0,B|384:14|200:49|200:49|183:116|220:169,1,400,6|6,3:2|3:2,0:0:0:0:
324,350,3931,6,0,B|383:358|419:331|419:331|464:296|513:303,2,200,6|6|6,3:2|3:2|3:2,0:0:0:0:
124,331,6331,1,10,0:3:0:0:
18,161,7131,6,0,L|127:151,1,100,6|2,3:2|3:2,0:0:0:0:
202,98,7931,2,0,P|277:80|364:105,2,150,2|14|10,3:2|1:2|3:2,0:0:0:0:
117,151,9531,1,14,1:2:0:0:
78,243,9931,1,10,0:0:0:0:
124,331,10331,6,0,L|339:348,1,200,14|2,3:2|3:2,0:0:0:0:
423,354,11531,1,10,0:0:0:0:
493,283,11931,2,0,P|504:233|491:171,2,100,2|10|2,3:2|0:0|3:2,0:0:0:0:
423,354,13131,1,10,0:0:0:0:
339,298,13531,6,0,P|286:287|227:301,1,100,2|10,3:2|0:0,0:0:0:0:
162,356,14331,2,0,P|141:308|152:251,1,100,2|10,3:2|0:0,0:0:0:0:
203,179,15131,2,0,P|224:131|213:74,2,100,2|10|2,3:2|0:0|3:2,0:0:0:0:
146,261,16331,1,14,0:0:0:0:
57,214,16731,6,0,B|15:171|15:171|19:23,1,200,14|2,3:2|3:2,0:0:0:0:
117,15,17931,1,10,0:0:0:0:
199,65,18331,2,0,P|252:81|310:64,2,100,10|10|12,3:2|0:0|0:0,0:0:0:0:
117,15,19531,1,10,0:0:0:0:
105,114,19931,6,0,B|99:252|99:252|137:301,1,200,14|2,3:2|3:2,0:0:0:0:
211,368,21131,1,10,0:0:0:0:
310,359,21531,2,0,P|381:300|360:182,1,200,2|0,3:2|3:2,0:0:0:0:
321,114,22731,1,10,0:0:0:0:
393,45,23131,6,0,L|506:41,2,100,2|10|2,3:2|0:0|3:2,0:0:0:0:
321,114,24331,1,10,0:0:0:0:
229,73,24731,2,0,B|91:73|91:73|40:122,1,200,2|2,3:2|3:2,0:0:0:0:
28,214,25931,1,10,0:0:0:0:
10,312,26331,6,0,L|114:301,1,100,2|10,3:2|0:0,0:0:0:0:
196,252,27131,1,2,3:2:0:0:
279,306,27531,1,10,0:0:0:0:
366,257,27931,2,0,P|378:303|358:364,2,100,2|10|2,3:2|0:0|3:2,0:0:0:0:
311,173,29131,1,10,0:0:0:0:
331,75,29531,6,0,L|430:66,1,100,2|10,3:2|0:0,0:0:0:0:
410,164,30331,2,0,L|310:172,1,100,2|10,3:2|0:0,0:0:0:0:
233,109,31131,2,0,B|206:164|206:164|241:308,1,200,2|2,3:2|3:2,0:0:0:0:
305,373,32331,1,10,3:0:0:0:
404,366,32731,6,0,P|439:322|446:278,1,100,6|10,3:2|0:0,0:0:0:0:
434,180,33531,1,2,3:2:0:0:
350,124,33931,1,10,0:0:0:0:
257,160,34331,2,0,P|203:174|146:160,2,100,2|10|2,3:2|0:0|3:2,0:0:0:0:
350,124,35531,1,10,0:0:0:0:
434,180,35931,6,0,P|444:237|429:287,1,100,2|10,3:2|0:0,0:0:0:0:
359,344,36731,2,0,L|239:340,1,100,2|10,3:2|0:0,0:0:0:0:
161,362,37531,2,0,P|77:331|46:220,1,200,2|2,3:2|3:2,0:0:0:0:
64,134,38731,1,10,0:0:0:0:
136,64,39131,6,0,L|248:60,1,100,6|10,3:2|0:0,0:0:0:0:
320,114,39931,1,2,3:2:0:0:
405,61,40331,1,10,0:0:0:0:
489,114,40731,2,0,P|503:60|489:11,2,100,2|10|2,3:2|0:0|3:2,0:0:0:0:
436,199,41931,1,14,0:0:0:0:
491,282,42331,6,0,P|451:301|391:290,1,100,6|8,3:2|0:0,0:0:0:0:
317,232,43131,1,0,3:2:0:0:
229,280,43531,1,10,0:0:0:0:
148,221,43931,2,0,P|111:177|113:118,1,100,2|10,3:2|0:0,0:0:0:0:
164,54,44731,2,0,P|201:98|199:157,1,100,2|10,3:2|0:0,0:0:0:0:
148,221,45531,5,10,3:2:0:0:
204,303,45931,1,10,0:0:0:0:
136,376,46331,1,10,0:0:0:0:
33,266,46931,6,0,P|29:178|73:119,1,150,6|10,3:2|0:0,0:0:0:0:
146,76,47931,2,0,L|209:73,1,50,2|2,3:2|1:2,0:0:0:0:
275,134,48531,2,0,L|451:125,1,150,2|10,1:2|0:0,0:0:0:0:
389,33,49531,2,0,L|266:38,1,100,2|10,3:2|0:0,0:0:0:0:
195,73,50331,5,2,3:2:0:0:
107,23,50731,1,10,0:0:0:0:
48,104,51131,2,0,P|30:170|64:246,1,150,0|2,3:2|1:2,0:0:0:0:
158,266,52131,2,0,L|219:267,1,50,2|10,1:2|0:0,0:0:0:0:
293,201,52731,1,2,3:2:0:0:
363,272,53131,1,8,0:0:0:0:
457,241,53531,6,0,L|466:118,1,100,6|10,3:2|0:0,0:0:0:0:
424,49,54331,2,0,L|354:48,1,50,2|2,3:2|1:2,0:0:0:0:
276,71,54931,2,0,P|256:142|281:211,1,150,2|10,1:2|0:0,0:0:0:0:
363,272,55931,1,2,3:2:0:0:
234,348,56531,6,0,L|126:342,1,100,2|2,1:2|1:2,0:0:0:0:
47,292,57331,2,0,P|23:238|28:181,1,100,2|2,1:2|1:2,0:0:0:0:
43,99,58131,1,2,1:2:0:0:
134,59,58531,1,2,1:2:0:0:
217,113,58931,1,2,1:2:0:0:
353,51,59731,6,0,B|385:100|385:100|387:207,1,150,6|10,3:2|0:0,0:0:0:0:
330,274,60731,2,0,L|271:276,1,50,2|2,3:2|1:2,0:0:0:0:
201,213,61331,2,0,L|51:218,1,150,2|10,1:2|0:0,0:0:0:0:
83,312,62331,2,0,L|182:308,1,100,2|10,3:0|0:0,0:0:0:0:
280,275,63131,5,2,3:2:0:0:
341,354,63531,1,10,0:0:0:0:
440,343,63931,2,0,P|472:286|452:204,1,150,2|2,3:2|1:2,0:0:0:0:
446,106,64931,2,0,L|438:41,1,50,2|10,1:2|0:0,0:0:0:0:
346,21,65531,1,2,3:2:0:0:
278,94,65931,1,10,0:0:0:0:
184,57,66331,6,0,L|178:3,2,50,6|0|10,3:2|1:0|0:0,0:0:0:0:
182,106,66931,2,0,L|198:254,1,150,0|10,1:0|0:0,0:0:0:0:
276,317,67931,1,2,3:2:0:0:
369,281,68331,1,10,0:0:0:0:
453,334,68731,2,0,P|471:282|456:227,1,100,2|10,3:2|0:0,0:0:0:0:
477,140,69531,6,0,L|372:142,1,100,6|10,3:2|0:0,0:0:0:0:
288,95,70331,2,0,L|183:97,1,100,2|10,3:2|0:0,0:0:0:0:
112,30,71131,2,0,P|88:75|92:128,1,100,2|8,3:2|0:0,0:0:0:0:
159,194,71931,2,0,L|258:192,1,100,0|10,3:2|0:0,0:0:0:0:
288,95,72731,6,0,L|210:96,2,50,14|0|10,3:2|1:0|0:0,0:0:0:0:
338,97,73331,2,0,P|411:142|424:233,1,150,0|10,1:0|0:0,0:0:0:0:
387,291,74331,1,2,3:2:0:0:
291,265,74731,1,10,0:0:0:0:
207,319,75131,1,10,0:0:0:0:
111,294,75531,1,10,0:0:0:0:
27,348,75931,6,0,P|9:299|20:248,1,100,6|10,3:2|0:0,0:0:0:0:
98,193,76731,2,0,L|206:189,1,100,6|10,3:2|0:0,0:0:0:0:
210,291,77531,2,0,L|110:294,2,100,6|14|14,3:2|0:0|0:0,0:0:0:0:
310,286,78731,1,14,0:0:0:0:
383,217,79131,6,0,P|393:166|374:118,1,100,6|10,3:2|0:0,0:0:0:0:
288,74,79931,2,0,L|180:70,1,100,6|10,3:2|0:0,0:0:0:0:
193,170,80731,2,0,L|292:173,2,100,6|14|14,3:2|0:0|0:0,0:0:0:0:
103,124,81931,1,8,3:2:0:0:
27,189,82331,5,14,0:0:0:0:
256,192,82531,12,0,87131,0:0:0:0:
