osu file format v14

[General]
AudioFilename: audio.mp3
AudioLeadIn: 0
PreviewTime: 46231
Countdown: 0
SampleSet: Soft
StackLeniency: 0.4
Mode: 0
LetterboxInBreaks: 0
WidescreenStoryboard: 0

[Editor]
Bookmarks: 679,10279,19879,32679,38679,39079,42279,46879,59679,75879,82279
DistanceSpacing: 0.3
BeatDivisor: 4
GridSize: 32
TimelineZoom: 1.9

[Metadata]
Title:OUKARANMAN (TV Size)
TitleUnicode:桜花爛漫 (TV Size)
Artist:KEYTALK
ArtistUnicode:KEYTALK
Creator:Cris-
Version:HAZU'S INSANE
Source:境界のRINNE
Tags:TheShadowOfDark Xen Xenon- Xehn Hazu- Kyoukai Kyokai no Rinne りんね Opening Anime Japanese
BeatmapID:2217614
BeatmapSetID:972282

[Difficulty]
HPDrainRate:6
CircleSize:3.8
OverallDifficulty:7
ApproachRate:8
SliderMultiplier:1.6
SliderTickRate:1

[Events]
//Background and Video events
0,0,"Rinne.jpg",0,0
Video,0,"Rinne Opening.mp4"
//Break Periods
//Storyboard Layer 0 (Background)
//Storyboard Layer 1 (Fail)
//Storyboard Layer 2 (Pass)
//Storyboard Layer 3 (Foreground)
//Storyboard Layer 4 (Overlay)
//Storyboard Sound Samples

[TimingPoints]
731,400,4,2,1,60,1,0
731,-133.333333333333,4,2,1,60,0,0
2331,-133.333333333333,4,2,1,60,0,0
3831,-133.333333333333,4,2,1,5,0,0
3931,-125,4,2,1,60,0,0
7131,-105.263157894737,4,2,1,60,0,0
10331,-90.9090909090909,4,2,1,70,0,0
19931,-100,4,2,1,50,0,0
26631,-100,4,2,1,5,0,0
26731,-100,4,2,1,50,0,0
29031,-100,4,2,1,5,0,0
29131,-100,4,2,1,50,0,0
29431,-100,4,2,1,5,0,0
29531,-100,4,2,1,50,0,0
32731,-100,4,2,1,60,0,0
42331,-100,4,2,1,70,0,0
46931,-83.3333333333333,4,2,1,80,0,1
56531,-76.9230769230769,4,2,1,80,0,1
58131,-66.6666666666667,4,2,1,80,0,1
59131,-83.3333333333333,4,2,1,80,0,0
59731,-83.3333333333333,4,2,1,80,0,1
75931,-90.9090909090909,4,2,1,70,0,0
82231,-90.9090909090909,4,2,1,5,0,0
82331,-90.9090909090909,4,2,1,70,0,0
83131,-90.9090909090909,4,2,1,60,0,0
83931,-90.9090909090909,4,2,1,50,0,0
84731,-90.9090909090909,4,2,1,40,0,0
85531,-90.9090909090909,4,2,1,30,0,0
86331,-90.9090909090909,4,2,1,20,0,0
86731,-90.9090909090909,4,2,1,10,0,0
87131,-90.9090909090909,4,2,1,5,0,0

[Colours]
Combo1 : 255,215,91
Combo2 : 249,141,89
Combo3 : 255,85,85
Combo4 : 255,130,255

[HitObjects]
226,91,731,6,0,B|415:39|415:39|328:110,1,300.000011444092,6|0,3:2|0:0,0:0:0:0:
169,183,2131,1,0,0:0:0:0:
169,183,2331,2,0,P|209:116|98:133,1,240.000009155274,6|0,3:2|0:0,0:0:0:0:
144,279,3531,2,0,P|213:262|257:250,1,90.0000034332277,2|0,0:0|0:0,0:0:0:0:
262,280,3931,6,0,P|329:260|400:244,1,128,6|2,3:2|0:0,0:0:0:0:
228,96,4731,2,0,P|211:164|190:233,1,128,6|2,3:2|0:0,0:0:0:0:
400,158,5531,2,0,P|349:109|299:56,1,128,6|2,3:2|3:2,0:0:0:0:
223,199,6131,2,0,L|263:188,1,32,8|8,0:3|0:3,0:0:0:0:
282,196,6331,1,10,0:3:0:0:
162,138,6531,1,8,0:3:0:0:
269,282,6731,1,10,0:3:0:0:
142,115,6931,1,8,0:3:0:0:
32,304,7131,6,0,P|68:295|115:283,1,75.9999979705811,6|0,3:2|1:2,0:0:0:0:
196,252,7531,1,2,3:2:0:0:
142,115,7731,2,0,P|134:150|121:215,1,75.9999979705811,0|2,1:2|3:2,0:0:0:0:
196,252,8131,1,0,1:2:0:0:
224,147,8331,1,2,3:2:0:0:
96,351,8531,1,14,1:2:0:0:
96,351,8931,5,10,3:2:0:0:
223,313,9131,1,10,3:2:0:0:
50,251,9331,1,10,3:2:0:0:
317,200,9531,2,0,P|353:191|391:183,1,75.9999979705811,14|8,1:2|3:2,0:0:0:0:
417,196,9831,1,8,0:0:0:0:
417,196,9931,1,10,0:0:0:0:
229,114,10131,5,8,3:2:0:0:
229,114,10231,1,8,0:0:0:0:
229,114,10331,2,0,P|185:187|238:288,1,176.000005371094,14|10,3:2|0:0,0:0:0:0:
299,316,10931,1,0,1:2:0:0:
135,367,11131,2,0,P|122:323|106:255,1,88.000002685547,2|0,3:2|1:2,0:0:0:0:
0,191,11531,2,0,P|13:235|29:303,1,88.000002685547,10|0,0:0|1:2,0:0:0:0:
263,122,11931,5,2,3:2:0:0:
166,92,12131,1,0,1:2:0:0:
136,189,12331,1,10,0:0:0:0:
233,218,12531,1,0,1:2:0:0:
73,122,12731,2,0,P|93:191|126:304,1,176.000005371094,2|10,3:2|0:0,0:0:0:0:
11,226,13331,1,2,1:2:0:0:
196,89,13531,6,0,P|184:141|171:201,1,88.000002685547,2|0,3:2|1:2,0:0:0:0:
248,267,13931,2,0,P|257:224|267:181,1,88.000002685547,10|0,0:0|1:2,0:0:0:0:
119,339,14331,2,0,B|173:333|173:333|235:359|235:359|311:346,1,176.000005371094,2|10,3:2|0:0,0:0:0:0:
389,286,14931,1,2,1:2:0:0:
284,157,15131,6,0,P|295:195|313:268,1,88.000002685547,2|0,3:2|1:2,0:0:0:0:
384,167,15531,2,0,P|394:124|407:82,1,88.000002685547,10|0,0:0|1:2,0:0:0:0:
302,45,15931,1,2,3:2:0:0:
473,198,16131,1,14,0:0:0:0:
405,3,16331,1,14,0:0:0:0:
269,184,16531,5,8,0:0:0:0:
269,184,16631,1,8,0:0:0:0:
269,184,16731,2,0,P|317:173|368:160,1,88.000002685547,14|0,3:2|1:2,0:0:0:0:
136,75,17131,2,0,P|184:86|235:99,1,88.000002685547,10|0,0:0|1:2,0:0:0:0:
72,201,17531,2,0,P|55:122|28:16,1,176.000005371094,2|10,3:2|0:0,0:0:0:0:
68,8,18031,1,0,1:2:0:0:
68,8,18131,1,0,1:2:0:0:
238,69,18331,5,10,3:2:0:0:
160,164,18531,1,10,0:0:0:0:
169,6,18731,1,10,0:0:0:0:
268,196,18931,1,10,0:0:0:0:
23,111,19131,2,0,P|75:100|124:88,1,88.000002685547,12|8,0:0|3:2,0:0:0:0:
154,106,19431,1,8,0:0:0:0:
154,106,19531,1,10,0:0:0:0:
367,141,19731,5,8,3:2:0:0:
367,141,19831,1,8,0:0:0:0:
367,141,19931,2,0,B|289:125|302:203|214:182,1,160,14|10,3:2|0:0,0:0:0:0:
132,136,20531,1,0,0:0:0:0:
124,296,20731,2,0,P|140:225|152:187,1,80,2|0,3:2|0:0,0:0:0:0:
56,188,21131,2,0,P|40:259|28:297,1,80,10|0,0:0|0:0,0:0:0:0:
208,366,21531,6,0,B|108:339|108:339|39:363,1,160,2|8,3:2|0:0,0:0:0:0:
235,286,22131,2,0,P|287:273|330:253,1,80,2|0,0:0|3:2,0:0:0:0:
368,199,22531,1,2,0:0:0:0:
476,303,22731,2,0,P|438:288|399:279,1,80,10|0,0:0|0:0,0:0:0:0:
219,371,23131,6,0,P|201:299|170:204,1,160,2|10,3:2|0:0,0:0:0:0:
343,178,23731,1,0,0:0:0:0:
386,257,23931,2,0,P|348:270|300:255,1,80,2|0,3:2|0:0,0:0:0:0:
227,105,24331,2,0,P|241:142|253:180,1,80,10|0,0:0|0:0,0:0:0:0:
198,329,24731,6,0,P|212:292|123:297,1,160,2|8,3:2|0:0,0:0:0:0:
339,354,25331,1,2,0:0:0:0:
440,304,25531,2,0,B|342:264|342:264|270:286,1,160,2|10,3:2|0:0,0:0:0:0:
151,328,26131,1,2,0:0:0:0:
170,123,26331,6,0,P|183:177|202:258,1,120,2|0,3:2|0:0,0:0:0:0:
234,270,26731,2,0,P|223:216|210:164,1,80,10|0,0:0|0:0,0:0:0:0:
318,237,27131,2,0,P|370:254|421:269,1,80,2|0,3:2|0:0,0:0:0:0:
303,320,27531,2,0,P|261:356|223:393,1,80,10|0,0:0|0:0,0:0:0:0:
54,229,27931,5,2,3:2:0:0:
151,199,28131,1,0,0:0:0:0:
181,296,28331,1,10,0:0:0:0:
84,325,28531,1,0,0:0:0:0:
240,221,28731,2,0,P|302:239|379:257,1,120,2|0,3:2|0:0,0:0:0:0:
382,292,29131,2,0,P|320:274|243:256,1,120,10|0,0:0|0:0,0:0:0:0:
230,287,29531,6,0,P|240:325|252:375,1,80,2|0,3:2|0:0,0:0:0:0:
135,258,29931,2,0,P|145:296|157:346,1,80,10|0,0:0|0:0,0:0:0:0:
234,195,30331,2,0,B|127:157|127:157|66:176,1,160,2|10,3:2|0:0,0:0:0:0:
40,255,30931,1,2,0:0:0:0:
154,335,31131,6,0,P|145:296|135:258,1,80,2|0,3:2|0:0,0:0:0:0:
251,357,31531,2,0,P|241:318|231:279,1,80,10|0,0:0|1:2,0:0:0:0:
247,241,31831,1,0,1:2:0:0:
247,241,31931,1,2,3:2:0:0:
346,300,32131,1,10,3:0:0:0:
358,151,32331,2,0,P|348:178|339:211,1,40,10|0,3:0|3:2,0:0:0:0:
335,209,32531,1,10,3:0:0:0:
501,119,32731,6,0,B|418:140|444:49|339:66,1,160,6|10,3:2|0:0,0:0:0:0:
269,132,33331,1,0,1:2:0:0:
337,228,33531,2,0,P|347:183|362:140,1,80,2|0,3:2|1:2,0:0:0:0:
269,132,33931,2,0,P|259:177|244:220,1,80,10|0,0:0|1:2,0:0:0:0:
79,324,34331,5,2,3:2:0:0:
170,291,34531,1,0,1:2:0:0:
330,362,34731,1,10,0:0:0:0:
247,327,34931,1,0,1:2:0:0:
411,297,35131,1,2,3:2:0:0:
411,297,35231,1,0,3:2:0:0:
411,297,35331,1,8,1:3:0:0:
296,180,35531,2,0,P|306:218|314:257,1,80,10|0,0:0|1:2,0:0:0:0:
380,95,35931,6,0,P|391:138|403:199,1,80,2|0,3:2|1:2,0:0:0:0:
230,118,36331,2,0,P|261:86|308:46,1,80,10|0,0:0|1:2,0:0:0:0:
328,235,36731,2,0,P|285:223|226:202,1,80,2|0,3:2|1:2,0:0:0:0:
78,201,37131,2,0,P|116:188|154:177,1,80,10|0,0:0|1:2,0:0:0:0:
351,119,37531,5,2,3:2:0:0:
351,119,37631,1,0,3:2:0:0:
351,119,37731,1,8,1:3:0:0:
281,300,37931,1,10,0:0:0:0:
268,192,38131,1,0,1:0:0:0:
408,347,38331,1,2,3:2:0:0:
408,347,38431,1,0,3:2:0:0:
408,347,38531,1,8,1:3:0:0:
247,179,38731,1,10,0:0:0:0:
460,257,38931,1,10,0:0:0:0:
182,305,39131,6,0,P|161:221|137:135,2,160,6|10|2,3:2|0:0|3:2,0:0:0:0:
335,200,40131,1,0,3:2:0:0:
280,108,40331,2,0,P|236:94|190:114,1,80,10|0,0:0|3:2,0:0:0:0:
169,241,40731,6,0,P|155:188|142:149,1,80,2|0,3:2|3:2,0:0:0:0:
263,258,41131,2,0,P|249:205|236:166,1,80,10|0,0:0|3:2,0:0:0:0:
354,282,41531,1,2,3:2:0:0:
194,352,41731,1,14,0:0:0:0:
324,158,41931,1,14,0:0:0:0:
411,364,42131,5,8,0:0:0:0:
411,364,42231,1,8,0:0:0:0:
411,364,42331,2,0,P|365:353|323:342,1,80,6|0,3:2|0:0,0:0:0:0:
219,204,42731,1,8,0:0:0:0:
117,312,42931,2,0,P|163:301|205:290,1,80,2|0,1:2|3:2,0:0:0:0:
401,236,43331,1,2,1:2:0:0:
227,118,43531,1,10,0:0:0:0:
294,216,43731,1,0,1:2:0:0:
392,51,43931,6,0,P|335:66|286:74,1,80,2|0,3:2|1:2,0:0:0:0:
427,196,44331,2,0,P|442:139|460:92,1,80,10|0,0:0|1:2,0:0:0:0:
279,159,44731,2,0,P|320:200|351:239,1,80,2|0,3:2|1:2,0:0:0:0:
465,337,45131,1,10,0:0:0:0:
400,277,45331,1,2,1:2:0:0:
281,365,45531,5,10,3:2:0:0:
469,215,45731,1,8,1:2:0:0:
262,383,45931,1,10,0:0:0:0:
320,151,46131,1,8,1:2:0:0:
470,340,46331,1,10,0:0:0:0:
302,261,46531,1,2,1:2:0:0:
302,261,46931,6,0,B|435:228|435:228|380:277,1,191.999994140625,6|2,3:2|1:2,0:0:0:0:
199,319,47531,2,0,P|213:258|221:207,1,95.9999970703126,10|0,0:0|1:0,0:0:0:0:
249,64,47931,1,2,3:2:0:0:
373,165,48131,1,2,1:2:0:0:
235,43,48331,1,8,0:0:0:0:
304,242,48531,1,2,1:2:0:0:
446,66,48731,6,0,P|396:77|336:86,1,95.9999970703126,2|0,3:2|1:0,0:0:0:0:
210,197,49131,1,10,0:0:0:0:
403,198,49331,1,2,1:2:0:0:
244,36,49531,2,0,P|261:100|273:152,1,95.9999970703126,2|0,3:2|1:0,0:0:0:0:
290,296,49931,2,0,P|301:249|313:203,1,95.9999970703126,10|0,0:0|1:0,0:0:0:0:
82,255,50331,5,2,3:2:0:0:
186,175,50531,1,0,1:0:0:0:
56,267,50731,1,10,0:0:0:0:
258,226,50931,1,0,1:0:0:0:
83,80,51131,2,0,P|92:113|107:189,1,95.9999970703126,2|0,3:2|1:0,0:0:0:0:
168,260,51531,1,10,0:0:0:0:
342,129,51731,6,0,P|288:117|216:103,1,95.9999970703126,2|0,1:2|3:0,0:0:0:0:
186,170,52131,1,2,1:2:0:0:
419,187,52331,2,0,P|437:142|408:80,1,95.9999970703126,10|0,0:0|1:2,0:0:0:0:
214,28,52731,1,2,3:2:0:0:
312,230,52931,1,8,1:2:0:0:
429,18,53131,2,0,P|372:31|307:42,1,95.9999970703126,8|0,0:0|1:0,0:0:0:0:
309,76,53431,5,0,0:0:0:0:
309,76,53531,1,6,3:2:0:0:
180,105,53731,1,0,1:0:0:0:
365,152,53931,1,10,0:0:0:0:
173,206,54131,1,0,1:0:0:0:
238,20,54331,1,2,3:2:0:0:
374,256,54531,2,0,P|327:242|280:233,1,95.9999970703126,2|8,1:2|0:0,0:0:0:0:
66,116,54931,6,0,P|80:166|95:230,1,95.9999970703126,2|0,1:2|3:2,0:0:0:0:
201,323,55331,1,2,1:2:0:0:
47,292,55531,1,10,0:0:0:0:
222,337,55731,1,0,1:0:0:0:
163,151,55931,1,2,3:2:0:0:
109,361,56131,1,0,1:0:0:0:
269,210,56331,1,10,0:0:0:0:
43,104,56531,6,0,B|55:160|55:160|22:244|22:244|37:314,1,207.999990478516,2|2,1:2|1:2,0:0:0:0:
109,361,57131,1,8,0:0:0:0:
348,331,57331,2,0,B|237:362|264:250|144:284,1,207.999990478516,2|2,1:2|1:2,0:0:0:0:
109,361,57931,1,8,0:0:0:0:
36,176,58131,6,0,P|90:161|147:196,1,120.000004577637,2|0,1:2|3:0,0:0:0:0:
261,310,58531,2,0,P|220:269|221:210,1,120.000004577637,2|8,1:2|0:0,0:0:0:0:
266,47,58930,2,0,P|250:103|199:132,1,120.000004577637,2|8,1:2|3:2,0:0:0:0:
166,106,59231,1,8,0:0:0:0:
166,106,59331,2,0,P|138:95|98:80,1,47.9999985351563,8|8,0:0|0:0,0:0:0:0:
23,32,59531,2,0,P|32:59|43:101,1,47.9999985351563,8|8,0:0|0:0,0:0:0:0:
4,172,59731,6,0,B|102:151|79:258|188:223,1,191.999994140625,6|2,3:2|1:2,0:0:0:0:
348,150,60331,2,0,P|304:134|259:149,1,95.9999970703126,10|0,0:0|1:0,0:0:0:0:
215,336,60731,1,2,3:2:0:0:
309,228,60931,1,2,1:2:0:0:
204,357,61131,1,8,0:0:0:0:
172,175,61331,1,2,1:2:0:0:
391,330,61531,6,0,P|353:321|291:308,1,95.9999970703126,2|0,3:2|1:0,0:0:0:0:
90,274,61931,1,10,0:0:0:0:
291,213,62131,1,2,1:2:0:0:
204,357,62331,2,0,P|191:310|179:264,1,95.9999970703126,2|0,3:0|1:0,0:0:0:0:
188,70,62731,2,0,P|200:116|212:162,1,95.9999970703126,10|0,0:0|1:0,0:0:0:0:
379,271,63131,5,2,3:2:0:0:
312,178,63331,1,0,1:0:0:0:
282,327,63531,1,10,0:0:0:0:
315,155,63731,1,0,1:0:0:0:
472,293,63931,2,0,P|425:281|378:270,1,95.9999970703126,2|0,3:2|1:0,0:0:0:0:
275,248,64331,1,10,0:0:0:0:
175,93,64531,6,0,P|188:135|207:200,1,95.9999970703126,2|0,1:2|3:0,0:0:0:0:
162,275,64931,1,2,1:2:0:0:
283,131,65131,2,0,P|333:123|386:156,1,95.9999970703126,10|0,0:0|1:0,0:0:0:0:
504,288,65531,1,2,3:2:0:0:
435,73,65731,1,8,1:2:0:0:
291,272,65931,2,0,P|343:261|384:251,1,95.9999970703126,10|0,0:0|1:2,0:0:0:0:
417,244,66231,5,0,0:0:0:0:
417,244,66331,1,6,3:2:0:0:
294,191,66531,1,0,1:0:0:0:
409,333,66731,1,10,0:0:0:0:
380,152,66931,1,0,1:0:0:0:
215,272,67131,2,0,P|257:293|303:284,1,95.9999970703126,2|0,3:2|1:0,0:0:0:0:
203,164,67531,2,0,P|160:142|114:151,1,95.9999970703126,10|0,0:0|1:0,0:0:0:0:
98,277,67931,5,2,3:2:0:0:
21,179,68131,1,0,1:0:0:0:
0,344,68331,1,10,0:0:0:0:
4,159,68531,1,2,1:2:0:0:
192,294,68731,2,0,P|144:285|97:276,1,95.9999970703126,2|0,3:2|1:0,0:0:0:0:
312,214,69131,2,0,P|264:205|217:196,1,95.9999970703126,10|0,0:0|1:0,0:0:0:0:
428,318,69531,6,0,P|414:260|400:202,1,95.9999970703126,6|0,3:2|0:0,0:0:0:0:
505,73,69931,2,0,P|491:131|477:189,1,95.9999970703126,10|0,0:0|1:0,0:0:0:0:
296,108,70331,2,0,P|340:93|394:116,1,95.9999970703126,2|0,3:2|1:0,0:0:0:0:
201,212,70731,2,0,P|245:227|299:204,1,95.9999970703126,10|0,0:0|1:0,0:0:0:0:
116,88,71131,5,2,3:2:0:0:
44,168,71331,2,0,P|60:221|72:276,1,95.9999970703126,0|8,1:0|0:0,0:0:0:0:
182,367,71731,2,0,P|166:314|154:259,1,95.9999970703126,2|0,1:2|3:2,0:0:0:0:
269,156,72131,2,0,P|242:152|205:144,1,47.9999985351563,8|8,0:0|0:0,0:0:0:0:
186,142,72331,1,10,0:0:0:0:
371,184,72531,5,8,0:0:0:0:
371,184,72631,1,8,0:0:0:0:
371,184,72731,1,14,3:2:0:0:
269,74,72931,1,0,1:0:0:0:
294,251,73131,1,10,0:0:0:0:
367,83,73331,1,0,1:0:0:0:
153,156,73531,2,0,P|216:168|261:178,1,95.9999970703126,2|0,3:2|1:0,0:0:0:0:
483,228,73931,2,0,P|420:240|375:250,1,95.9999970703126,10|0,0:0|1:0,0:0:0:0:
256,274,74331,5,2,3:2:0:0:
364,164,74531,1,10,0:0:0:0:
360,334,74731,1,10,0:0:0:0:
245,174,74931,1,8,0:0:0:0:
245,174,75031,1,8,0:0:0:0:
248,179,75131,1,10,0:0:0:0:
490,149,75331,1,8,0:0:0:0:
490,149,75431,1,8,0:0:0:0:
490,149,75531,2,0,P|480:183|471:216,1,47.9999985351563,10|8,0:0|0:0,0:0:0:0:
382,224,75731,2,0,P|392:190|401:157,1,47.9999985351563,8|8,0:0|0:0,0:0:0:0:
352,97,75931,6,0,B|299:88|299:88|233:116|233:116|161:104,1,176.000005371094,6|10,3:2|0:0,0:0:0:0:
22,228,76731,2,0,B|75:219|75:219|141:247|141:247|213:235,1,176.000005371094,6|10,3:2|0:0,0:0:0:0:
418,186,77531,6,0,P|403:234|386:289,1,88.000002685547,6|0,3:2|3:2,0:0:0:0:
339,124,77931,2,0,P|324:172|307:227,1,88.000002685547,14|0,0:0|3:2,0:0:0:0:
170,312,78331,1,14,0:0:0:0:
256,284,78531,1,0,3:2:0:0:
54,226,78731,2,0,P|69:274|86:329,1,88.000002685547,14|0,0:0|0:0,0:0:0:0:
148,171,79131,6,0,B|178:40|178:40|144:64,1,176.000005371094,6|10,3:2|0:0,0:0:0:0:
237,188,79931,2,0,B|207:319|207:319|241:295,1,176.000005371094,6|10,3:2|0:0,0:0:0:0:
447,232,80731,6,0,P|396:219|345:206,1,88.000002685547,6|0,3:2|3:2,0:0:0:0:
508,155,81131,2,0,P|457:142|406:129,1,88.000002685547,14|0,0:0|3:2,0:0:0:0:
290,27,81531,2,0,P|306:80|323:135,1,88.000002685547,14|0,0:0|3:2,0:0:0:0:
268,264,81931,2,0,P|249:197|221:112,1,132.00000402832,8|0,3:2|0:0,0:0:0:0:
196,119,82331,5,14,0:0:0:0:
256,192,82431,12,0,87131,0:0:0:0:
