osu file format v14

[General]
AudioFilename: audio.mp3
AudioLeadIn: 0
PreviewTime: 36400
Countdown: 1
SampleSet: Normal
StackLeniency: 0.7
Mode: 1
LetterboxInBreaks: 0
WidescreenStoryboard: 0

[Editor]
DistanceSpacing: 1
BeatDivisor: 4
GridSize: 4
TimelineZoom: 1.6

[Metadata]
Title:One of Those Nights
TitleUnicode:센 척 안 해
Artist:KEY feat. Crush
ArtistUnicode:키 feat. Crush
Creator:Hitsu
Version:oni
Source:
Tags:김기범 Kim Kibum SHINee FACE Adrian McKinnon Daniel Doron Henig Riley Thomas Donnell Jake Torrey Noah Conrad
BeatmapID:1867454
BeatmapSetID:893577

[Difficulty]
HPDrainRate:5
CircleSize:5
OverallDifficulty:5
ApproachRate:5
SliderMultiplier:1.4
SliderTickRate:1

[Events]
//Background and Video events
0,0,"ootn.jpg",0,50
//Break Periods
//Storyboard Layer 0 (Background)
//Storyboard Layer 1 (Fail)
//Storyboard Layer 2 (Pass)
//Storyboard Layer 3 (Foreground)
//Storyboard Sound Samples

[TimingPoints]
190,468.75,4,1,1,50,1,0
22690,-100,4,1,1,60,0,0
52690,-100,4,1,1,60,0,1
67690,-100,4,1,1,60,0,0
120190,-100,4,1,1,40,0,0
135190,-100,4,1,1,50,0,0
152065,-100,4,1,1,60,0,0
167065,-100,4,1,1,60,0,1
182065,-100,4,1,1,50,0,0

[HitObjects]
269,187,190,5,0,0:0:0:0:
287,204,424,1,2,0:0:0:0:
263,208,658,1,0,0:0:0:0:
287,204,893,1,2,0:0:0:0:
287,204,1127,1,0,0:0:0:0:
291,204,1361,1,0,0:0:0:0:
244,196,1596,1,2,0:0:0:0:
276,193,2533,1,2,0:0:0:0:
272,195,3236,1,2,0:0:0:0:
274,199,3354,1,2,0:0:0:0:
272,195,3471,1,0,0:0:0:0:
275,199,3705,1,0,0:0:0:0:
275,199,3940,1,2,0:0:0:0:
248,195,4174,1,0,0:0:0:0:
248,195,4408,1,0,0:0:0:0:
248,195,4643,1,0,0:0:0:0:
248,195,4877,1,2,0:0:0:0:
248,195,5111,1,0,0:0:0:0:
251,194,5346,1,2,0:0:0:0:
252,194,6283,1,2,0:0:0:0:
252,194,7221,1,2,0:0:0:0:
252,194,7924,1,0,0:0:0:0:
252,194,8158,1,2,0:0:0:0:
252,194,8393,1,0,0:0:0:0:
252,194,8627,1,0,0:0:0:0:
252,194,8861,1,0,0:0:0:0:
252,194,9096,1,2,0:0:0:0:
252,194,9330,1,0,0:0:0:0:
253,194,9682,1,0,0:0:0:0:
253,194,10033,1,2,0:0:0:0:
258,201,10736,1,2,0:0:0:0:
258,201,10854,1,2,0:0:0:0:
258,201,10971,1,0,0:0:0:0:
271,221,11205,1,0,0:0:0:0:
271,221,11440,1,2,0:0:0:0:
271,221,11674,1,0,0:0:0:0:
271,221,11908,1,2,0:0:0:0:
272,220,12143,1,2,0:0:0:0:
272,220,12377,1,0,0:0:0:0:
272,220,12611,1,0,0:0:0:0:
272,220,12846,1,2,0:0:0:0:
272,220,13080,1,2,0:0:0:0:
272,220,13315,1,0,0:0:0:0:
272,220,13783,1,2,0:0:0:0:
272,220,14721,1,2,0:0:0:0:
263,195,15424,1,0,0:0:0:0:
263,195,15658,1,2,0:0:0:0:
263,195,15893,1,0,0:0:0:0:
271,206,16127,1,0,0:0:0:0:
271,206,16361,1,0,0:0:0:0:
271,206,16596,1,2,0:0:0:0:
271,206,16830,1,0,0:0:0:0:
271,206,17182,1,0,0:0:0:0:
271,206,17533,1,2,0:0:0:0:
271,206,18236,1,2,0:0:0:0:
271,206,18354,1,0,0:0:0:0:
271,206,18471,1,2,0:0:0:0:
271,206,18705,1,2,0:0:0:0:
271,206,18940,1,0,0:0:0:0:
253,210,19408,1,2,0:0:0:0:
253,210,19643,1,0,0:0:0:0:
253,210,19877,1,0,0:0:0:0:
253,210,20111,1,0,0:0:0:0:
253,210,20346,1,2,0:0:0:0:
253,210,20580,1,0,0:0:0:0:
253,210,21283,1,2,0:0:0:0:
253,210,21986,1,2,0:0:0:0:
253,210,22221,1,0,0:0:0:0:
253,210,22455,1,2,0:0:0:0:
253,210,22690,1,0,0:0:0:0:
253,210,23158,1,2,0:0:0:0:
253,210,23393,1,0,0:0:0:0:
253,210,23627,1,0,0:0:0:0:
253,210,24096,1,2,0:0:0:0:
253,210,24330,1,2,0:0:0:0:
253,210,24565,1,0,0:0:0:0:
253,210,24799,1,0,0:0:0:0:
253,210,25033,1,2,0:0:0:0:
277,217,25502,1,0,0:0:0:0:
277,217,25736,1,0,0:0:0:0:
277,217,25971,1,2,0:0:0:0:
277,217,26205,1,2,0:0:0:0:
277,217,26440,1,0,0:0:0:0:
279,218,26908,1,2,0:0:0:0:
279,218,27143,1,0,0:0:0:0:
279,218,27494,1,0,0:0:0:0:
279,218,27846,1,2,0:0:0:0:
281,224,28080,1,0,0:0:0:0:
281,221,28783,1,2,0:0:0:0:
281,221,29486,1,0,0:0:0:0:
281,221,29721,1,2,0:0:0:0:
281,221,29955,1,2,0:0:0:0:
281,221,30190,1,0,0:0:0:0:
281,221,30658,1,2,0:0:0:0:
281,221,30893,1,0,0:0:0:0:
281,221,31127,1,0,0:0:0:0:
281,215,31596,1,2,0:0:0:0:
281,215,31830,1,0,0:0:0:0:
281,215,32299,1,0,0:0:0:0:
281,215,32533,1,2,0:0:0:0:
281,215,32768,1,0,0:0:0:0:
281,215,33236,1,0,0:0:0:0:
281,215,33354,1,0,0:0:0:0:
281,215,33471,1,2,0:0:0:0:
281,215,33705,1,0,0:0:0:0:
281,215,33940,1,0,0:0:0:0:
281,215,34408,1,2,0:0:0:0:
281,215,34643,1,0,0:0:0:0:
281,215,34877,1,0,0:0:0:0:
281,215,35111,1,0,0:0:0:0:
281,215,35346,1,2,0:0:0:0:
281,215,35580,1,0,0:0:0:0:
281,215,36283,1,2,0:0:0:0:
281,215,37690,1,4,0:0:0:0:
281,215,38041,1,0,0:0:0:0:
281,215,38158,1,2,0:0:0:0:
281,215,38393,1,2,0:0:0:0:
282,210,38627,1,0,0:0:0:0:
282,210,38744,1,2,0:0:0:0:
282,210,38861,1,0,0:0:0:0:
282,210,39096,1,2,0:0:0:0:
282,208,39565,1,0,0:0:0:0:
282,208,39799,1,0,0:0:0:0:
282,208,40033,1,2,0:0:0:0:
282,208,40502,1,0,0:0:0:0:
282,208,40736,1,2,0:0:0:0:
282,208,40815,1,2,0:0:0:0:
282,208,40893,1,0,0:0:0:0:
282,208,40971,1,2,0:0:0:0:
282,208,41205,1,2,0:0:0:0:
282,208,41440,1,0,0:0:0:0:
278,210,41791,1,0,0:0:0:0:
278,210,41908,1,2,0:0:0:0:
278,210,42143,1,2,0:0:0:0:
278,210,42377,1,0,0:0:0:0:
278,210,42494,1,2,0:0:0:0:
278,210,42611,1,0,0:0:0:0:
278,210,42846,1,2,0:0:0:0:
277,210,43197,1,0,0:0:0:0:
277,210,43315,1,0,0:0:0:0:
277,210,43783,1,2,0:0:0:0:
277,210,44018,1,0,0:0:0:0:
277,210,44252,1,0,0:0:0:0:
277,210,44486,1,2,0:0:0:0:
277,210,44604,1,0,0:0:0:0:
277,210,44721,1,2,0:0:0:0:
277,210,44955,1,2,0:0:0:0:
277,210,45190,1,0,0:0:0:0:
277,210,45541,1,0,0:0:0:0:
277,210,45658,1,2,0:0:0:0:
277,210,45893,1,2,0:0:0:0:
277,210,46127,1,0,0:0:0:0:
277,210,46244,1,2,0:0:0:0:
277,210,46361,1,0,0:0:0:0:
277,210,46596,1,2,0:0:0:0:
277,210,47065,1,0,0:0:0:0:
277,210,47299,1,0,0:0:0:0:
277,210,47533,1,2,0:0:0:0:
277,210,48002,1,0,0:0:0:0:
262,198,48236,1,0,0:0:0:0:
262,198,48315,1,0,0:0:0:0:
262,198,48393,1,0,0:0:0:0:
262,198,48471,1,2,0:0:0:0:
250,186,48705,1,2,0:0:0:0:
251,186,48940,1,0,0:0:0:0:
238,198,49291,1,0,0:0:0:0:
238,198,49408,1,2,0:0:0:0:
238,198,49643,1,2,0:0:0:0:
238,198,49877,1,0,0:0:0:0:
238,198,49994,1,2,0:0:0:0:
238,198,50111,1,0,0:0:0:0:
225,197,50346,1,2,0:0:0:0:
225,197,50697,1,2,0:0:0:0:
225,197,50815,1,0,0:0:0:0:
227,199,51283,1,2,0:0:0:0:
227,199,51635,1,0,0:0:0:0:
227,199,51752,1,2,0:0:0:0:
201,213,51908,1,2,0:0:0:0:
227,208,52065,1,0,0:0:0:0:
227,208,52221,1,2,0:0:0:0:
227,208,52377,1,2,0:0:0:0:
227,208,52533,1,2,0:0:0:0:
227,208,52690,1,4,0:0:0:0:
256,200,52924,1,2,0:0:0:0:
256,200,53041,1,2,0:0:0:0:
256,200,53158,1,0,0:0:0:0:
256,200,53393,1,2,0:0:0:0:
256,200,53627,1,0,0:0:0:0:
256,200,53979,1,0,0:0:0:0:
256,200,54096,1,2,0:0:0:0:
256,200,54330,1,0,0:0:0:0:
256,200,54565,1,0,0:0:0:0:
256,200,54799,1,2,0:0:0:0:
257,200,54916,1,0,0:0:0:0:
256,200,55033,1,2,0:0:0:0:
256,200,55268,1,2,0:0:0:0:
256,200,55502,1,0,0:0:0:0:
258,201,55971,1,2,0:0:0:0:
258,201,56440,1,0,0:0:0:0:
258,201,56674,1,2,0:0:0:0:
258,201,56791,1,0,0:0:0:0:
258,201,56908,1,2,0:0:0:0:
258,201,57143,1,2,0:0:0:0:
258,201,57377,1,0,0:0:0:0:
258,201,57729,1,0,0:0:0:0:
258,201,57846,1,2,0:0:0:0:
258,201,58080,1,0,0:0:0:0:
258,201,58315,1,0,0:0:0:0:
258,201,58783,1,2,0:0:0:0:
258,201,59135,1,0,0:0:0:0:
227,199,59252,1,2,0:0:0:0:
201,213,59408,1,2,0:0:0:0:
227,208,59565,1,0,0:0:0:0:
227,208,59721,1,2,0:0:0:0:
227,208,59877,1,2,0:0:0:0:
227,208,60033,1,0,0:0:0:0:
227,208,60190,1,2,0:0:0:0:
256,200,60424,1,0,0:0:0:0:
256,200,60541,1,2,0:0:0:0:
256,200,60658,1,0,0:0:0:0:
256,200,60893,1,2,0:0:0:0:
256,200,61127,1,0,0:0:0:0:
256,200,61479,1,0,0:0:0:0:
256,200,61596,1,2,0:0:0:0:
256,200,61830,1,0,0:0:0:0:
256,200,62065,1,0,0:0:0:0:
256,200,62299,1,2,0:0:0:0:
257,200,62416,1,0,0:0:0:0:
256,200,62533,1,2,0:0:0:0:
256,200,62768,1,2,0:0:0:0:
256,200,63002,1,0,0:0:0:0:
258,201,63471,1,2,0:0:0:0:
258,201,63940,1,0,0:0:0:0:
258,201,64174,1,2,0:0:0:0:
258,201,64291,1,0,0:0:0:0:
258,201,64408,1,2,0:0:0:0:
258,201,64643,1,2,0:0:0:0:
258,201,64877,1,0,0:0:0:0:
258,201,65229,1,0,0:0:0:0:
258,201,65346,1,2,0:0:0:0:
258,201,65580,1,0,0:0:0:0:
258,201,65815,1,0,0:0:0:0:
258,201,66283,1,2,0:0:0:0:
227,199,66752,1,2,0:0:0:0:
201,213,66908,1,0,0:0:0:0:
227,208,67065,1,0,0:0:0:0:
227,208,67221,1,2,0:0:0:0:
227,208,67377,1,0,0:0:0:0:
227,208,67533,1,2,0:0:0:0:
227,208,67690,1,0,0:0:0:0:
258,198,68158,1,2,0:0:0:0:
258,198,68393,1,0,0:0:0:0:
258,198,68627,1,0,0:0:0:0:
258,198,68861,1,0,0:0:0:0:
258,198,69096,1,2,0:0:0:0:
258,198,69330,1,2,0:0:0:0:
258,198,69565,1,0,0:0:0:0:
276,205,70033,1,2,0:0:0:0:
276,205,70268,1,0,0:0:0:0:
276,205,70502,1,0,0:0:0:0:
276,205,70736,1,0,0:0:0:0:
276,205,70854,1,0,0:0:0:0:
276,205,70971,1,2,0:0:0:0:
276,205,71205,1,0,0:0:0:0:
276,205,71440,1,0,0:0:0:0:
276,205,71908,1,2,0:0:0:0:
276,205,72143,1,0,0:0:0:0:
276,205,72611,1,0,0:0:0:0:
276,205,72846,1,2,0:0:0:0:
276,205,73080,1,0,0:0:0:0:
276,205,73783,1,2,0:0:0:0:
276,205,74252,1,0,0:0:0:0:
276,205,74486,1,0,0:0:0:0:
276,205,74604,1,0,0:0:0:0:
276,205,74721,1,2,0:0:0:0:
238,164,75190,1,0,0:0:0:0:
252,194,75424,1,0,0:0:0:0:
252,194,75658,1,2,0:0:0:0:
252,194,75893,1,2,0:0:0:0:
252,194,76127,1,0,0:0:0:0:
252,194,76361,1,0,0:0:0:0:
252,194,76596,1,2,0:0:0:0:
252,194,76830,1,0,0:0:0:0:
253,194,77182,1,0,0:0:0:0:
253,194,77533,1,2,0:0:0:0:
251,212,78002,1,0,0:0:0:0:
258,201,78236,1,2,0:0:0:0:
258,201,78354,1,2,0:0:0:0:
258,201,78471,1,0,0:0:0:0:
271,221,78705,1,0,0:0:0:0:
271,221,78940,1,0,0:0:0:0:
271,221,79174,1,0,0:0:0:0:
271,221,79408,1,2,0:0:0:0:
272,220,79643,1,2,0:0:0:0:
272,220,79877,1,0,0:0:0:0:
272,220,80111,1,0,0:0:0:0:
272,220,80346,1,2,0:0:0:0:
272,220,80580,1,0,0:0:0:0:
272,220,80815,1,0,0:0:0:0:
272,220,81283,1,2,0:0:0:0:
232,207,81752,1,0,0:0:0:0:
272,220,82221,1,2,0:0:0:0:
232,207,82690,1,0,0:0:0:0:
263,195,82924,1,0,0:0:0:0:
263,195,83158,1,2,0:0:0:0:
263,195,83393,1,2,0:0:0:0:
271,206,83627,1,0,0:0:0:0:
271,206,83861,1,0,0:0:0:0:
271,206,84096,1,2,0:0:0:0:
271,206,84330,1,0,0:0:0:0:
271,206,84682,1,0,0:0:0:0:
271,206,85033,1,2,0:0:0:0:
260,217,85502,1,0,0:0:0:0:
271,206,85736,1,2,0:0:0:0:
271,206,85854,1,0,0:0:0:0:
271,206,85971,1,2,0:0:0:0:
271,206,86205,1,2,0:0:0:0:
271,206,86440,1,0,0:0:0:0:
253,210,86908,1,2,0:0:0:0:
253,210,87143,1,0,0:0:0:0:
253,210,87377,1,0,0:0:0:0:
253,210,87611,1,0,0:0:0:0:
253,210,87846,1,2,0:0:0:0:
253,210,88080,1,0,0:0:0:0:
260,217,88315,1,0,0:0:0:0:
260,217,88783,1,2,0:0:0:0:
269,220,89252,1,0,0:0:0:0:
253,210,89486,1,0,0:0:0:0:
253,210,89721,1,2,0:0:0:0:
253,210,89955,1,2,0:0:0:0:
253,210,90190,1,0,0:0:0:0:
253,210,90658,1,2,0:0:0:0:
253,210,90893,1,0,0:0:0:0:
253,210,91127,1,0,0:0:0:0:
253,210,91596,1,2,0:0:0:0:
253,210,91830,1,2,0:0:0:0:
253,210,92065,1,0,0:0:0:0:
253,210,92299,1,0,0:0:0:0:
253,210,92533,1,2,0:0:0:0:
277,217,93002,1,0,0:0:0:0:
277,217,93236,1,0,0:0:0:0:
277,217,93471,1,2,0:0:0:0:
277,217,93705,1,2,0:0:0:0:
277,217,93940,1,0,0:0:0:0:
279,218,94408,1,2,0:0:0:0:
279,218,94643,1,0,0:0:0:0:
279,218,94994,1,0,0:0:0:0:
279,218,95346,1,2,0:0:0:0:
281,224,95580,1,0,0:0:0:0:
295,222,95815,1,0,0:0:0:0:
281,221,96283,1,2,0:0:0:0:
283,205,96752,1,0,0:0:0:0:
281,221,96986,1,0,0:0:0:0:
281,221,97221,1,2,0:0:0:0:
281,221,97455,1,2,0:0:0:0:
281,221,97690,1,0,0:0:0:0:
281,221,98158,1,2,0:0:0:0:
281,221,98393,1,0,0:0:0:0:
281,221,98627,1,0,0:0:0:0:
281,215,99096,1,2,0:0:0:0:
281,215,99330,1,0,0:0:0:0:
281,215,99799,1,0,0:0:0:0:
281,215,100033,1,2,0:0:0:0:
281,215,100268,1,0,0:0:0:0:
281,215,100736,1,0,0:0:0:0:
281,215,100854,1,0,0:0:0:0:
281,215,100971,1,2,0:0:0:0:
281,215,101205,1,0,0:0:0:0:
281,215,101440,1,0,0:0:0:0:
281,215,101908,1,2,0:0:0:0:
281,215,102143,1,0,0:0:0:0:
281,215,102377,1,0,0:0:0:0:
281,215,102611,1,0,0:0:0:0:
281,215,102846,1,2,0:0:0:0:
281,215,103080,1,0,0:0:0:0:
281,215,103783,1,2,0:0:0:0:
281,215,105190,1,4,0:0:0:0:
281,215,105541,1,0,0:0:0:0:
281,215,105658,1,2,0:0:0:0:
281,215,105893,1,2,0:0:0:0:
282,210,106127,1,0,0:0:0:0:
282,210,106244,1,2,0:0:0:0:
282,210,106361,1,0,0:0:0:0:
282,210,106596,1,2,0:0:0:0:
282,208,107065,1,0,0:0:0:0:
282,208,107299,1,0,0:0:0:0:
282,208,107533,1,2,0:0:0:0:
282,208,108002,1,0,0:0:0:0:
282,208,108236,1,2,0:0:0:0:
282,208,108315,1,2,0:0:0:0:
282,208,108393,1,0,0:0:0:0:
282,208,108471,1,2,0:0:0:0:
282,208,108705,1,2,0:0:0:0:
282,208,108940,1,0,0:0:0:0:
278,210,109291,1,0,0:0:0:0:
278,210,109408,1,2,0:0:0:0:
278,210,109643,1,2,0:0:0:0:
278,210,109877,1,0,0:0:0:0:
278,210,109994,1,2,0:0:0:0:
278,210,110111,1,0,0:0:0:0:
278,210,110346,1,2,0:0:0:0:
277,210,110697,1,0,0:0:0:0:
277,210,110815,1,0,0:0:0:0:
277,210,111283,1,2,0:0:0:0:
277,210,111518,1,0,0:0:0:0:
277,210,111752,1,0,0:0:0:0:
277,210,111986,1,2,0:0:0:0:
277,210,112104,1,0,0:0:0:0:
277,210,112221,1,2,0:0:0:0:
277,210,112455,1,2,0:0:0:0:
277,210,112690,1,0,0:0:0:0:
277,210,113041,1,0,0:0:0:0:
277,210,113158,1,2,0:0:0:0:
277,210,113393,1,2,0:0:0:0:
277,210,113627,1,0,0:0:0:0:
277,210,113744,1,2,0:0:0:0:
277,210,113861,1,0,0:0:0:0:
277,210,114096,1,2,0:0:0:0:
277,210,114565,1,0,0:0:0:0:
277,210,114799,1,0,0:0:0:0:
277,210,115033,1,2,0:0:0:0:
277,210,115502,1,0,0:0:0:0:
262,198,115736,1,0,0:0:0:0:
262,198,115815,1,0,0:0:0:0:
262,198,115893,1,0,0:0:0:0:
262,198,115971,1,2,0:0:0:0:
250,186,116205,1,2,0:0:0:0:
251,186,116440,1,0,0:0:0:0:
238,198,116791,1,0,0:0:0:0:
238,198,116908,1,2,0:0:0:0:
238,198,117143,1,2,0:0:0:0:
238,198,117377,1,0,0:0:0:0:
238,198,117494,1,2,0:0:0:0:
238,198,117611,1,0,0:0:0:0:
225,197,117846,1,2,0:0:0:0:
225,197,118197,1,2,0:0:0:0:
225,197,118315,1,0,0:0:0:0:
227,199,118783,1,2,0:0:0:0:
227,199,119135,1,0,0:0:0:0:
227,199,119252,1,2,0:0:0:0:
201,213,119408,1,2,0:0:0:0:
227,208,119565,1,0,0:0:0:0:
227,208,119721,1,2,0:0:0:0:
227,208,119877,1,2,0:0:0:0:
227,208,120033,1,2,0:0:0:0:
227,208,120190,1,0,0:0:0:0:
255,182,120893,1,2,0:0:0:0:
255,182,121127,1,0,0:0:0:0:
253,180,121830,1,2,0:0:0:0:
253,180,122065,1,0,0:0:0:0:
253,180,122768,1,2,0:0:0:0:
253,180,123002,1,0,0:0:0:0:
253,180,123236,1,2,0:0:0:0:
253,180,123471,1,0,0:0:0:0:
253,180,123705,1,2,0:0:0:0:
253,180,123940,1,0,0:0:0:0:
281,198,124643,1,2,0:0:0:0:
281,198,124877,1,0,0:0:0:0:
281,198,125580,1,2,0:0:0:0:
281,198,125815,1,0,0:0:0:0:
281,198,126518,1,0,0:0:0:0:
281,198,126752,1,2,0:0:0:0:
281,198,126986,1,2,0:0:0:0:
281,198,127221,1,0,0:0:0:0:
281,198,127455,1,2,0:0:0:0:
281,198,127690,1,2,0:0:0:0:
281,198,127924,1,0,0:0:0:0:
281,198,128158,1,2,0:0:0:0:
272,204,128861,1,2,0:0:0:0:
265,203,130268,1,0,0:0:0:0:
265,203,130502,1,2,0:0:0:0:
265,203,130736,1,2,0:0:0:0:
265,203,130971,1,0,0:0:0:0:
265,203,131205,1,0,0:0:0:0:
265,203,131440,1,2,0:0:0:0:
265,203,131674,1,0,0:0:0:0:
265,203,131908,1,2,0:0:0:0:
265,203,132611,1,0,0:0:0:0:
265,201,134135,1,0,0:0:0:0:
265,201,134252,1,2,0:0:0:0:
250,199,134408,1,0,0:0:0:0:
250,199,134565,1,0,0:0:0:0:
250,199,134721,1,2,0:0:0:0:
250,199,134877,1,0,0:0:0:0:
250,199,135033,1,2,0:0:0:0:
250,199,135190,1,0,0:0:0:0:
215,208,135658,1,0,0:0:0:0:
239,207,135893,1,2,0:0:0:0:
239,207,136127,1,0,0:0:0:0:
258,201,136596,1,0,0:0:0:0:
258,201,136830,1,2,0:0:0:0:
258,201,137065,1,0,0:0:0:0:
258,201,137533,1,0,0:0:0:0:
258,201,137768,1,2,0:0:0:0:
258,201,138002,1,0,0:0:0:0:
258,201,138236,1,2,0:0:0:0:
258,201,138471,1,0,0:0:0:0:
258,201,138705,1,2,0:0:0:0:
258,201,138940,1,0,0:0:0:0:
265,204,139408,1,0,0:0:0:0:
265,204,139643,1,2,0:0:0:0:
267,205,139877,1,0,0:0:0:0:
267,205,140346,1,0,0:0:0:0:
267,205,140580,1,2,0:0:0:0:
267,205,140815,1,0,0:0:0:0:
267,205,141283,1,0,0:0:0:0:
267,205,141518,1,0,0:0:0:0:
267,205,141752,1,2,0:0:0:0:
267,205,141986,1,2,0:0:0:0:
267,205,142221,1,0,0:0:0:0:
267,205,142455,1,2,0:0:0:0:
267,205,142690,1,2,0:0:0:0:
267,205,142924,1,0,0:0:0:0:
267,205,143158,1,2,0:0:0:0:
272,220,143627,1,0,0:0:0:0:
273,219,144096,1,0,0:0:0:0:
273,219,144330,1,2,0:0:0:0:
273,219,144565,1,0,0:0:0:0:
273,219,145033,1,0,0:0:0:0:
273,219,145268,1,2,0:0:0:0:
273,219,145502,1,0,0:0:0:0:
273,219,145736,1,2,0:0:0:0:
273,219,145971,1,0,0:0:0:0:
273,219,146205,1,0,0:0:0:0:
273,219,146440,1,2,0:0:0:0:
273,219,146674,1,0,0:0:0:0:
273,219,146908,1,2,0:0:0:0:
273,219,147377,1,2,0:0:0:0:
273,219,147846,1,0,0:0:0:0:
273,219,148080,1,2,0:0:0:0:
273,219,148315,1,0,0:0:0:0:
273,219,148549,1,0,0:0:0:0:
278,213,148783,1,0,0:0:0:0:
278,213,149018,1,0,0:0:0:0:
278,213,149252,1,0,0:0:0:0:
278,213,149486,1,0,0:0:0:0:
278,213,149721,1,0,0:0:0:0:
278,213,149955,1,2,0:0:0:0:
278,213,150190,1,2,0:0:0:0:
281,215,152065,1,4,0:0:0:0:
281,215,152416,1,0,0:0:0:0:
281,215,152533,1,2,0:0:0:0:
281,215,152768,1,2,0:0:0:0:
282,210,153002,1,0,0:0:0:0:
282,210,153119,1,2,0:0:0:0:
282,210,153236,1,0,0:0:0:0:
282,210,153471,1,2,0:0:0:0:
284,205,153705,1,0,0:0:0:0:
282,208,153940,1,0,0:0:0:0:
282,208,154174,1,0,0:0:0:0:
282,208,154408,1,2,0:0:0:0:
282,208,154877,1,0,0:0:0:0:
282,208,155111,1,2,0:0:0:0:
282,208,155190,1,2,0:0:0:0:
282,208,155268,1,0,0:0:0:0:
282,208,155346,1,2,0:0:0:0:
282,208,155580,1,2,0:0:0:0:
282,208,155815,1,0,0:0:0:0:
278,210,156166,1,0,0:0:0:0:
278,210,156283,1,2,0:0:0:0:
278,210,156518,1,2,0:0:0:0:
278,210,156752,1,0,0:0:0:0:
278,210,156869,1,2,0:0:0:0:
278,210,156986,1,0,0:0:0:0:
278,210,157221,1,2,0:0:0:0:
277,210,157572,1,0,0:0:0:0:
277,210,157690,1,2,0:0:0:0:
261,212,157846,1,0,0:0:0:0:
261,212,158002,1,0,0:0:0:0:
277,210,158158,1,2,0:0:0:0:
261,212,158315,1,0,0:0:0:0:
277,210,158471,1,2,0:0:0:0:
277,210,158627,1,2,0:0:0:0:
277,210,158861,1,2,0:0:0:0:
277,210,158979,1,0,0:0:0:0:
277,210,159096,1,2,0:0:0:0:
277,210,159330,1,2,0:0:0:0:
277,210,159565,1,0,0:0:0:0:
277,210,159916,1,0,0:0:0:0:
277,210,160033,1,2,0:0:0:0:
277,210,160268,1,2,0:0:0:0:
277,210,160502,1,0,0:0:0:0:
277,210,160619,1,2,0:0:0:0:
277,210,160736,1,0,0:0:0:0:
277,210,160971,1,2,0:0:0:0:
284,204,161205,1,2,0:0:0:0:
277,210,161440,1,0,0:0:0:0:
277,210,161674,1,0,0:0:0:0:
277,210,161908,1,2,0:0:0:0:
277,210,162377,1,0,0:0:0:0:
262,198,162611,1,0,0:0:0:0:
262,198,162690,1,0,0:0:0:0:
262,198,162768,1,0,0:0:0:0:
262,198,162846,1,2,0:0:0:0:
250,186,163080,1,2,0:0:0:0:
251,186,163315,1,0,0:0:0:0:
238,198,163666,1,0,0:0:0:0:
238,198,163783,1,2,0:0:0:0:
238,198,164018,1,2,0:0:0:0:
238,198,164252,1,0,0:0:0:0:
238,198,164369,1,2,0:0:0:0:
238,198,164486,1,0,0:0:0:0:
225,197,164721,1,2,0:0:0:0:
234,195,164955,1,0,0:0:0:0:
225,197,165072,1,2,0:0:0:0:
225,197,165190,1,0,0:0:0:0:
234,195,165424,1,0,0:0:0:0:
227,199,165658,1,2,0:0:0:0:
234,195,165893,1,0,0:0:0:0:
227,199,166010,1,0,0:0:0:0:
227,199,166127,1,2,0:0:0:0:
201,213,166283,1,2,0:0:0:0:
227,208,166440,1,0,0:0:0:0:
227,208,166596,1,2,0:0:0:0:
227,208,166752,1,2,0:0:0:0:
227,208,166908,1,2,0:0:0:0:
227,208,167065,1,4,0:0:0:0:
286,183,167533,1,0,0:0:0:0:
286,183,167768,1,2,0:0:0:0:
285,179,168119,1,0,0:0:0:0:
265,174,168354,1,0,0:0:0:0:
265,174,168471,1,2,0:0:0:0:
265,174,168822,1,0,0:0:0:0:
284,189,169174,1,0,0:0:0:0:
284,189,169408,1,2,0:0:0:0:
284,189,169643,1,0,0:0:0:0:
284,189,169877,1,0,0:0:0:0:
284,189,170111,1,2,0:0:0:0:
284,189,170229,1,0,0:0:0:0:
284,189,170346,1,2,0:0:0:0:
299,203,170502,1,0,0:0:0:0:
299,203,170658,1,2,0:0:0:0:
299,203,170815,1,0,0:0:0:0:
293,203,171166,1,0,0:0:0:0:
299,203,171283,1,2,0:0:0:0:
294,198,171518,1,2,0:0:0:0:
294,198,171869,1,0,0:0:0:0:
255,184,172221,1,0,0:0:0:0:
256,184,172572,1,2,0:0:0:0:
256,184,172690,1,0,0:0:0:0:
256,184,172924,1,0,0:0:0:0:
256,184,173158,1,0,0:0:0:0:
256,184,173275,1,2,0:0:0:0:
256,184,173510,1,0,0:0:0:0:
256,184,173627,1,2,0:0:0:0:
246,215,173783,1,2,0:0:0:0:
246,215,173940,1,0,0:0:0:0:
246,215,174096,1,2,0:0:0:0:
246,215,174252,1,0,0:0:0:0:
246,215,174408,1,0,0:0:0:0:
246,215,174565,1,2,0:0:0:0:
261,185,174799,1,2,0:0:0:0:
261,185,174916,1,2,0:0:0:0:
261,185,175033,1,0,0:0:0:0:
261,185,175268,1,2,0:0:0:0:
261,185,175502,1,0,0:0:0:0:
261,185,175854,1,0,0:0:0:0:
261,185,175971,1,2,0:0:0:0:
261,185,176322,1,0,0:0:0:0:
256,186,176674,1,2,0:0:0:0:
256,186,177025,1,0,0:0:0:0:
256,186,177377,1,0,0:0:0:0:
256,186,177611,1,0,0:0:0:0:
256,186,177729,1,0,0:0:0:0:
256,186,177846,1,2,0:0:0:0:
258,199,178315,1,0,0:0:0:0:
258,199,178666,1,0,0:0:0:0:
258,199,178783,1,2,0:0:0:0:
258,199,179018,1,2,0:0:0:0:
258,199,179369,1,0,0:0:0:0:
258,199,179721,1,0,0:0:0:0:
258,199,180072,1,0,0:0:0:0:
258,199,180190,1,0,0:0:0:0:
258,199,180424,1,2,0:0:0:0:
258,199,180775,1,0,0:0:0:0:
227,199,181127,1,2,0:0:0:0:
201,213,181283,1,0,0:0:0:0:
227,208,181440,1,0,0:0:0:0:
227,208,181596,1,2,0:0:0:0:
227,208,181752,1,0,0:0:0:0:
227,208,181908,1,2,0:0:0:0:
269,187,182065,1,0,0:0:0:0:
287,204,182299,1,2,0:0:0:0:
263,208,182533,1,0,0:0:0:0:
287,204,182768,1,2,0:0:0:0:
287,204,183002,1,0,0:0:0:0:
291,204,183236,1,0,0:0:0:0:
244,196,183471,1,2,0:0:0:0:
276,193,184408,1,2,0:0:0:0:
272,195,185111,1,2,0:0:0:0:
274,199,185229,1,2,0:0:0:0:
272,195,185346,1,0,0:0:0:0:
275,199,185580,1,0,0:0:0:0:
275,199,185815,1,2,0:0:0:0:
248,195,186049,1,0,0:0:0:0:
248,195,186283,1,0,0:0:0:0:
248,195,186518,1,0,0:0:0:0:
248,195,186752,1,2,0:0:0:0:
248,195,186986,1,0,0:0:0:0:
251,194,187221,1,2,0:0:0:0:
