osu file format v14

[General]
AudioFilename: audio.mp3
AudioLeadIn: 0
PreviewTime: 20695
Countdown: 0
SampleSet: Soft
StackLeniency: 0.5
Mode: 0
LetterboxInBreaks: 0
WidescreenStoryboard: 1

[Editor]
Bookmarks: 21393,85393
DistanceSpacing: 1
BeatDivisor: 8
GridSize: 32
TimelineZoom: 1.099999

[Metadata]
Title:paranoia
TitleUnicode:paranoia
Artist:KENTENSHI
ArtistUnicode:KENTENSHI
Creator:SMOKELIND
Version:Mocaotic's normal
Source:
Tags:Breakcore Electronic Japanese Remix 椎名もた siinamota Young Girl A 少女A Mocaotic Stompy_ gazimal midorijeon chills
BeatmapID:4403970
BeatmapSetID:2099440

[Difficulty]
HPDrainRate:3
CircleSize:3.4
OverallDifficulty:4.5
ApproachRate:5.5
SliderMultiplier:1.1
SliderTickRate:1

[Events]
//Background and Video events
0,0,"BG.png",0,0
//Break Periods
//Storyboard Layer 0 (Background)
//Storyboard Layer 1 (Fail)
//Storyboard Layer 2 (Pass)
//Storyboard Layer 3 (Foreground)
//Storyboard Layer 4 (Overlay)
//Storyboard Sound Samples

[TimingPoints]
2727,333.333333333333,4,2,1,50,1,0
21393,-100,4,2,1,80,0,0
21893,-100,4,2,2,80,0,0
22060,-100,4,2,1,80,0,0
22726,-100,4,2,3,80,0,0
22893,-100,4,2,1,80,0,0
23393,-100,4,2,3,80,0,0
23560,-100,4,2,1,80,0,0
24060,-100,4,2,2,80,0,0
24226,-100,4,2,1,80,0,0
24560,-100,4,2,2,80,0,0
24726,-100,4,2,1,80,0,0
25393,-100,4,2,3,80,0,0
25560,-100,4,2,1,80,0,0
26060,-100,4,2,3,80,0,0
26226,-100,4,2,1,80,0,0
26726,-100,4,2,2,80,0,0
26893,-100,4,2,1,80,0,0
27226,-100,4,2,2,80,0,0
27393,-100,4,2,1,80,0,0
28060,-100,4,2,3,80,0,0
28226,-100,4,2,1,80,0,0
28726,-100,4,2,3,80,0,0
28893,-100,4,2,1,80,0,0
29393,-100,4,2,2,80,0,0
29560,-100,4,2,1,80,0,0
30060,-100,4,2,3,80,0,0
30226,-100,4,2,1,80,0,0
30726,-100,4,2,2,80,0,0
30893,-100,4,2,1,80,0,0
31393,-100,4,2,3,80,0,0
31560,-100,4,2,1,80,0,0
32060,-100,4,2,2,80,0,0
32226,-100,4,2,3,80,0,0
32393,-100,4,2,1,80,0,0
32560,-100,4,2,2,80,0,0
32726,-100,4,2,3,80,0,0
32893,-100,4,2,1,80,0,0
33060,-100,4,2,2,80,0,0
33226,-100,4,2,3,80,0,0
33393,-100,4,2,1,80,0,0
33560,-100,4,2,2,80,0,0
33726,-100,4,2,3,80,0,0
33893,-100,4,2,1,80,0,0
34060,-100,4,2,2,80,0,0
34226,-100,4,2,3,80,0,0
34393,-100,4,2,1,80,0,0
34726,-100,4,2,2,80,0,0
34893,-100,4,2,3,80,0,0
35060,-100,4,2,1,80,0,0
35226,-100,4,2,2,80,0,0
35393,-100,4,2,3,80,0,0
35560,-100,4,2,1,80,0,0
35726,-100,4,2,2,80,0,0
35893,-100,4,2,3,80,0,0
36060,-100,4,2,1,80,0,0
36226,-100,4,2,2,80,0,0
36393,-100,4,2,3,80,0,0
36560,-100,4,2,1,80,0,0
36726,-100,4,2,2,80,0,0
36893,-100,4,2,3,80,0,0
37060,-100,4,2,1,80,0,0
37393,-100,4,2,2,80,0,0
37560,-100,4,2,3,80,0,0
37726,-100,4,2,1,80,0,0
37893,-100,4,2,2,80,0,0
38060,-100,4,2,3,80,0,0
38226,-100,4,2,1,80,0,0
38393,-100,4,2,2,80,0,0
38560,-100,4,2,3,80,0,0
38726,-100,4,2,1,80,0,0
38893,-100,4,2,2,80,0,0
39060,-100,4,2,3,80,0,0
39226,-100,4,2,1,80,0,0
39393,-100,4,2,2,80,0,0
39560,-100,4,2,1,80,0,0
39726,-100,4,2,3,80,0,0
39893,-100,4,2,1,80,0,0
40060,-100,4,2,2,80,0,0
40226,-100,4,2,1,80,0,0
40726,-100,4,2,3,80,0,0
40893,-100,4,2,1,80,0,0
41060,-100,4,2,3,80,0,0
41226,-100,4,2,1,80,0,0
41393,-100,4,2,3,80,0,0
41560,-100,4,2,1,80,0,0
42060,-100,4,2,3,80,0,0
42226,-100,4,2,1,80,0,0
42393,-100,4,2,3,80,0,0
42560,-100,4,2,1,80,0,0
43226,-100,4,2,2,80,0,0
43393,-100,4,2,1,80,0,0
44060,-100,4,2,3,80,0,0
44226,-100,4,2,1,80,0,0
44726,-100,4,2,3,80,0,0
44893,-100,4,2,1,80,0,0
45393,-100,4,2,2,80,0,0
45560,-100,4,2,1,80,0,0
45893,-100,4,2,2,80,0,0
46060,-100,4,2,1,80,0,0
46726,-100,4,2,3,80,0,0
46893,-100,4,2,1,80,0,0
47393,-100,4,2,3,80,0,0
47560,-100,4,2,1,80,0,0
48060,-100,4,2,2,80,0,0
48226,-100,4,2,1,80,0,0
48560,-100,4,2,2,80,0,0
48726,-100,4,2,1,80,0,0
49393,-100,4,2,3,80,0,0
49560,-100,4,2,1,80,0,0
50060,-100,4,2,3,80,0,0
50226,-100,4,2,1,80,0,0
50726,-100,4,2,2,80,0,0
50893,-100,4,2,1,80,0,0
51393,-100,4,2,3,80,0,0
51560,-100,4,2,1,80,0,0
52060,-100,4,2,2,80,0,0
52226,-100,4,2,1,80,0,0
52726,-100,4,2,3,80,0,0
52893,-100,4,2,1,80,0,0
53393,-100,4,2,2,80,0,0
53560,-100,4,2,3,80,0,0
53726,-100,4,2,1,80,0,0
53893,-100,4,2,2,80,0,0
54060,-100,4,2,3,80,0,0
54226,-100,4,2,1,80,0,0
54393,-100,4,2,2,80,0,0
54560,-100,4,2,3,80,0,0
54726,-100,4,2,1,80,0,0
54893,-100,4,2,2,80,0,0
55060,-100,4,2,3,80,0,0
55226,-100,4,2,1,80,0,0
55393,-100,4,2,2,80,0,0
55560,-100,4,2,3,80,0,0
55726,-100,4,2,1,80,0,0
56060,-100,4,2,2,80,0,0
56226,-100,4,2,3,80,0,0
56393,-100,4,2,1,80,0,0
56560,-100,4,2,2,80,0,0
56726,-100,4,2,3,80,0,0
56893,-100,4,2,1,80,0,0
57060,-100,4,2,2,80,0,0
57226,-100,4,2,3,80,0,0
57393,-100,4,2,1,80,0,0
57560,-100,4,2,2,80,0,0
57726,-100,4,2,3,80,0,0
57893,-100,4,2,1,80,0,0
58060,-100,4,2,2,80,0,0
58226,-100,4,2,3,80,0,0
58393,-100,4,2,1,80,0,0
58726,-100,4,2,2,80,0,0
58893,-100,4,2,3,80,0,0
59060,-100,4,2,1,80,0,0
59226,-100,4,2,2,80,0,0
59393,-100,4,2,3,80,0,0
59560,-100,4,2,1,80,0,0
59726,-100,4,2,2,80,0,0
59893,-100,4,2,3,80,0,0
60060,-100,4,2,1,80,0,0
60226,-100,4,2,2,80,0,0
60393,-100,4,2,3,80,0,0
60560,-100,4,2,1,80,0,0
60726,-100,4,2,2,80,0,0
60893,-100,4,2,1,80,0,0
61060,-100,4,2,3,80,0,0
61226,-100,4,2,1,80,0,0
61393,-100,4,2,2,80,0,0
61560,-100,4,2,1,80,0,0
62060,-100,4,2,3,80,0,0
62226,-100,4,2,1,80,0,0
62393,-100,4,2,3,80,0,0
62560,-100,4,2,1,80,0,0
62726,-100,4,2,3,80,0,0
62893,-100,4,2,1,80,0,0
63393,-100,4,2,3,80,0,0
63560,-100,4,2,1,80,0,0
63726,-100,4,2,3,80,0,0
63893,-100,4,2,1,80,0,0
64060,-111.111111111111,4,2,4,60,0,0
64393,-111.111111111111,4,2,1,60,0,0
64726,-111.111111111111,4,2,4,60,0,0
65060,-111.111111111111,4,2,1,60,0,0
65393,-111.111111111111,4,2,4,60,0,0
65726,-111.111111111111,4,2,1,60,0,0
66060,-111.111111111111,4,2,4,60,0,0
66393,-111.111111111111,4,2,1,60,0,0
66726,-111.111111111111,4,2,4,60,0,0
67060,-111.111111111111,4,2,1,60,0,0
67393,-111.111111111111,4,2,4,60,0,0
67726,-111.111111111111,4,2,1,60,0,0
68060,-111.111111111111,4,2,4,60,0,0
68393,-111.111111111111,4,2,1,60,0,0
68726,-111.111111111111,4,2,4,60,0,0
69060,-111.111111111111,4,2,1,60,0,0
69393,-111.111111111111,4,2,4,60,0,0
69726,-111.111111111111,4,2,1,60,0,0
70060,-111.111111111111,4,2,4,60,0,0
70393,-111.111111111111,4,2,1,60,0,0
70726,-111.111111111111,4,2,4,60,0,0
71060,-111.111111111111,4,2,1,60,0,0
71393,-111.111111111111,4,2,4,60,0,0
71726,-111.111111111111,4,2,1,60,0,0
72060,-111.111111111111,4,2,4,60,0,0
72393,-111.111111111111,4,2,1,60,0,0
72726,-111.111111111111,4,2,4,60,0,0
73060,-111.111111111111,4,2,1,60,0,0
73226,-111.111111111111,4,2,4,60,0,0
73726,-111.111111111111,4,2,1,60,0,0
73893,-111.111111111111,4,2,4,60,0,0
74393,-111.111111111111,4,2,1,60,0,0
74726,-111.111111111111,4,2,4,60,0,0
75060,-111.111111111111,4,2,2,60,0,0
75393,-111.111111111111,4,2,4,60,0,0
75726,-111.111111111111,4,2,2,60,0,0
76060,-111.111111111111,4,2,4,60,0,0
76393,-111.111111111111,4,2,1,60,0,0
76560,-111.111111111111,4,2,4,60,0,0
77060,-111.111111111111,4,2,1,60,0,0
77393,-111.111111111111,4,2,4,60,0,0
77726,-111.111111111111,4,2,2,60,0,0
78060,-111.111111111111,4,2,4,60,0,0
78393,-111.111111111111,4,2,2,60,0,0
78726,-111.111111111111,4,2,4,60,0,0
79060,-111.111111111111,4,2,1,60,0,0
79226,-111.111111111111,4,2,4,60,0,0
79726,-111.111111111111,4,2,1,60,0,0
80060,-111.111111111111,4,2,4,60,0,0
80560,-111.111111111111,4,2,2,60,0,0
80726,-111.111111111111,4,2,4,60,0,0
81560,-111.111111111111,4,2,2,60,0,0
81726,-111.111111111111,4,2,4,60,0,0
84060,-111.111111111111,4,2,5,60,0,0
84171,-111.111111111111,4,2,2,60,0,0
84226,-111.111111111111,4,2,4,60,0,0
84282,-111.111111111111,4,2,2,60,0,0
84393,-111.111111111111,4,2,6,60,0,0
84504,-111.111111111111,4,2,2,60,0,0
84560,-111.111111111111,4,2,4,60,0,0
84615,-111.111111111111,4,2,2,60,0,0
84726,-111.111111111111,4,2,5,60,0,0
84838,-111.111111111111,4,2,2,60,0,0
84893,-111.111111111111,4,2,4,60,0,0
84949,-111.111111111111,4,2,2,60,0,0
85060,-111.111111111111,4,2,5,60,0,0
85171,-111.111111111111,4,2,2,60,0,0
85393,-111.111111111111,4,2,1,70,0,0

[Colours]
Combo1 : 128,128,128
Combo2 : 223,223,223

[HitObjects]
11,302,21393,6,0,P|74:317|120:338,1,110,6|10,1:1|0:0,0:0:0:0:
153,374,21893,2,0,P|231:367|250:339,1,110,6|10,1:2|0:0,0:0:0:0:
286,308,22393,2,0,P|293:267|302:237,1,54.9999999999999,2|2,0:3|1:3,0:0:0:0:
311,201,22726,1,2,1:2:0:0:
226,130,23060,2,0,P|233:89|242:59,1,54.9999999999999,10|10,0:0|0:0,0:0:0:0:
254,23,23393,1,2,1:2:0:0:
361,0,23726,1,2,1:3:0:0:
447,76,24060,5,6,1:2:0:0:
447,76,24226,2,0,P|434:133|430:165,1,55,10|10,0:0|0:0,0:0:0:0:
464,176,24560,2,0,P|427:234|374:236,1,110,6|2,1:2|1:3,0:0:0:0:
335,235,25060,1,10,0:0:0:0:
264,319,25393,2,0,P|237:311|210:305,1,54.9999999999999,2|2,1:2|1:3,0:0:0:0:
160,327,25726,2,0,P|150:371|135:410,2,54.9999999999999,10|2|2,0:0|1:3|1:2,0:0:0:0:
121,288,26226,1,10,0:0:0:0:
29,236,26560,1,10,0:0:0:0:
29,236,26726,6,0,P|42:183|53:126,1,110,6|10,1:2|0:0,0:0:0:0:
86,85,27226,2,0,P|150:75|188:106,1,110,6|10,1:2|0:0,0:0:0:0:
217,143,27726,1,2,1:3:0:0:
270,239,28060,2,0,P|307:245|336:252,2,55,2|2|10,1:2|1:3|0:0,0:0:0:0:
227,272,28560,1,2,0:3:0:0:
227,272,28726,2,0,P|190:264|172:262,2,55,2|2|10,0:0|1:3|0:0,0:0:0:0:
291,361,29393,6,0,P|319:365|345:370,1,55,6|2,1:2|1:3,0:0:0:0:
398,384,29726,1,10,0:0:0:0:
458,292,30060,2,0,P|486:299|514:304,2,55,2|2|10,0:0|1:3|0:0,0:0:0:0:
429,185,30726,2,0,P|395:179|373:174,1,55,6|2,1:2|1:3,0:0:0:0:
321,161,31059,1,10,0:0:0:0:
260,70,31393,2,0,P|228:63|205:60,2,55,2|2|10,0:0|1:3|0:0,0:0:0:0:
308,41,31893,1,10,0:0:0:0:
308,41,32060,6,0,P|366:15|423:30,1,110,6|10,1:2|0:0,0:0:0:0:
454,55,32560,2,0,P|468:136|474:190,1,110,6|10,1:2|0:0,0:0:0:0:
501,209,33060,1,6,1:2:0:0:
439,301,33393,1,10,0:0:0:0:
439,301,33560,2,0,P|384:308|330:318,1,110,6|10,1:2|0:0,0:0:0:0:
283,347,34060,2,0,P|233:355|217:360,1,55,6|2,1:2|1:2,0:0:0:0:
179,381,34393,1,10,0:0:0:0:
73,349,34726,6,0,P|47:285|76:234,1,110,6|10,1:2|0:0,0:0:0:0:
103,215,35226,2,0,P|157:207|211:197,1,110,6|10,1:2|0:0,0:0:0:0:
264,211,35726,1,6,1:2:0:0:
350,141,36060,1,10,0:0:0:0:
350,141,36226,2,0,P|363:88|337:41,1,110,6|10,1:2|0:0,0:0:0:0:
287,17,36726,1,6,1:2:0:0:
180,44,37060,2,0,P|146:40|106:36,1,55,10|10,0:0|0:0,0:0:0:0:
71,51,37393,6,0,P|44:95|70:159,1,110,6|10,1:2|0:0,0:0:0:0:
99,185,37893,2,0,P|173:174|231:170,1,110,6|10,1:2|0:0,0:0:0:0:
260,189,38393,1,6,1:2:0:0:
339,113,38726,1,10,0:0:0:0:
339,113,38893,2,0,P|377:109|457:98,1,110,6|10,1:2|0:0,0:0:0:0:
494,128,39393,2,0,P|504:192|507:206,1,55,6|2,1:2|1:3,0:0:0:0:
475,230,39726,1,10,0:0:0:0:
407,316,40060,6,0,P|379:319|352:323,1,55,6|2,1:2|1:3,0:0:0:0:
298,333,40393,1,10,0:0:0:0:
214,262,40726,2,0,P|186:265|159:269,2,55,2|2|10,0:0|1:3|0:0,0:0:0:0:
280,174,41393,2,0,P|307:170|334:166,1,55,2|2,1:2|1:3,0:0:0:0:
389,157,41726,1,10,0:0:0:0:
456,69,42060,2,0,P|483:65|510:61,2,55,2|2|10,0:0|1:3|0:0,0:0:0:0:
368,3,42726,6,0,P|313:9|259:16,1,110,6|10,1:1|0:0,0:0:0:0:
212,46,43226,2,0,P|210:122|236:147,1,110,6|10,1:2|0:0,0:0:0:0:
266,184,43726,2,0,P|259:210|255:237,1,54.9999999999999,2|2,0:3|1:3,0:0:0:0:
265,292,44059,1,2,1:2:0:0:
189,372,44393,2,0,P|162:365|135:361,1,54.9999999999999,10|10,0:0|0:0,0:0:0:0:
80,355,44726,1,2,1:2:0:0:
6,272,45059,1,2,1:3:0:0:
103,217,45393,5,6,1:2:0:0:
103,217,45560,2,0,P|160:230|192:234,1,55,10|10,0:0|0:0,0:0:0:0:
199,264,45893,2,0,P|262:275|304:238,1,110,6|2,1:2|1:3,0:0:0:0:
328,204,46393,1,10,0:0:0:0:
288,101,46726,2,0,P|261:93|234:88,1,55,2|2,1:2|1:3,0:0:0:0:
191,53,47060,2,0,P|198:26|203:0,2,55,10|2|2,0:0|1:3|1:2,0:0:0:0:
137,65,47559,1,10,0:0:0:0:
44,121,47893,1,2,1:3:0:0:
44,121,48059,6,0,P|57:174|68:231,1,110,6|10,1:2|0:0,0:0:0:0:
110,262,48559,2,0,P|172:272|215:239,1,110,6|10,1:2|0:0,0:0:0:0:
251,212,49059,1,2,1:3:0:0:
348,160,49393,2,0,P|341:132|335:94,2,55,2|2|10,1:2|1:3|0:0,0:0:0:0:
400,190,49893,1,2,0:3:0:0:
400,190,50060,2,0,P|428:183|466:177,2,55,2|2|10,0:0|1:3|0:0,0:0:0:0:
378,297,50726,6,0,P|350:301|324:308,1,55,6|2,1:2|1:3,0:0:0:0:
271,323,51059,1,10,0:0:0:0:
179,261,51393,2,0,P|151:265|125:272,2,55,2|2|10,0:0|1:3|0:0,0:0:0:0:
245,173,52060,2,0,P|272:168|298:161,1,55,6|2,1:2|1:3,0:0:0:0:
352,147,52393,1,10,0:0:0:0:
405,51,52726,2,0,P|432:47|459:41,2,55,2|2|10,0:0|1:3|0:0,0:0:0:0:
366,19,53226,1,10,0:0:0:0:
366,19,53393,6,0,P|306:-9|255:8,1,110,6|10,1:2|0:0,0:0:0:0:
222,34,53893,2,0,P|232:87|239:142,1,110,6|10,1:2|0:0,0:0:0:0:
263,192,54393,1,6,1:2:0:0:
171,250,54726,1,10,0:0:0:0:
171,250,54893,2,0,P|116:257|62:267,1,110,6|10,1:2|0:0,0:0:0:0:
13,241,55393,2,0,P|5:191|0:175,1,55,6|2,1:2|1:2,0:0:0:0:
24,135,55726,1,10,0:0:0:0:
91,48,56059,6,0,P|151:19|207:38,1,110,6|10,1:2|0:0,0:0:0:0:
236,58,56559,2,0,P|244:112|254:166,1,110,6|10,1:2|0:0,0:0:0:0:
232,216,57059,1,6,1:2:0:0:
287,317,57393,1,10,0:0:0:0:
287,317,57560,2,0,P|341:325|395:335,1,110,6|10,1:2|0:0,0:0:0:0:
442,362,58060,1,6,1:2:0:0:
506,272,58393,2,0,P|510:240|516:215,1,55,10|10,0:0|0:0,0:0:0:0:
485,171,58726,6,0,P|438:142|374:158,1,110,6|10,1:2|0:0,0:0:0:0:
339,180,59226,2,0,P|284:169|230:161,1,110,6|10,1:2|0:0,0:0:0:0:
180,185,59726,1,6,1:2:0:0:
80,152,60059,1,10,0:0:0:0:
80,152,60226,2,0,P|57:101|85:38,1,110,6|10,1:2|0:0,0:0:0:0:
117,19,60726,2,0,P|181:8|195:5,1,55,6|2,1:2|1:3,0:0:0:0:
225,20,61059,1,10,0:0:0:0:
329,55,61393,6,0,P|332:82|336:109,1,55,6|2,1:2|1:3,0:0:0:0:
345,163,61726,1,10,0:0:0:0:
431,230,62059,2,0,P|458:225|485:222,2,55,10|2|10,0:0|1:3|0:0,0:0:0:0:
369,321,62726,2,0,P|341:324|314:328,1,55,2|2,1:2|1:3,0:0:0:0:
271,364,63060,2,0,P|214:372|170:332,1,110,10|2,0:0|1:2,0:0:0:0:
149,298,63560,1,10,0:0:0:0:
149,298,63726,1,2,0:0:0:0:
51,248,64060,6,0,P|38:163|15:37,3,197.99999395752,6|2|2|2,1:1|1:1|1:1|1:1,0:0:0:0:
213,21,66726,2,0,P|230:118|245:216,3,197.99999395752,2|2|2|2,1:1|1:1|1:1|1:1,0:0:0:0:
443,195,69393,2,0,P|427:97|410:0,3,197.99999395752,2|2|2|2,1:1|1:1|1:1|1:1,0:0:0:0:
410,0,72060,2,0,P|360:9|304:15,1,98.9999969787599,2|8,1:1|0:1,0:0:0:0:
245,87,72726,2,0,P|254:137|260:193,1,98.9999969787599,2|8,1:1|0:1,0:0:0:0:
197,262,73393,2,0,P|147:267|99:276,1,98.9999969787599,2|8,1:1|0:1,0:0:0:0:
26,344,74060,1,2,1:1:0:0:
26,344,74726,6,0,P|48:293|116:333,1,148.49999546814,6|2,1:1|0:1,0:0:0:0:
249,303,75726,2,0,P|271:252|339:292,1,148.49999546814,10|2,0:1|1:1,0:0:0:0:
474,258,76726,1,2,1:1:0:0:
474,258,77393,2,0,P|452:207|384:247,1,148.49999546814,6|2,1:1|0:1,0:0:0:0:
251,217,78393,2,0,P|229:166|161:206,1,148.49999546814,10|2,0:1|1:1,0:0:0:0:
26,172,79393,1,2,1:1:0:0:
26,172,80060,6,0,P|48:121|93:115,1,98.9999969787599,6|2,1:1|0:1,0:0:0:0:
119,150,80560,2,0,L|172:165,1,49.4999984893799,2|0,0:0|1:0,0:0:0:0:
259,128,81060,2,0,P|281:77|325:78,1,98.9999969787599,10|2,1:1|0:1,0:0:0:0:
350,112,81560,2,0,L|402:126,1,49.4999984893799,2|8,0:1|1:1,0:0:0:0:
495,297,82393,1,10,1:1:0:0:
416,353,82726,6,0,P|357:336|298:328,1,98.9999969787599,2|8,1:1|1:1,0:0:0:0:
234,280,83393,1,2,1:1:0:0:
160,346,83726,1,10,1:1:0:0:
68,307,84060,2,0,P|59:258|44:210,1,98.9999969787599,2|10,1:1|1:1,0:0:0:0:
6,119,84726,1,2,1:1:0:0:
70,43,85060,1,10,1:1:0:0:
161,80,85393,1,6,3:1:0:0:
