osu file format v14

[General]
AudioFilename: audio.mp3
AudioLeadIn: 0
PreviewTime: 20695
Countdown: 0
SampleSet: Soft
StackLeniency: 0.7
Mode: 0
LetterboxInBreaks: 0
WidescreenStoryboard: 1

[Editor]
DistanceSpacing: 0.2
BeatDivisor: 8
GridSize: 32
TimelineZoom: 1.199999

[Metadata]
Title:paranoia
TitleUnicode:paranoia
Artist:KENTENSHI
ArtistUnicode:KENTENSHI
Creator:SMOKELIND
Version:Chills' insane
Source:
Tags:Breakcore Electronic Japanese Remix 椎名もた siinamota Young Girl A 少女A Mocaotic Stompy_ gazimal midorijeon chills
BeatmapID:4403969
BeatmapSetID:2099440

[Difficulty]
HPDrainRate:5
CircleSize:3.8
OverallDifficulty:7.7
ApproachRate:9
SliderMultiplier:1.69
SliderTickRate:1

[Events]
//Background and Video events
0,0,"BG.png",0,0
//Break Periods
//Storyboard Layer 0 (Background)
//Storyboard Layer 1 (Fail)
//Storyboard Layer 2 (Pass)
//Storyboard Layer 3 (Foreground)
//Storyboard Layer 4 (Overlay)
//Storyboard Sound Samples

[TimingPoints]
2727,333.333333333333,4,2,1,50,1,0
21393,-80,4,2,1,80,0,0
21893,-80,4,2,2,80,0,0
22060,-80,4,2,1,80,0,0
22726,-80,4,2,3,80,0,0
22893,-80,4,2,1,80,0,0
23393,-80,4,2,3,80,0,0
23560,-80,4,2,1,80,0,0
24060,-80,4,2,2,80,0,0
24226,-80,4,2,1,80,0,0
24560,-80,4,2,2,80,0,0
24726,-80,4,2,1,80,0,0
25393,-80,4,2,3,80,0,0
25560,-80,4,2,1,80,0,0
25893,-90.9090909090909,4,2,1,80,0,0
26060,-90.9090909090909,4,2,3,80,0,0
26226,-90.9090909090909,4,2,1,80,0,0
26726,-66.6666666666667,4,2,2,80,0,0
26893,-66.6666666666667,4,2,1,80,0,0
27226,-80,4,2,2,80,0,0
27393,-80,4,2,1,80,0,0
28060,-80,4,2,3,80,0,0
28226,-80,4,2,1,80,0,0
28726,-80,4,2,3,80,0,0
28893,-80,4,2,1,80,0,0
29393,-80,4,2,2,80,0,0
29560,-80,4,2,1,80,0,0
30060,-80,4,2,3,80,0,0
30226,-80,4,2,1,80,0,0
30726,-80,4,2,2,80,0,0
30893,-80,4,2,1,80,0,0
31393,-80,4,2,3,80,0,0
31560,-80,4,2,1,80,0,0
32060,-80,4,2,2,80,0,0
32226,-80,4,2,3,80,0,0
32393,-80,4,2,1,80,0,0
32560,-80,4,2,2,80,0,0
32726,-80,4,2,3,80,0,0
32893,-80,4,2,1,80,0,0
33060,-80,4,2,2,80,0,0
33226,-80,4,2,3,80,0,0
33393,-80,4,2,1,80,0,0
33560,-80,4,2,2,80,0,0
33726,-80,4,2,3,80,0,0
33893,-80,4,2,1,80,0,0
34060,-80,4,2,2,80,0,0
34226,-80,4,2,3,80,0,0
34393,-80,4,2,1,80,0,0
34726,-80,4,2,2,80,0,0
34893,-80,4,2,3,80,0,0
35060,-80,4,2,1,80,0,0
35226,-80,4,2,2,80,0,0
35393,-80,4,2,3,80,0,0
35560,-80,4,2,1,80,0,0
35726,-80,4,2,2,80,0,0
35893,-80,4,2,3,80,0,0
36060,-80,4,2,1,80,0,0
36226,-80,4,2,2,80,0,0
36393,-80,4,2,3,80,0,0
36560,-80,4,2,1,80,0,0
36726,-80,4,2,2,80,0,0
36893,-80,4,2,3,80,0,0
37060,-80,4,2,1,80,0,0
37393,-71.4285714285714,4,2,2,80,0,0
37560,-71.4285714285714,4,2,3,80,0,0
37726,-71.4285714285714,4,2,1,80,0,0
37893,-71.4285714285714,4,2,2,80,0,0
38060,-71.4285714285714,4,2,3,80,0,0
38226,-71.4285714285714,4,2,1,80,0,0
38393,-71.4285714285714,4,2,2,80,0,0
38560,-71.4285714285714,4,2,3,80,0,0
38726,-71.4285714285714,4,2,1,80,0,0
38893,-71.4285714285714,4,2,2,80,0,0
39060,-71.4285714285714,4,2,3,80,0,0
39226,-71.4285714285714,4,2,1,80,0,0
39393,-71.4285714285714,4,2,2,80,0,0
39560,-71.4285714285714,4,2,1,80,0,0
39726,-80,4,2,3,80,0,0
39893,-80,4,2,1,80,0,0
40060,-80,4,2,2,80,0,0
40226,-80,4,2,1,80,0,0
40726,-80,4,2,3,80,0,0
40893,-80,4,2,1,80,0,0
41060,-80,4,2,3,80,0,0
41226,-80,4,2,1,80,0,0
41393,-80,4,2,3,80,0,0
41560,-80,4,2,1,80,0,0
42060,-80,4,2,3,80,0,0
42226,-80,4,2,1,80,0,0
42393,-66.6666666666667,4,2,3,80,0,0
42560,-66.6666666666667,4,2,1,80,0,0
42726,-80,4,2,1,80,0,0
43226,-80,4,2,2,80,0,0
43393,-80,4,2,1,80,0,0
44060,-80,4,2,3,80,0,0
44226,-80,4,2,1,80,0,0
44726,-80,4,2,3,80,0,0
44893,-80,4,2,1,80,0,0
45393,-80,4,2,2,80,0,0
45560,-80,4,2,1,80,0,0
45893,-80,4,2,2,80,0,0
46060,-80,4,2,1,80,0,0
46726,-80,4,2,3,80,0,0
46893,-80,4,2,1,80,0,0
47226,-90.9090909090909,4,2,1,80,0,0
47393,-90.9090909090909,4,2,3,80,0,0
47560,-90.9090909090909,4,2,1,80,0,0
48060,-66.6666666666667,4,2,2,80,0,0
48226,-66.6666666666667,4,2,1,80,0,0
48560,-80,4,2,2,80,0,0
48726,-80,4,2,1,80,0,0
49393,-80,4,2,3,80,0,0
49560,-80,4,2,1,80,0,0
50060,-80,4,2,3,80,0,0
50226,-80,4,2,1,80,0,0
50726,-80,4,2,2,80,0,0
50893,-80,4,2,1,80,0,0
51393,-80,4,2,3,80,0,0
51560,-80,4,2,1,80,0,0
52060,-80,4,2,2,80,0,0
52226,-80,4,2,1,80,0,0
52726,-80,4,2,3,80,0,0
52893,-80,4,2,1,80,0,0
53393,-80,4,2,2,80,0,0
53560,-80,4,2,3,80,0,0
53726,-80,4,2,1,80,0,0
53893,-80,4,2,2,80,0,0
54060,-80,4,2,3,80,0,0
54226,-80,4,2,1,80,0,0
54393,-80,4,2,2,80,0,0
54560,-80,4,2,3,80,0,0
54726,-80,4,2,1,80,0,0
54893,-80,4,2,2,80,0,0
55060,-80,4,2,3,80,0,0
55226,-80,4,2,1,80,0,0
55393,-80,4,2,2,80,0,0
55560,-80,4,2,3,80,0,0
55726,-80,4,2,1,80,0,0
56060,-80,4,2,2,80,0,0
56226,-80,4,2,3,80,0,0
56393,-80,4,2,1,80,0,0
56560,-80,4,2,2,80,0,0
56726,-80,4,2,3,80,0,0
56893,-80,4,2,1,80,0,0
57060,-80,4,2,2,80,0,0
57226,-80,4,2,3,80,0,0
57393,-80,4,2,1,80,0,0
57560,-80,4,2,2,80,0,0
57726,-80,4,2,3,80,0,0
57893,-80,4,2,1,80,0,0
58060,-80,4,2,2,80,0,0
58226,-80,4,2,3,80,0,0
58393,-80,4,2,1,80,0,0
58726,-71.4285714285714,4,2,2,80,0,0
58893,-71.4285714285714,4,2,3,80,0,0
59060,-71.4285714285714,4,2,1,80,0,0
59226,-71.4285714285714,4,2,2,80,0,0
59393,-71.4285714285714,4,2,3,80,0,0
59560,-71.4285714285714,4,2,1,80,0,0
59726,-71.4285714285714,4,2,2,80,0,0
59893,-71.4285714285714,4,2,3,80,0,0
60060,-71.4285714285714,4,2,1,80,0,0
60226,-71.4285714285714,4,2,2,80,0,0
60393,-71.4285714285714,4,2,3,80,0,0
60560,-71.4285714285714,4,2,1,80,0,0
60726,-71.4285714285714,4,2,2,80,0,0
60893,-71.4285714285714,4,2,1,80,0,0
61060,-80,4,2,3,80,0,0
61226,-80,4,2,1,80,0,0
61393,-80,4,2,2,80,0,0
61560,-80,4,2,1,80,0,0
62060,-80,4,2,3,80,0,0
62226,-80,4,2,1,80,0,0
62393,-80,4,2,3,80,0,0
62560,-80,4,2,1,80,0,0
62726,-80,4,2,3,80,0,0
62893,-80,4,2,1,80,0,0
63393,-80,4,2,3,80,0,0
63560,-80,4,2,1,80,0,0
63726,-80,4,2,3,80,0,0
63893,-80,4,2,1,80,0,0
64060,-80,4,2,4,60,0,0
64393,-80,4,2,1,60,0,0
64726,-100,4,2,4,60,0,0
65060,-100,4,2,1,60,0,0
65393,-133.333333333333,4,2,4,60,0,0
65726,-133.333333333333,4,2,1,60,0,0
66060,-133.333333333333,4,2,4,60,0,0
66393,-133.333333333333,4,2,1,60,0,0
66726,-80,4,2,4,60,0,0
67060,-80,4,2,1,60,0,0
67393,-100,4,2,4,60,0,0
67726,-113.636363636364,4,2,1,60,0,0
68060,-133.333333333333,4,2,4,60,0,0
68393,-153.846153846154,4,2,1,60,0,0
68726,-153.846153846154,4,2,4,60,0,0
69060,-153.846153846154,4,2,1,60,0,0
69393,-80,4,2,4,60,0,0
69726,-88.4955752212389,4,2,1,60,0,0
70060,-100,4,2,4,60,0,0
70393,-114.942528735632,4,2,1,60,0,0
70726,-133.333333333333,4,2,4,60,0,0
71060,-158.730158730159,4,2,1,60,0,0
71393,-158.730158730159,4,2,4,60,0,0
71726,-158.730158730159,4,2,1,60,0,0
72060,-100,4,2,4,60,0,0
72393,-114.942528735632,4,2,1,60,0,0
72726,-133.333333333333,4,2,4,60,0,0
73060,-158.730158730159,4,2,1,60,0,0
73226,-158.730158730159,4,2,4,60,0,0
73393,-200,4,2,4,60,0,0
73726,-200,4,2,1,60,0,0
73893,-200,4,2,4,60,0,0
74393,-200,4,2,1,60,0,0
74726,-200,4,2,4,60,0,0
75060,-200,4,2,2,60,0,0
75393,-200,4,2,4,60,0,0
75726,-200,4,2,2,60,0,0
76060,-200,4,2,4,60,0,0
76393,-200,4,2,1,60,0,0
76560,-200,4,2,4,60,0,0
77060,-200,4,2,1,60,0,0
77393,-158.730158730159,4,2,4,60,0,0
77726,-158.730158730159,4,2,2,60,0,0
78060,-158.730158730159,4,2,4,60,0,0
78393,-158.730158730159,4,2,2,60,0,0
78726,-158.730158730159,4,2,4,60,0,0
79060,-158.730158730159,4,2,1,60,0,0
79226,-158.730158730159,4,2,4,60,0,0
79726,-158.730158730159,4,2,1,60,0,0
80060,-133.333333333333,4,2,4,60,0,0
80560,-133.333333333333,4,2,2,60,0,0
80726,-133.333333333333,4,2,4,60,0,0
81560,-133.333333333333,4,2,2,60,0,0
81726,-133.333333333333,4,2,4,60,0,0
82726,-80,4,2,4,60,0,0
84060,-125,4,2,5,60,0,0
84171,-125,4,2,2,60,0,0
84226,-125,4,2,4,60,0,0
84282,-125,4,2,2,60,0,0
84393,-125,4,2,6,60,0,0
84504,-125,4,2,2,60,0,0
84560,-125,4,2,4,60,0,0
84615,-125,4,2,2,60,0,0
84726,-166.666666666667,4,2,5,60,0,0
84838,-166.666666666667,4,2,2,60,0,0
84893,-166.666666666667,4,2,4,60,0,0
84949,-166.666666666667,4,2,2,60,0,0
85060,-166.666666666667,4,2,5,60,0,0
85171,-166.666666666667,4,2,2,60,0,0
85393,-133.333333333333,4,2,1,70,0,0

[Colours]
Combo1 : 128,128,128
Combo2 : 223,223,223

[HitObjects]
256,192,18726,12,0,21060,0:0:0:0:
300,0,21393,6,0,B|281:83|210:40|207:117,1,158.4375,6|0,1:1|0:0,0:0:0:0:
234,151,21727,1,10,0:0:0:0:
399,197,21893,2,0,B|386:280|467:266|442:339,1,158.4375,6|0,1:2|0:0,0:0:0:0:
427,350,22226,1,10,0:0:0:0:
509,256,22393,1,2,0:3:0:0:
347,375,22560,5,2,1:3:0:0:
331,341,22643,1,0,1:2:0:0:
321,356,22726,2,0,B|278:343|278:343|271:323|271:323|222:304,1,105.625,2|2,1:2|0:3,0:0:0:0:
0,193,23060,1,10,0:0:0:0:
15,223,23143,1,8,0:0:0:0:
29,248,23226,2,0,L|87:270,1,52.8125,10|8,0:0|0:0,0:0:0:0:
245,171,23393,5,2,1:2:0:0:
245,171,23476,1,0,1:2:0:0:
245,171,23560,2,0,P|210:181|188:204,1,52.8125,10|0,0:0|0:0,0:0:0:0:
117,355,23726,1,2,1:3:0:0:
165,377,23810,1,0,1:2:0:0:
214,358,23893,1,10,0:0:0:0:
233,309,23976,1,0,0:0:0:0:
214,317,24060,5,6,1:2:0:0:
109,159,24226,1,10,0:0:0:0:
95,160,24310,1,8,0:0:0:0:
84,167,24393,1,10,0:0:0:0:
82,179,24476,1,8,0:0:0:0:
87,189,24560,2,0,L|49:87,2,105.625,6|2|2,1:2|0:3|1:3,0:0:0:0:
208,8,24976,1,0,1:2:0:0:
196,0,25060,2,0,P|140:6|119:60,1,105.625,10|2,0:0|0:3,0:0:0:0:
373,11,25393,6,0,B|359:15|359:15|346:61,1,52.8125,2|0,1:2|0:0,0:0:0:0:
273,56,25560,2,0,B|287:62|287:62|303:116,1,52.8125,2|0,1:3|0:0,0:0:0:0:
493,259,25726,1,10,0:0:0:0:
450,139,25893,2,0,L|473:206,1,46.4750014183045,2|0,1:3|0:0,0:0:0:0:
441,147,26060,2,0,L|419:208,1,46.4750014183045,2|0,1:2|0:0,0:0:0:0:
344,383,26226,1,10,0:0:0:0:
379,300,26393,5,2,1:3:0:0:
365,254,26476,1,8,0:0:0:0:
323,229,26560,1,10,0:0:0:0:
276,236,26643,1,8,0:0:0:0:
278,250,26726,6,0,P|200:223|203:303,1,190.125007252693,6|0,1:2|0:0,0:0:0:0:
220,307,27060,1,10,0:0:0:0:
81,360,27226,2,0,P|23:351|54:268,1,158.4375,6|0,1:2|0:0,0:0:0:0:
103,167,27560,2,0,L|-1:202,2,105.625,10|2|10,0:0|1:3|0:0,0:0:0:0:
314,121,28060,5,2,1:2:0:0:
234,67,28226,1,2,1:3:0:0:
158,288,28393,1,10,0:0:0:0:
251,241,28560,1,2,0:3:0:0:
255,231,28643,1,0,0:0:0:0:
258,221,28726,1,2,0:0:0:0:
261,210,28810,1,0,0:0:0:0:
264,200,28893,2,0,B|252:193|252:193|208:214,1,52.8125,2|0,1:3|1:2,0:0:0:0:
421,358,29060,1,10,0:0:0:0:
348,307,29226,5,2,0:3:0:0:
348,307,29310,1,0,0:0:0:0:
348,307,29393,2,0,B|322:294|322:294|245:328,1,105.625,6|2,1:2|1:3,0:0:0:0:
432,369,29726,2,0,P|486:358|484:301,1,105.625,10|2,0:0|0:3,0:0:0:0:
448,246,29976,1,0,0:0:0:0:
453,235,30060,2,0,L|474:170,1,52.8125,2|0,0:0|0:0,0:0:0:0:
511,30,30226,1,2,1:3:0:0:
511,30,30310,1,0,1:2:0:0:
511,30,30393,2,0,P|471:97|380:89,1,158.4375,10|0,0:0|0:0,0:0:0:0:
388,79,30726,5,6,1:2:0:0:
332,183,30893,1,2,1:3:0:0:
319,27,31060,2,0,P|255:30|229:72,1,105.625,10|2,0:0|1:3,0:0:0:0:
217,138,31310,1,0,0:0:0:0:
212,153,31393,2,0,P|188:177|154:175,2,52.8125,2|0|2,0:0|0:0|1:3,0:0:0:0:
189,355,31726,5,10,0:0:0:0:
181,315,31810,1,8,0:0:0:0:
147,294,31893,1,10,0:0:0:0:
107,294,31976,1,8,0:0:0:0:
77,325,32060,6,0,B|51:249|51:249|59:252|59:252|51:248|51:248|26:179,1,158.4375,6|0,1:2|0:0,0:0:0:0:
0,173,32393,1,10,0:0:0:0:
123,45,32560,2,0,B|143:102|143:102|151:105|151:105|143:102|143:102|169:178,1,158.4375,6|0,1:2|0:0,0:0:0:0:
160,191,32893,1,10,0:0:0:0:
300,239,33060,2,0,B|274:163|274:163|282:166|282:166|274:162|274:162|249:93,1,158.4375,6|0,1:2|0:0,0:0:0:0:
272,65,33393,1,10,0:0:0:0:
355,0,33560,2,0,B|375:57|375:57|383:60|383:60|375:57|375:57|401:133,1,158.4375,6|0,1:2|0:0,0:0:0:0:
418,144,33893,1,10,0:0:0:0:
366,349,34060,5,6,1:2:0:0:
447,297,34226,1,2,1:2:0:0:
310,247,34393,2,0,B|281:234|258:243|258:243|260:248|260:248|239:257|235:290,1,105.625,10|2,0:0|0:3,0:0:0:0:
226,376,34643,5,0,0:0:0:0:
232,366,34726,2,0,B|233:319|184:308|184:308|188:302|188:302|139:299|136:246,1,158.4375,6|0,1:2|0:0,0:0:0:0:
164,219,35060,1,10,0:0:0:0:
0,87,35226,2,0,B|26:58|65:69|65:69|65:63|65:63|106:102|79:148,1,158.4375,6|0,1:2|0:0,0:0:0:0:
74,143,35560,1,10,0:0:0:0:
75,327,35726,2,0,B|74:280|123:269|123:269|119:263|119:263|168:260|171:207,1,158.4375,6|0,1:2|0:0,0:0:0:0:
147,182,36060,1,10,0:0:0:0:
298,63,36226,2,0,B|272:34|233:45|233:45|233:39|233:39|192:78|219:124,1,158.4375,6|0,1:2|0:0,0:0:0:0:
227,117,36560,1,10,0:0:0:0:
463,36,36726,5,6,1:2:0:0:
371,0,36893,1,2,1:2:0:0:
428,149,37060,1,10,0:0:0:0:
444,193,37143,1,8,0:0:0:0:
462,236,37226,1,10,0:0:0:0:
484,283,37310,1,8,0:0:0:0:
474,291,37393,6,0,B|352:243|352:243|349:245|349:245|349:240|349:240|331:205,1,177.449994584656,6|0,1:2|0:0,0:0:0:0:
328,163,37726,1,10,0:0:0:0:
216,49,37893,2,0,B|234:177|234:177|238:179|238:179|233:182|233:182|212:215,1,177.449994584656,6|0,1:2|0:0,0:0:0:0:
192,225,38226,1,10,0:0:0:0:
146,384,38393,2,0,B|256:295|256:295|255:291|255:291|261:293|261:293|303:295,1,177.449994584656,6|0,1:2|0:0,0:0:0:0:
296,306,38726,1,10,0:0:0:0:
419,271,38893,2,0,B|353:243|353:243|349:245|349:245|349:239|349:239|331:204,2,118.299996389771,6|2|10,1:2|0:0|0:0,0:0:0:0:
512,79,39393,5,6,1:2:0:0:
422,112,39560,1,2,1:3:0:0:
438,0,39726,2,0,B|363:21|422:79|346:117,1,158.4375,10|8,0:0|0:0,0:0:0:0:
316,96,40060,5,6,1:2:0:0:
122,158,40226,1,2,1:3:0:0:
201,239,40393,2,0,P|253:231|267:182,1,105.625,10|2,0:0|0:3,0:0:0:0:
216,127,40643,1,0,0:0:0:0:
222,118,40726,2,0,P|214:91|186:67,1,52.8125,2|0,0:0|0:0,0:0:0:0:
33,252,40893,1,2,1:3:0:0:
33,252,40976,1,0,1:2:0:0:
33,252,41060,2,0,P|58:310|149:316,1,158.4375,10|0,0:0|0:0,0:0:0:0:
157,333,41393,5,2,1:2:0:0:
308,269,41560,1,2,1:3:0:0:
230,378,41726,2,0,L|266:278,1,105.625,10|2,0:0|1:3,0:0:0:0:
203,211,41976,1,0,0:0:0:0:
240,187,42060,1,2,0:0:0:0:
212,179,42143,1,0,0:0:0:0:
226,168,42226,1,2,1:3:0:0:
210,162,42310,1,0,1:2:0:0:
216,153,42393,2,0,B|128:184|128:184|104:173|104:173|31:200,1,190.125007252693,10|0,0:0|0:0,0:0:0:0:
72,267,42726,6,0,B|126:201|49:172|109:121,1,158.4375,6|0,1:1|0:0,0:0:0:0:
127,121,43060,1,10,0:0:0:0:
290,52,43226,2,0,B|367:51|328:123|412:137,1,158.4375,6|0,1:2|0:0,0:0:0:0:
425,127,43560,1,10,0:0:0:0:
305,181,43726,1,2,0:3:0:0:
191,46,43893,5,2,1:3:0:0:
152,33,43976,1,0,1:2:0:0:
164,23,44060,2,0,L|206:128,1,105.625,2|2,1:2|0:3,0:0:0:0:
321,342,44393,1,10,0:0:0:0:
309,361,44476,1,8,0:0:0:0:
297,379,44560,2,0,L|272:316,1,52.8125,10|8,0:0|0:0,0:0:0:0:
145,256,44726,5,2,1:2:0:0:
145,256,44810,1,0,1:2:0:0:
145,256,44893,2,0,P|166:275|206:277,1,52.8125,10|0,0:0|0:0,0:0:0:0:
374,169,45060,1,2,1:3:0:0:
324,161,45143,1,0,1:2:0:0:
280,178,45226,1,10,0:0:0:0:
270,231,45310,1,0,0:0:0:0:
286,233,45393,5,6,1:2:0:0:
445,351,45560,1,10,0:0:0:0:
449,341,45643,1,8,0:0:0:0:
453,331,45726,1,10,0:0:0:0:
457,321,45810,1,8,0:0:0:0:
461,311,45893,2,0,B|489:233|489:233|469:207,2,105.625,6|2|2,1:2|0:3|1:3,0:0:0:0:
390,224,46310,1,0,1:2:0:0:
379,233,46393,2,0,P|332:218|325:167,1,105.625,10|2,0:0|0:3,0:0:0:0:
497,4,46726,6,0,L|440:25,1,52.8125,2|0,1:2|0:0,0:0:0:0:
411,89,46893,2,0,B|361:70,1,52.8125,2|0,1:3|0:0,0:0:0:0:
246,232,47060,1,10,0:0:0:0:
252,116,47226,2,0,B|208:132,1,46.4750014183045,2|0,1:3|0:0,0:0:0:0:
195,165,47393,2,0,B|151:148,1,46.4750014183045,2|0,1:2|0:0,0:0:0:0:
0,99,47560,1,10,0:0:0:0:
104,32,47726,5,2,1:3:0:0:
104,32,47810,1,0,1:2:0:0:
104,32,47893,1,2,1:3:0:0:
104,32,47976,1,0,1:2:0:0:
104,32,48060,6,0,L|40:224,1,190.125007252693,6|0,1:2|0:0,0:0:0:0:
38,230,48393,1,10,0:0:0:0:
274,194,48560,2,0,L|221:356,1,158.4375,6|0,1:2|0:0,0:0:0:0:
145,288,48893,2,0,P|173:241|225:251,2,105.625,10|2|10,0:0|1:3|0:0,0:0:0:0:
293,384,49393,5,2,1:2:0:0:
351,309,49560,1,2,1:3:0:0:
142,373,49726,1,10,0:0:0:0:
70,305,49893,1,2,0:3:0:0:
60,310,49976,1,0,0:0:0:0:
50,314,50060,1,2,0:0:0:0:
41,319,50143,1,0,0:0:0:0:
31,323,50226,2,0,B|10:349|10:349|16:380,1,52.8125,2|0,1:3|1:2,0:0:0:0:
274,244,50393,1,10,0:0:0:0:
221,346,50560,5,2,0:3:0:0:
221,346,50643,1,0,0:0:0:0:
221,346,50726,2,0,L|178:230,1,105.625,6|2,1:2|1:3,0:0:0:0:
0,78,51060,2,0,P|15:127|70:133,1,105.625,10|2,0:0|0:3,0:0:0:0:
133,190,51310,1,0,0:0:0:0:
136,179,51393,2,0,L|157:120,1,52.8125,2|0,0:0|0:0,0:0:0:0:
336,0,51560,1,2,1:3:0:0:
336,0,51643,1,0,1:2:0:0:
336,0,51726,2,0,B|261:20|319:78|242:115,1,158.4375,10|0,0:0|0:0,0:0:0:0:
230,98,52060,5,6,1:2:0:0:
106,54,52226,1,2,1:3:0:0:
230,205,52393,2,0,B|272:189|272:189|285:198|285:198|331:180,1,105.625,10|2,0:0|1:3,0:0:0:0:
345,262,52643,1,0,0:0:0:0:
354,268,52726,2,0,L|411:291,2,52.8125,2|0|2,0:0|0:0|1:3,0:0:0:0:
512,146,53060,1,10,0:0:0:0:
505,99,53143,1,8,0:0:0:0:
468,69,53226,1,10,0:0:0:0:
420,65,53310,1,8,0:0:0:0:
396,21,53393,6,0,B|376:94|312:89|312:89|315:83|315:83|299:71|291:57,1,158.4375,6|0,1:2|0:0,0:0:0:0:
253,28,53726,1,10,0:0:0:0:
189,224,53893,2,0,B|169:297|105:292|105:292|108:286|108:286|92:274|84:260,1,158.4375,6|0,1:2|0:0,0:0:0:0:
131,163,54226,1,10,0:0:0:0:
131,163,54310,1,0,0:0:0:0:
131,163,54393,2,0,B|151:90|215:95|215:95|212:101|212:101|228:113|236:127,1,158.4375,6|0,1:2|0:0,0:0:0:0:
248,169,54726,1,10,0:0:0:0:
397,268,54893,2,0,B|377:341|313:336|313:336|316:330|316:330|300:318|292:304,1,158.4375,6|0,1:2|0:0,0:0:0:0:
303,290,55226,1,10,0:0:0:0:
497,288,55393,5,6,1:2:0:0:
465,374,55560,1,2,1:2:0:0:
382,253,55726,2,0,B|376:239|376:239|399:192,1,52.8125,10|0,0:0|0:0,0:0:0:0:
446,80,55893,5,10,0:0:0:0:
462,102,55976,1,8,0:0:0:0:
490,107,56060,2,0,B|477:65|448:50|448:50|445:55|445:55|411:34|359:44,1,158.4375,6|0,1:2|0:0,0:0:0:0:
337,87,56393,1,10,0:0:0:0:
239,21,56560,2,0,B|213:-8|174:1|174:1|174:-4|174:-4|132:34|158:80,1,158.4375,6|0,1:2|0:0,0:0:0:0:
170,75,56893,1,10,0:0:0:0:
46,144,57060,2,0,B|16:176|17:208|17:208|23:208|23:208|22:248|56:288,1,158.4375,6|0,1:2|0:0,0:0:0:0:
96,292,57393,1,10,0:0:0:0:
205,271,57560,2,0,B|192:307|220:336|220:336|215:339|215:339|269:356|296:310,1,158.4375,6|0,1:2|0:0,0:0:0:0:
282,306,57893,1,10,0:0:0:0:
394,185,58060,5,6,1:2:0:0:
303,216,58226,1,2,1:2:0:0:
434,364,58393,1,10,0:0:0:0:
452,320,58476,1,8,0:0:0:0:
472,276,58560,1,10,0:0:0:0:
494,232,58643,1,8,0:0:0:0:
488,219,58726,6,0,B|461:181|415:198|415:198|415:192|415:192|368:226|394:275,1,177.449994584656,6|0,1:2|0:0,0:0:0:0:
435,290,59060,1,10,0:0:0:0:
325,376,59226,2,0,B|276:380|261:330|261:330|255:334|255:334|248:284|193:284,1,177.449994584656,6|0,1:2|0:0,0:0:0:0:
176,301,59560,1,10,0:0:0:0:
52,148,59726,2,0,B|79:110|125:127|125:127|125:121|125:121|172:155|146:204,1,177.449994584656,6|0,1:2|0:0,0:0:0:0:
132,198,60060,1,10,0:0:0:0:
202,312,60226,2,0,B|233:317|244:285|244:285|248:288|248:288|255:256|290:259,2,118.299996389771,6|2|10,1:2|0:0|0:0,0:0:0:0:
37,165,60726,5,6,1:2:0:0:
132,198,60893,1,2,1:3:0:0:
110,372,61060,2,0,B|93:298|15:345|0:261,1,158.4375,10|0,0:0|0:0,0:0:0:0:
12,250,61393,5,6,1:2:0:0:
216,160,61560,1,2,1:3:0:0:
17,80,61726,2,0,P|48:85|76:108,1,52.8125,10|0,0:0|0:0,0:0:0:0:
152,95,61893,2,0,P|131:119|97:132,1,52.8125,10|0,0:0|0:0,0:0:0:0:
75,194,62060,2,0,P|63:164|69:128,1,52.8125,10|0,0:0|0:0,0:0:0:0:
185,17,62226,1,2,1:3:0:0:
185,17,62310,1,0,1:2:0:0:
185,17,62393,2,0,P|255:15|303:86,1,158.4375,10|0,0:0|0:0,0:0:0:0:
286,98,62726,5,2,1:2:0:0:
371,8,62893,1,2,1:3:0:0:
480,136,63060,1,10,0:0:0:0:
468,124,63143,2,0,P|413:122|379:170,1,105.625,0|8,1:2|0:0,0:0:0:0:
283,196,63393,6,0,P|313:203|335:230,1,52.8125,2|0,1:2|0:0,0:0:0:0:
466,293,63560,5,10,0:0:0:0:
448,282,63643,2,0,P|422:286|402:303,1,52.8125,0|2,1:2|0:0,0:0:0:0:
322,364,63810,5,8,0:0:0:0:
331,358,63893,2,0,P|356:362|376:379,1,52.8125,2|0,1:3|0:0,0:0:0:0:
228,338,64060,6,0,P|178:294|209:208,1,158.4375,6|0,1:1|0:0,0:0:0:0:
210,212,64393,2,0,P|196:276|107:293,1,158.4375,8|0,0:1|0:0,0:0:0:0:
125,290,64726,2,0,P|182:281|221:334,1,126.75,2|0,1:1|0:0,0:0:0:0:
207,326,65060,2,0,P|170:281|197:220,1,126.75,8|0,0:1|0:0,0:0:0:0:
191,236,65393,2,0,P|179:279|129:292,1,95.0625036263467,2|0,1:1|0:0,0:0:0:0:
140,281,65726,2,0,P|188:282|216:319,1,95.0625036263467,8|0,0:1|0:0,0:0:0:0:
203,325,66060,6,0,L|180:386,2,63.3750024175645,2|0|8,1:1|1:1|0:1,0:0:0:0:
127,188,66560,1,0,0:0:0:0:
127,188,66726,6,0,P|53:184|4:108,1,158.4375,2|0,1:1|0:0,0:0:0:0:
195,133,67060,2,0,P|145:77|164:-10,1,158.4375,8|0,0:1|0:0,0:0:0:0:
281,112,67393,2,0,P|284:52|343:8,1,126.75,2|0,1:1|0:0,0:0:0:0:
350,145,67726,2,0,P|389:109|453:120,1,111.540003403931,8|0,0:1|0:0,0:0:0:0:
380,196,68060,2,0,P|423:198|452:243,1,95.0625036263467,2|0,1:1|0:0,0:0:0:0:
368,232,68393,2,0,P|382:266|360:308,1,82.3874962285997,8|0,0:1|0:0,0:0:0:0:
363,305,68726,6,0,L|388:363,2,54.9249974857332,2|0|8,1:1|1:1|0:1,0:0:0:0:
431,181,69226,1,0,0:0:0:0:
431,181,69393,2,0,P|412:114|347:154,1,158.4375,2|0,1:1|0:0,0:0:0:0:
353,154,69726,2,0,P|408:124|423:185,1,143.227500437096,8|0,0:1|0:0,0:0:0:0:
419,185,70060,2,0,P|404:132|356:159,1,126.75,2|0,1:1|0:0,0:0:0:0:
357,165,70393,2,0,P|399:142|412:189,1,110.272500925444,8|0,0:1|0:0,0:0:0:0:
407,191,70726,2,0,P|396:150|360:170,1,95.0625036263467,2|0,1:1|0:0,0:0:0:0:
363,176,71060,2,0,P|393:159|403:193,1,79.8524975630952,8|0,0:1|0:0,0:0:0:0:
350,248,71393,6,0,L|296:267,2,53.2349983753968,2|0|8,1:1|1:1|0:1,0:0:0:0:
418,302,71893,1,0,0:0:0:0:
235,310,72060,6,0,P|251:247|281:185,1,126.75,2|0,1:1|0:0,0:0:0:0:
265,195,72393,2,0,P|241:244|228:297,1,110.272500925444,8|0,0:1|0:0,0:0:0:0:
221,291,72726,2,0,P|233:242|254:197,1,95.0625036263467,2|0,1:1|0:0,0:0:0:0:
240,207,73060,2,0,P|223:243|213:282,1,79.8524975630952,8|0,0:1|0:0,0:0:0:0:
304,295,73393,6,0,P|309:275|318:256,3,42.25,2|0|8|0,1:1|1:1|0:1|1:1,0:0:0:0:
152,196,74060,2,0,P|147:216|139:236,2,42.25,2|0|8,1:1|1:1|0:1,0:0:0:0:
55,59,74726,6,0,P|30:50|8:33,2,42.25,6|0|8,1:1|0:0|0:1,0:0:0:0:
152,196,75226,2,0,P|129:199|103:195,2,42.25,2|0|0,0:1|1:1|1:1,0:0:0:0:
265,252,75726,2,0,P|252:268|233:283,2,42.25,10|0|0,0:1|0:0|1:1,0:0:0:0:
366,185,76226,2,0,P|369:207|365:232,2,42.25,2|8|0,1:1|0:1|1:1,0:0:0:0:
365,72,76726,2,0,P|388:80|410:98,2,42.25,2|0|8,1:1|1:1|0:1,0:0:0:0:
296,37,77393,6,0,P|326:28|354:8,2,53.2349983753968,6|0|8,1:1|0:0|0:1,0:0:0:0:
412,173,77893,2,0,P|442:180|476:176,2,53.2349983753968,2|0|0,0:1|1:1|1:1,0:0:0:0:
382,300,78393,2,0,P|398:326|425:348,2,53.2349983753968,10|0|0,0:1|0:0|1:1,0:0:0:0:
236,332,78893,2,0,P|228:362|232:396,2,53.2349983753968,2|8|0,1:1|0:1|1:1,0:0:0:0:
91,291,79393,2,0,P|60:299|33:319,2,53.2349983753968,2|0|8,1:1|1:1|0:1,0:0:0:0:
8,225,80060,6,0,P|36:244|82:255,1,63.3750024175645,6|0,1:1|0:0,0:0:0:0:
86,49,80393,2,0,P|83:82|97:128,1,63.3750024175645,8|2,1:1|0:1,0:0:0:0:
268,2,80726,2,0,P|237:16|205:51,1,63.3750024175645,0|0,1:1|1:1,0:0:0:0:
414,92,81060,2,0,P|382:80|334:82,1,63.3750024175645,10|0,1:1|0:0,0:0:0:0:
466,261,81393,2,0,P|451:230|416:198,1,63.3750024175645,0|2,1:1|0:1,0:0:0:0:
345,376,81726,2,0,P|350:342|342:296,1,63.3750024175645,8|0,1:1|0:0,0:0:0:0:
173,384,82060,2,0,P|194:358|210:313,2,63.3750024175645,2|0|10,1:1|1:1|1:1,0:0:0:0:
220,88,82726,6,0,L|284:315,2,211.25,2|8|2,1:1|1:1|1:1,0:0:0:0:
263,185,83726,1,10,1:1:0:0:
139,222,84060,6,0,L|90:212,2,45.0666666666667,2|2|2,1:1|0:3|0:3,0:0:0:0:
371,171,84393,2,0,L|420:181,2,45.0666666666667,10|2|2,1:1|0:3|0:3,0:0:0:0:
223,235,84726,2,0,L|201:261,2,33.7999989685059,2|2|2,1:1|0:3|0:3,0:0:0:0:
288,153,85060,2,0,L|310:127,2,33.7999989685059,10|2|2,1:1|0:3|0:3,0:0:0:0:
256,192,85393,5,6,3:1:0:0:
