osu file format v14

[General]
AudioFilename: audio.ogg
AudioLeadIn: 0
PreviewTime: 14954
Countdown: 0
SampleSet: Soft
StackLeniency: 0.7
Mode: 3
LetterboxInBreaks: 0
SpecialStyle: 0
WidescreenStoryboard: 1

[Editor]
DistanceSpacing: 0.95
BeatDivisor: 4
GridSize: 32
TimelineZoom: 2.5

[Metadata]
Title:paranoia (Extended Edit) (Sped Up Ver.)
TitleUnicode:paranoia (Extended Edit) (Sped Up Ver.)
Artist:KENTENSHI
ArtistUnicode:KENTENSHI
Creator:keksikosu
Version:avel's it is hard to hear you
Source:
Tags:breakcore electronic japanese remix vocaloid kagamine rin 鏡音リン 椎名もた siinamota young girl a 少女a shoujo a dump streams speed stream accuracy stamina jumpstream jumpstreams js rice tik tok tiktok tik-tok Herarudo Ppass Reihynn avel
BeatmapID:4494026
BeatmapSetID:2128157

[Difficulty]
HPDrainRate:7.3
CircleSize:4
OverallDifficulty:7.3
ApproachRate:5
SliderMultiplier:1.4
SliderTickRate:1

[Events]
//Background and Video events
0,0,"sad.jpg",0,0
//Break Periods
//Storyboard Layer 0 (Background)
//Storyboard Layer 1 (Fail)
//Storyboard Layer 2 (Pass)
//Storyboard Layer 3 (Foreground)
//Storyboard Layer 4 (Overlay)
//Storyboard Sound Samples

[TimingPoints]
21,266.666666666667,4,2,1,10,1,0
14954,-100,4,2,1,20,0,0
16021,-100,4,2,1,30,0,0
17087,-100,4,2,1,40,0,1
25621,-100,4,2,1,40,0,0
34154,-100,4,2,1,40,0,1
42687,-100,4,2,1,40,0,0
51221,-100,4,2,1,20,0,0
59754,-100,4,2,1,25,0,0
64021,-100,4,2,1,30,0,0
66154,-100,4,2,1,35,0,0
68287,-100,4,2,1,40,0,1
76821,-100,4,2,1,40,0,0
85354,-100,4,2,1,40,0,1
93887,-100,4,2,1,40,0,0

[HitObjects]
64,192,8554,5,0,0:0:0:0:
320,192,8954,1,0,0:0:0:0:
64,192,9354,1,0,0:0:0:0:
320,192,9754,1,0,0:0:0:0:
64,192,10154,1,0,0:0:0:0:
448,192,10687,1,0,0:0:0:0:
192,192,11087,1,0,0:0:0:0:
448,192,11487,1,0,0:0:0:0:
192,192,11887,1,0,0:0:0:0:
448,192,12287,1,0,0:0:0:0:
64,192,12821,1,0,0:0:0:0:
448,192,13221,1,0,0:0:0:0:
64,192,13621,1,0,0:0:0:0:
448,192,14021,1,0,0:0:0:0:
192,192,14687,1,0,0:0:0:0:
448,192,14954,1,0,0:0:0:0:
320,192,15221,1,0,0:0:0:0:
64,192,15487,1,0,0:0:0:0:
448,192,15754,1,0,0:0:0:0:
192,192,16021,1,0,0:0:0:0:
320,192,16287,1,0,0:0:0:0:
64,192,16554,1,0,0:0:0:0:
192,192,16821,1,0,0:0:0:0:
448,192,17087,1,0,0:0:0:0:
320,192,17087,1,0,0:0:0:0:
64,192,17221,1,0,0:0:0:0:
64,192,17354,1,0,0:0:0:0:
320,192,17354,1,0,0:0:0:0:
448,192,17487,1,0,0:0:0:0:
320,192,17487,1,0,0:0:0:0:
192,192,17621,1,0,0:0:0:0:
448,192,17754,1,0,0:0:0:0:
192,192,17754,1,0,0:0:0:0:
320,192,17887,1,0,0:0:0:0:
64,192,17887,1,0,0:0:0:0:
448,192,18021,1,0,0:0:0:0:
320,192,18087,1,0,0:0:0:0:
192,192,18154,1,0,0:0:0:0:
448,192,18287,1,0,0:0:0:0:
192,192,18421,1,0,0:0:0:0:
320,192,18487,1,0,0:0:0:0:
448,192,18554,1,0,0:0:0:0:
192,192,18687,1,0,0:0:0:0:
64,192,18687,1,0,0:0:0:0:
64,192,18821,1,0,0:0:0:0:
320,192,18954,1,0,0:0:0:0:
448,192,18954,1,0,0:0:0:0:
320,192,19087,1,0,0:0:0:0:
64,192,19221,1,0,0:0:0:0:
192,192,19221,1,0,0:0:0:0:
448,192,19354,1,0,0:0:0:0:
320,192,19421,1,0,0:0:0:0:
64,192,19487,1,0,0:0:0:0:
192,192,19554,1,0,0:0:0:0:
448,192,19621,1,0,0:0:0:0:
320,192,19621,1,0,0:0:0:0:
64,192,19754,1,0,0:0:0:0:
320,192,19887,1,0,0:0:0:0:
192,192,19954,1,0,0:0:0:0:
64,192,20021,1,0,0:0:0:0:
320,192,20154,1,0,0:0:0:0:
192,192,20287,1,0,0:0:0:0:
448,192,20287,1,0,0:0:0:0:
448,192,20421,1,0,0:0:0:0:
64,192,20554,1,0,0:0:0:0:
320,192,20554,1,0,0:0:0:0:
192,192,20687,1,0,0:0:0:0:
192,192,20821,1,0,0:0:0:0:
320,192,20954,1,0,0:0:0:0:
64,192,20954,1,0,0:0:0:0:
448,192,21087,1,0,0:0:0:0:
192,192,21154,1,0,0:0:0:0:
320,192,21221,1,0,0:0:0:0:
448,192,21287,1,0,0:0:0:0:
192,192,21354,1,0,0:0:0:0:
64,192,21354,1,0,0:0:0:0:
320,192,21487,1,0,0:0:0:0:
320,192,21621,1,0,0:0:0:0:
64,192,21621,1,0,0:0:0:0:
192,192,21754,1,0,0:0:0:0:
448,192,21754,1,0,0:0:0:0:
64,192,21887,1,0,0:0:0:0:
64,192,22021,1,0,0:0:0:0:
320,192,22021,1,0,0:0:0:0:
192,192,22154,1,0,0:0:0:0:
448,192,22154,1,0,0:0:0:0:
448,192,22287,1,0,0:0:0:0:
64,192,22421,1,0,0:0:0:0:
192,192,22421,1,0,0:0:0:0:
192,192,22554,1,0,0:0:0:0:
320,192,22687,1,0,0:0:0:0:
448,192,22687,1,0,0:0:0:0:
64,192,22821,1,0,0:0:0:0:
64,192,22954,1,0,0:0:0:0:
320,192,23087,1,0,0:0:0:0:
192,192,23221,1,0,0:0:0:0:
448,192,23221,1,0,0:0:0:0:
320,192,23354,1,0,0:0:0:0:
448,192,23487,1,0,0:0:0:0:
64,192,23487,1,0,0:0:0:0:
64,192,23621,1,0,0:0:0:0:
320,192,23754,1,0,0:0:0:0:
448,192,23754,1,0,0:0:0:0:
192,192,23887,1,0,0:0:0:0:
192,192,24021,1,0,0:0:0:0:
320,192,24154,1,0,0:0:0:0:
448,192,24221,1,0,0:0:0:0:
64,192,24287,1,0,0:0:0:0:
192,192,24287,1,0,0:0:0:0:
320,192,24421,1,0,0:0:0:0:
64,192,24554,1,0,0:0:0:0:
448,192,24554,1,0,0:0:0:0:
448,192,24687,1,0,0:0:0:0:
192,192,24821,1,0,0:0:0:0:
64,192,24821,1,0,0:0:0:0:
320,192,24954,1,0,0:0:0:0:
320,192,25087,1,0,0:0:0:0:
192,192,25221,1,0,0:0:0:0:
448,192,25354,1,0,0:0:0:0:
320,192,25421,1,0,0:0:0:0:
64,192,25487,1,0,0:0:0:0:
192,192,25554,1,0,0:0:0:0:
320,192,25621,1,0,0:0:0:0:
448,192,25621,1,0,0:0:0:0:
64,192,25754,1,0,0:0:0:0:
64,192,25887,1,0,0:0:0:0:
320,192,26021,1,0,0:0:0:0:
448,192,26021,1,0,0:0:0:0:
192,192,26154,1,0,0:0:0:0:
192,192,26287,1,0,0:0:0:0:
448,192,26421,1,0,0:0:0:0:
320,192,26421,1,0,0:0:0:0:
64,192,26554,1,0,0:0:0:0:
64,192,26687,1,0,0:0:0:0:
320,192,26821,1,0,0:0:0:0:
448,192,26821,1,0,0:0:0:0:
192,192,26954,1,0,0:0:0:0:
192,192,27087,1,0,0:0:0:0:
320,192,27221,1,0,0:0:0:0:
448,192,27221,1,0,0:0:0:0:
448,192,27354,1,0,0:0:0:0:
64,192,27487,1,0,0:0:0:0:
192,192,27487,1,0,0:0:0:0:
320,192,27621,1,0,0:0:0:0:
64,192,27754,1,0,0:0:0:0:
448,192,27754,1,0,0:0:0:0:
192,192,27887,1,0,0:0:0:0:
192,192,28021,1,0,0:0:0:0:
64,192,28154,1,0,0:0:0:0:
448,192,28154,1,0,0:0:0:0:
320,192,28287,1,0,0:0:0:0:
320,192,28421,1,0,0:0:0:0:
64,192,28554,1,0,0:0:0:0:
448,192,28554,1,0,0:0:0:0:
192,192,28687,1,0,0:0:0:0:
192,192,28821,1,0,0:0:0:0:
64,192,28954,1,0,0:0:0:0:
448,192,28954,1,0,0:0:0:0:
320,192,29087,1,0,0:0:0:0:
320,192,29221,1,0,0:0:0:0:
192,192,29354,1,0,0:0:0:0:
64,192,29354,1,0,0:0:0:0:
448,192,29487,1,0,0:0:0:0:
64,192,29621,1,0,0:0:0:0:
192,192,29687,1,0,0:0:0:0:
320,192,29754,1,0,0:0:0:0:
448,192,29821,1,0,0:0:0:0:
192,192,29887,1,0,0:0:0:0:
64,192,29887,1,0,0:0:0:0:
320,192,30021,1,0,0:0:0:0:
320,192,30154,1,0,0:0:0:0:
192,192,30287,1,0,0:0:0:0:
64,192,30287,1,0,0:0:0:0:
448,192,30421,1,0,0:0:0:0:
448,192,30554,1,0,0:0:0:0:
192,192,30687,1,0,0:0:0:0:
64,192,30687,1,0,0:0:0:0:
320,192,30821,1,0,0:0:0:0:
320,192,30954,1,0,0:0:0:0:
192,192,31087,1,0,0:0:0:0:
64,192,31087,1,0,0:0:0:0:
448,192,31221,1,0,0:0:0:0:
448,192,31354,1,0,0:0:0:0:
64,192,31487,1,0,0:0:0:0:
320,192,31487,1,0,0:0:0:0:
320,192,31621,1,0,0:0:0:0:
64,192,31754,1,0,0:0:0:0:
192,192,31754,1,0,0:0:0:0:
320,192,31887,1,0,0:0:0:0:
64,192,32021,1,0,0:0:0:0:
448,192,32021,1,0,0:0:0:0:
64,192,32154,1,0,0:0:0:0:
320,192,32287,1,0,0:0:0:0:
448,192,32287,1,0,0:0:0:0:
192,192,32421,1,0,0:0:0:0:
64,192,32554,1,0,0:0:0:0:
320,192,32554,1,0,0:0:0:0:
192,192,32687,1,0,0:0:0:0:
64,192,32754,1,0,0:0:0:0:
320,192,32821,1,0,0:0:0:0:
448,192,32821,1,0,0:0:0:0:
192,192,32954,1,0,0:0:0:0:
448,192,33087,1,0,0:0:0:0:
64,192,33087,1,0,0:0:0:0:
448,192,33221,1,0,0:0:0:0:
192,192,33354,1,0,0:0:0:0:
64,192,33354,1,0,0:0:0:0:
320,192,33487,1,0,0:0:0:0:
192,192,33621,1,0,0:0:0:0:
448,192,33621,1,0,0:0:0:0:
320,192,33754,1,0,0:0:0:0:
448,192,33821,1,0,0:0:0:0:
192,192,33887,1,0,0:0:0:0:
64,192,33887,1,0,0:0:0:0:
320,192,34021,1,0,0:0:0:0:
64,192,34154,1,0,0:0:0:0:
192,192,34154,1,0,0:0:0:0:
448,192,34287,1,0,0:0:0:0:
448,192,34421,1,0,0:0:0:0:
192,192,34421,1,0,0:0:0:0:
64,192,34554,1,0,0:0:0:0:
192,192,34554,1,0,0:0:0:0:
320,192,34687,1,0,0:0:0:0:
64,192,34821,1,0,0:0:0:0:
320,192,34821,1,0,0:0:0:0:
192,192,34954,1,0,0:0:0:0:
448,192,34954,1,0,0:0:0:0:
64,192,35087,1,0,0:0:0:0:
192,192,35154,1,0,0:0:0:0:
320,192,35221,1,0,0:0:0:0:
64,192,35354,1,0,0:0:0:0:
320,192,35487,1,0,0:0:0:0:
192,192,35554,1,0,0:0:0:0:
64,192,35621,1,0,0:0:0:0:
320,192,35754,1,0,0:0:0:0:
448,192,35754,1,0,0:0:0:0:
448,192,35887,1,0,0:0:0:0:
192,192,36021,1,0,0:0:0:0:
64,192,36021,1,0,0:0:0:0:
192,192,36154,1,0,0:0:0:0:
448,192,36287,1,0,0:0:0:0:
320,192,36287,1,0,0:0:0:0:
64,192,36421,1,0,0:0:0:0:
192,192,36487,1,0,0:0:0:0:
448,192,36554,1,0,0:0:0:0:
320,192,36621,1,0,0:0:0:0:
64,192,36687,1,0,0:0:0:0:
192,192,36687,1,0,0:0:0:0:
448,192,36821,1,0,0:0:0:0:
192,192,36954,1,0,0:0:0:0:
320,192,37021,1,0,0:0:0:0:
448,192,37087,1,0,0:0:0:0:
192,192,37221,1,0,0:0:0:0:
320,192,37354,1,0,0:0:0:0:
64,192,37354,1,0,0:0:0:0:
64,192,37487,1,0,0:0:0:0:
448,192,37621,1,0,0:0:0:0:
192,192,37621,1,0,0:0:0:0:
320,192,37754,1,0,0:0:0:0:
320,192,37887,1,0,0:0:0:0:
192,192,38021,1,0,0:0:0:0:
448,192,38021,1,0,0:0:0:0:
64,192,38154,1,0,0:0:0:0:
320,192,38221,1,0,0:0:0:0:
192,192,38287,1,0,0:0:0:0:
64,192,38354,1,0,0:0:0:0:
320,192,38421,1,0,0:0:0:0:
448,192,38421,1,0,0:0:0:0:
192,192,38554,1,0,0:0:0:0:
192,192,38687,1,0,0:0:0:0:
448,192,38687,1,0,0:0:0:0:
320,192,38821,1,0,0:0:0:0:
64,192,38821,1,0,0:0:0:0:
448,192,38954,1,0,0:0:0:0:
448,192,39087,1,0,0:0:0:0:
192,192,39087,1,0,0:0:0:0:
320,192,39221,1,0,0:0:0:0:
64,192,39221,1,0,0:0:0:0:
64,192,39354,1,0,0:0:0:0:
448,192,39487,1,0,0:0:0:0:
320,192,39487,1,0,0:0:0:0:
320,192,39621,1,0,0:0:0:0:
192,192,39754,1,0,0:0:0:0:
64,192,39754,1,0,0:0:0:0:
448,192,39887,1,0,0:0:0:0:
448,192,40021,1,0,0:0:0:0:
192,192,40154,1,0,0:0:0:0:
320,192,40287,1,0,0:0:0:0:
64,192,40287,1,0,0:0:0:0:
192,192,40421,1,0,0:0:0:0:
64,192,40554,1,0,0:0:0:0:
448,192,40554,1,0,0:0:0:0:
448,192,40687,1,0,0:0:0:0:
192,192,40821,1,0,0:0:0:0:
64,192,40821,1,0,0:0:0:0:
320,192,40954,1,0,0:0:0:0:
320,192,41087,1,0,0:0:0:0:
192,192,41221,1,0,0:0:0:0:
64,192,41287,1,0,0:0:0:0:
448,192,41354,1,0,0:0:0:0:
320,192,41354,1,0,0:0:0:0:
192,192,41487,1,0,0:0:0:0:
448,192,41621,1,0,0:0:0:0:
64,192,41621,1,0,0:0:0:0:
64,192,41754,1,0,0:0:0:0:
320,192,41887,1,0,0:0:0:0:
448,192,41887,1,0,0:0:0:0:
192,192,42021,1,0,0:0:0:0:
192,192,42154,1,0,0:0:0:0:
320,192,42287,1,0,0:0:0:0:
64,192,42421,1,0,0:0:0:0:
192,192,42487,1,0,0:0:0:0:
448,192,42554,1,0,0:0:0:0:
320,192,42621,1,0,0:0:0:0:
192,192,42687,1,0,0:0:0:0:
64,192,42687,1,0,0:0:0:0:
448,192,42821,1,0,0:0:0:0:
448,192,42954,1,0,0:0:0:0:
192,192,43087,1,0,0:0:0:0:
64,192,43087,1,0,0:0:0:0:
320,192,43221,1,0,0:0:0:0:
320,192,43354,1,0,0:0:0:0:
64,192,43487,1,0,0:0:0:0:
192,192,43487,1,0,0:0:0:0:
448,192,43621,1,0,0:0:0:0:
448,192,43754,1,0,0:0:0:0:
192,192,43887,1,0,0:0:0:0:
64,192,43887,1,0,0:0:0:0:
320,192,44021,1,0,0:0:0:0:
320,192,44154,1,0,0:0:0:0:
192,192,44287,1,0,0:0:0:0:
64,192,44287,1,0,0:0:0:0:
64,192,44421,1,0,0:0:0:0:
448,192,44554,1,0,0:0:0:0:
320,192,44554,1,0,0:0:0:0:
320,192,44687,1,0,0:0:0:0:
192,192,44754,1,0,0:0:0:0:
448,192,44821,1,0,0:0:0:0:
64,192,44821,1,0,0:0:0:0:
320,192,44954,1,0,0:0:0:0:
320,192,45087,1,0,0:0:0:0:
448,192,45221,1,0,0:0:0:0:
64,192,45221,1,0,0:0:0:0:
192,192,45354,1,0,0:0:0:0:
192,192,45487,1,0,0:0:0:0:
448,192,45621,1,0,0:0:0:0:
64,192,45621,1,0,0:0:0:0:
320,192,45754,1,0,0:0:0:0:
320,192,45887,1,0,0:0:0:0:
448,192,46021,1,0,0:0:0:0:
64,192,46021,1,0,0:0:0:0:
192,192,46154,1,0,0:0:0:0:
192,192,46287,1,0,0:0:0:0:
320,192,46421,1,0,0:0:0:0:
448,192,46421,1,0,0:0:0:0:
64,192,46554,1,0,0:0:0:0:
448,192,46687,1,0,0:0:0:0:
320,192,46754,1,0,0:0:0:0:
192,192,46821,1,0,0:0:0:0:
64,192,46887,1,0,0:0:0:0:
320,192,46954,1,0,0:0:0:0:
448,192,46954,1,0,0:0:0:0:
192,192,47087,1,0,0:0:0:0:
192,192,47221,1,0,0:0:0:0:
320,192,47354,1,0,0:0:0:0:
448,192,47354,1,0,0:0:0:0:
64,192,47487,1,0,0:0:0:0:
64,192,47621,1,0,0:0:0:0:
320,192,47754,1,0,0:0:0:0:
448,192,47754,1,0,0:0:0:0:
192,192,47887,1,0,0:0:0:0:
192,192,48021,1,0,0:0:0:0:
320,192,48154,1,0,0:0:0:0:
448,192,48154,1,0,0:0:0:0:
64,192,48287,1,0,0:0:0:0:
64,192,48421,1,0,0:0:0:0:
448,192,48554,1,0,0:0:0:0:
192,192,48554,1,0,0:0:0:0:
192,192,48687,1,0,0:0:0:0:
320,192,48821,1,0,0:0:0:0:
448,192,48821,1,0,0:0:0:0:
192,192,48954,1,0,0:0:0:0:
64,192,49087,1,0,0:0:0:0:
448,192,49087,1,0,0:0:0:0:
448,192,49221,1,0,0:0:0:0:
192,192,49354,1,0,0:0:0:0:
64,192,49354,1,0,0:0:0:0:
192,192,49487,1,0,0:0:0:0:
64,192,49487,1,0,0:0:0:0:
448,192,49621,1,0,0:0:0:0:
320,192,49621,1,0,0:0:0:0:
192,192,49754,1,0,0:0:0:0:
64,192,49821,1,0,0:0:0:0:
320,192,49887,1,0,0:0:0:0:
448,192,49887,1,0,0:0:0:0:
192,192,50021,1,0,0:0:0:0:
448,192,50154,1,0,0:0:0:0:
64,192,50154,1,0,0:0:0:0:
64,192,50287,1,0,0:0:0:0:
320,192,50421,1,0,0:0:0:0:
448,192,50421,1,0,0:0:0:0:
320,192,50621,1,0,0:0:0:0:
64,192,50621,1,0,0:0:0:0:
448,192,50821,1,0,0:0:0:0:
64,192,50821,1,0,0:0:0:0:
320,192,51021,1,0,0:0:0:0:
64,192,51021,1,0,0:0:0:0:
448,192,51221,1,0,0:0:0:0:
320,192,51221,1,0,0:0:0:0:
448,192,51487,1,0,0:0:0:0:
448,192,51754,1,0,0:0:0:0:
192,192,51754,1,0,0:0:0:0:
192,192,52021,1,0,0:0:0:0:
192,192,52287,1,0,0:0:0:0:
320,192,52287,1,0,0:0:0:0:
320,192,52554,1,0,0:0:0:0:
320,192,52821,1,0,0:0:0:0:
448,192,52821,1,0,0:0:0:0:
192,192,52954,1,0,0:0:0:0:
448,192,53087,1,0,0:0:0:0:
192,192,53221,1,0,0:0:0:0:
320,192,53354,1,0,0:0:0:0:
64,192,53354,1,0,0:0:0:0:
64,192,53621,1,0,0:0:0:0:
64,192,53887,1,0,0:0:0:0:
320,192,53887,1,0,0:0:0:0:
320,192,54154,1,0,0:0:0:0:
320,192,54421,1,0,0:0:0:0:
192,192,54421,1,0,0:0:0:0:
192,192,54687,1,0,0:0:0:0:
192,192,54954,1,0,0:0:0:0:
64,192,54954,1,0,0:0:0:0:
320,192,55087,1,0,0:0:0:0:
64,192,55221,1,0,0:0:0:0:
320,192,55354,1,0,0:0:0:0:
448,192,55487,1,0,0:0:0:0:
192,192,55487,1,0,0:0:0:0:
448,192,55754,1,0,0:0:0:0:
448,192,56021,1,0,0:0:0:0:
192,192,56021,1,0,0:0:0:0:
192,192,56287,1,0,0:0:0:0:
192,192,56554,1,0,0:0:0:0:
320,192,56554,1,0,0:0:0:0:
320,192,56821,1,0,0:0:0:0:
320,192,57087,1,0,0:0:0:0:
448,192,57087,1,0,0:0:0:0:
192,192,57221,1,0,0:0:0:0:
448,192,57354,1,0,0:0:0:0:
192,192,57487,1,0,0:0:0:0:
320,192,57621,1,0,0:0:0:0:
64,192,57621,1,0,0:0:0:0:
320,192,57887,1,0,0:0:0:0:
192,192,58154,1,0,0:0:0:0:
448,192,58154,1,0,0:0:0:0:
192,192,58421,1,0,0:0:0:0:
320,192,58687,1,0,0:0:0:0:
64,192,58687,1,0,0:0:0:0:
64,192,58954,1,0,0:0:0:0:
192,192,59221,1,0,0:0:0:0:
448,192,59221,1,0,0:0:0:0:
64,192,59354,1,0,0:0:0:0:
448,192,59487,1,0,0:0:0:0:
192,192,59754,1,0,0:0:0:0:
64,192,59754,1,0,0:0:0:0:
320,192,59887,1,0,0:0:0:0:
64,192,60021,1,0,0:0:0:0:
448,192,60154,1,0,0:0:0:0:
192,192,60287,1,0,0:0:0:0:
320,192,60287,1,0,0:0:0:0:
448,192,60421,1,0,0:0:0:0:
64,192,60554,1,0,0:0:0:0:
320,192,60687,1,0,0:0:0:0:
64,192,60821,1,0,0:0:0:0:
192,192,60821,1,0,0:0:0:0:
448,192,60954,1,0,0:0:0:0:
192,192,61087,1,0,0:0:0:0:
448,192,61221,1,0,0:0:0:0:
64,192,61354,1,0,0:0:0:0:
192,192,61354,1,0,0:0:0:0:
320,192,61487,1,0,0:0:0:0:
64,192,61621,1,0,0:0:0:0:
320,192,61887,1,0,0:0:0:0:
448,192,61887,1,0,0:0:0:0:
192,192,62021,1,0,0:0:0:0:
448,192,62154,1,0,0:0:0:0:
64,192,62287,1,0,0:0:0:0:
320,192,62421,1,0,0:0:0:0:
192,192,62421,1,0,0:0:0:0:
64,192,62554,1,0,0:0:0:0:
448,192,62687,1,0,0:0:0:0:
192,192,62821,1,0,0:0:0:0:
448,192,62954,1,0,0:0:0:0:
320,192,62954,1,0,0:0:0:0:
64,192,63087,1,0,0:0:0:0:
320,192,63221,1,0,0:0:0:0:
64,192,63354,1,0,0:0:0:0:
448,192,63487,1,0,0:0:0:0:
320,192,63487,1,0,0:0:0:0:
192,192,63621,1,0,0:0:0:0:
448,192,63754,1,0,0:0:0:0:
64,192,64021,1,0,0:0:0:0:
192,192,64021,1,0,0:0:0:0:
192,192,64287,1,0,0:0:0:0:
320,192,64287,1,0,0:0:0:0:
320,192,64554,1,0,0:0:0:0:
448,192,64554,1,0,0:0:0:0:
64,192,64821,1,0,0:0:0:0:
192,192,64821,1,0,0:0:0:0:
320,192,65087,1,0,0:0:0:0:
448,192,65087,1,0,0:0:0:0:
320,192,65354,1,0,0:0:0:0:
192,192,65354,1,0,0:0:0:0:
192,192,65621,1,0,0:0:0:0:
64,192,65621,1,0,0:0:0:0:
320,192,65887,1,0,0:0:0:0:
448,192,65887,1,0,0:0:0:0:
192,192,66154,1,0,0:0:0:0:
448,192,66154,1,0,0:0:0:0:
192,192,66421,1,0,0:0:0:0:
64,192,66421,1,0,0:0:0:0:
64,192,66687,1,0,0:0:0:0:
320,192,66687,1,0,0:0:0:0:
320,192,66954,1,0,0:0:0:0:
448,192,66954,1,0,0:0:0:0:
192,192,67221,1,0,0:0:0:0:
64,192,67221,1,0,0:0:0:0:
192,192,67487,1,0,0:0:0:0:
64,192,67487,1,0,0:0:0:0:
320,192,67754,1,0,0:0:0:0:
448,192,67754,1,0,0:0:0:0:
320,192,68021,1,0,0:0:0:0:
448,192,68021,1,0,0:0:0:0:
64,192,68287,1,0,0:0:0:0:
192,192,68287,1,0,0:0:0:0:
448,192,68421,1,0,0:0:0:0:
448,192,68554,1,0,0:0:0:0:
192,192,68554,1,0,0:0:0:0:
64,192,68687,1,0,0:0:0:0:
192,192,68687,1,0,0:0:0:0:
320,192,68821,1,0,0:0:0:0:
64,192,68954,1,0,0:0:0:0:
320,192,68954,1,0,0:0:0:0:
192,192,69087,1,0,0:0:0:0:
448,192,69087,1,0,0:0:0:0:
64,192,69221,1,0,0:0:0:0:
192,192,69287,1,0,0:0:0:0:
320,192,69354,1,0,0:0:0:0:
64,192,69487,1,0,0:0:0:0:
320,192,69621,1,0,0:0:0:0:
192,192,69687,1,0,0:0:0:0:
64,192,69754,1,0,0:0:0:0:
320,192,69887,1,0,0:0:0:0:
448,192,69887,1,0,0:0:0:0:
448,192,70021,1,0,0:0:0:0:
192,192,70154,1,0,0:0:0:0:
64,192,70154,1,0,0:0:0:0:
192,192,70287,1,0,0:0:0:0:
448,192,70421,1,0,0:0:0:0:
320,192,70421,1,0,0:0:0:0:
64,192,70554,1,0,0:0:0:0:
192,192,70621,1,0,0:0:0:0:
448,192,70687,1,0,0:0:0:0:
320,192,70754,1,0,0:0:0:0:
64,192,70821,1,0,0:0:0:0:
192,192,70821,1,0,0:0:0:0:
448,192,70954,1,0,0:0:0:0:
192,192,71087,1,0,0:0:0:0:
320,192,71154,1,0,0:0:0:0:
448,192,71221,1,0,0:0:0:0:
192,192,71354,1,0,0:0:0:0:
320,192,71487,1,0,0:0:0:0:
64,192,71487,1,0,0:0:0:0:
64,192,71621,1,0,0:0:0:0:
448,192,71754,1,0,0:0:0:0:
192,192,71754,1,0,0:0:0:0:
320,192,71887,1,0,0:0:0:0:
320,192,72021,1,0,0:0:0:0:
192,192,72154,1,0,0:0:0:0:
448,192,72154,1,0,0:0:0:0:
64,192,72287,1,0,0:0:0:0:
320,192,72354,1,0,0:0:0:0:
192,192,72421,1,0,0:0:0:0:
64,192,72487,1,0,0:0:0:0:
320,192,72554,1,0,0:0:0:0:
448,192,72554,1,0,0:0:0:0:
192,192,72687,1,0,0:0:0:0:
192,192,72821,1,0,0:0:0:0:
448,192,72821,1,0,0:0:0:0:
320,192,72954,1,0,0:0:0:0:
64,192,72954,1,0,0:0:0:0:
448,192,73087,1,0,0:0:0:0:
448,192,73221,1,0,0:0:0:0:
192,192,73221,1,0,0:0:0:0:
320,192,73354,1,0,0:0:0:0:
64,192,73354,1,0,0:0:0:0:
64,192,73487,1,0,0:0:0:0:
448,192,73621,1,0,0:0:0:0:
320,192,73621,1,0,0:0:0:0:
320,192,73754,1,0,0:0:0:0:
192,192,73887,1,0,0:0:0:0:
64,192,73887,1,0,0:0:0:0:
448,192,74021,1,0,0:0:0:0:
448,192,74154,1,0,0:0:0:0:
192,192,74287,1,0,0:0:0:0:
320,192,74421,1,0,0:0:0:0:
64,192,74421,1,0,0:0:0:0:
192,192,74554,1,0,0:0:0:0:
64,192,74687,1,0,0:0:0:0:
448,192,74687,1,0,0:0:0:0:
448,192,74821,1,0,0:0:0:0:
192,192,74954,1,0,0:0:0:0:
64,192,74954,1,0,0:0:0:0:
320,192,75087,1,0,0:0:0:0:
320,192,75221,1,0,0:0:0:0:
192,192,75354,1,0,0:0:0:0:
64,192,75421,1,0,0:0:0:0:
448,192,75487,1,0,0:0:0:0:
320,192,75487,1,0,0:0:0:0:
192,192,75621,1,0,0:0:0:0:
448,192,75754,1,0,0:0:0:0:
64,192,75754,1,0,0:0:0:0:
64,192,75887,1,0,0:0:0:0:
320,192,76021,1,0,0:0:0:0:
448,192,76021,1,0,0:0:0:0:
192,192,76154,1,0,0:0:0:0:
192,192,76287,1,0,0:0:0:0:
320,192,76421,1,0,0:0:0:0:
64,192,76554,1,0,0:0:0:0:
192,192,76621,1,0,0:0:0:0:
448,192,76687,1,0,0:0:0:0:
320,192,76754,1,0,0:0:0:0:
192,192,76821,1,0,0:0:0:0:
64,192,76821,1,0,0:0:0:0:
448,192,76954,1,0,0:0:0:0:
448,192,77087,1,0,0:0:0:0:
192,192,77221,1,0,0:0:0:0:
64,192,77221,1,0,0:0:0:0:
320,192,77354,1,0,0:0:0:0:
320,192,77487,1,0,0:0:0:0:
64,192,77621,1,0,0:0:0:0:
192,192,77621,1,0,0:0:0:0:
448,192,77754,1,0,0:0:0:0:
448,192,77887,1,0,0:0:0:0:
192,192,78021,1,0,0:0:0:0:
64,192,78021,1,0,0:0:0:0:
320,192,78154,1,0,0:0:0:0:
320,192,78287,1,0,0:0:0:0:
192,192,78421,1,0,0:0:0:0:
64,192,78421,1,0,0:0:0:0:
64,192,78554,1,0,0:0:0:0:
448,192,78687,1,0,0:0:0:0:
320,192,78687,1,0,0:0:0:0:
192,192,78821,1,0,0:0:0:0:
448,192,78954,1,0,0:0:0:0:
64,192,78954,1,0,0:0:0:0:
320,192,79087,1,0,0:0:0:0:
320,192,79221,1,0,0:0:0:0:
448,192,79354,1,0,0:0:0:0:
64,192,79354,1,0,0:0:0:0:
192,192,79487,1,0,0:0:0:0:
192,192,79621,1,0,0:0:0:0:
448,192,79754,1,0,0:0:0:0:
64,192,79754,1,0,0:0:0:0:
320,192,79887,1,0,0:0:0:0:
320,192,80021,1,0,0:0:0:0:
448,192,80154,1,0,0:0:0:0:
64,192,80154,1,0,0:0:0:0:
192,192,80287,1,0,0:0:0:0:
192,192,80421,1,0,0:0:0:0:
320,192,80554,1,0,0:0:0:0:
448,192,80554,1,0,0:0:0:0:
64,192,80687,1,0,0:0:0:0:
448,192,80821,1,0,0:0:0:0:
320,192,80887,1,0,0:0:0:0:
192,192,80954,1,0,0:0:0:0:
64,192,81021,1,0,0:0:0:0:
320,192,81087,1,0,0:0:0:0:
448,192,81087,1,0,0:0:0:0:
192,192,81221,1,0,0:0:0:0:
192,192,81354,1,0,0:0:0:0:
320,192,81487,1,0,0:0:0:0:
448,192,81487,1,0,0:0:0:0:
64,192,81621,1,0,0:0:0:0:
64,192,81754,1,0,0:0:0:0:
320,192,81887,1,0,0:0:0:0:
448,192,81887,1,0,0:0:0:0:
192,192,82021,1,0,0:0:0:0:
192,192,82154,1,0,0:0:0:0:
320,192,82287,1,0,0:0:0:0:
448,192,82287,1,0,0:0:0:0:
64,192,82421,1,0,0:0:0:0:
64,192,82554,1,0,0:0:0:0:
448,192,82687,1,0,0:0:0:0:
192,192,82687,1,0,0:0:0:0:
192,192,82821,1,0,0:0:0:0:
448,192,82954,1,0,0:0:0:0:
320,192,82954,1,0,0:0:0:0:
192,192,83087,1,0,0:0:0:0:
448,192,83221,1,0,0:0:0:0:
64,192,83221,1,0,0:0:0:0:
448,192,83354,1,0,0:0:0:0:
192,192,83487,1,0,0:0:0:0:
64,192,83487,1,0,0:0:0:0:
320,192,83621,1,0,0:0:0:0:
448,192,83754,1,0,0:0:0:0:
192,192,83754,1,0,0:0:0:0:
320,192,83887,1,0,0:0:0:0:
448,192,83954,1,0,0:0:0:0:
192,192,84021,1,0,0:0:0:0:
64,192,84021,1,0,0:0:0:0:
320,192,84154,1,0,0:0:0:0:
64,192,84287,1,0,0:0:0:0:
448,192,84287,1,0,0:0:0:0:
64,192,84421,1,0,0:0:0:0:
320,192,84554,1,0,0:0:0:0:
448,192,84554,1,0,0:0:0:0:
192,192,84687,1,0,0:0:0:0:
320,192,84821,1,0,0:0:0:0:
64,192,84821,1,0,0:0:0:0:
192,192,84954,1,0,0:0:0:0:
64,192,85021,1,0,0:0:0:0:
320,192,85087,1,0,0:0:0:0:
448,192,85087,1,0,0:0:0:0:
192,192,85221,1,0,0:0:0:0:
448,192,85354,1,0,0:0:0:0:
320,192,85354,1,0,0:0:0:0:
64,192,85487,1,0,0:0:0:0:
64,192,85621,1,0,0:0:0:0:
320,192,85621,1,0,0:0:0:0:
448,192,85754,1,0,0:0:0:0:
320,192,85754,1,0,0:0:0:0:
192,192,85887,1,0,0:0:0:0:
448,192,86021,1,0,0:0:0:0:
192,192,86021,1,0,0:0:0:0:
320,192,86154,1,0,0:0:0:0:
64,192,86154,1,0,0:0:0:0:
448,192,86287,1,0,0:0:0:0:
320,192,86354,1,0,0:0:0:0:
192,192,86421,1,0,0:0:0:0:
448,192,86554,1,0,0:0:0:0:
192,192,86687,1,0,0:0:0:0:
320,192,86754,1,0,0:0:0:0:
448,192,86821,1,0,0:0:0:0:
192,192,86954,1,0,0:0:0:0:
64,192,86954,1,0,0:0:0:0:
64,192,87087,1,0,0:0:0:0:
320,192,87221,1,0,0:0:0:0:
448,192,87221,1,0,0:0:0:0:
320,192,87354,1,0,0:0:0:0:
64,192,87487,1,0,0:0:0:0:
192,192,87487,1,0,0:0:0:0:
448,192,87621,1,0,0:0:0:0:
320,192,87687,1,0,0:0:0:0:
64,192,87754,1,0,0:0:0:0:
192,192,87821,1,0,0:0:0:0:
448,192,87887,1,0,0:0:0:0:
320,192,87887,1,0,0:0:0:0:
64,192,88021,1,0,0:0:0:0:
320,192,88154,1,0,0:0:0:0:
192,192,88221,1,0,0:0:0:0:
64,192,88287,1,0,0:0:0:0:
320,192,88421,1,0,0:0:0:0:
192,192,88554,1,0,0:0:0:0:
448,192,88554,1,0,0:0:0:0:
448,192,88687,1,0,0:0:0:0:
64,192,88821,1,0,0:0:0:0:
320,192,88821,1,0,0:0:0:0:
192,192,88954,1,0,0:0:0:0:
192,192,89087,1,0,0:0:0:0:
320,192,89221,1,0,0:0:0:0:
64,192,89221,1,0,0:0:0:0:
448,192,89354,1,0,0:0:0:0:
192,192,89421,1,0,0:0:0:0:
320,192,89487,1,0,0:0:0:0:
448,192,89554,1,0,0:0:0:0:
192,192,89621,1,0,0:0:0:0:
64,192,89621,1,0,0:0:0:0:
320,192,89754,1,0,0:0:0:0:
320,192,89887,1,0,0:0:0:0:
64,192,89887,1,0,0:0:0:0:
192,192,90021,1,0,0:0:0:0:
448,192,90021,1,0,0:0:0:0:
64,192,90154,1,0,0:0:0:0:
64,192,90287,1,0,0:0:0:0:
320,192,90287,1,0,0:0:0:0:
192,192,90421,1,0,0:0:0:0:
448,192,90421,1,0,0:0:0:0:
448,192,90554,1,0,0:0:0:0:
64,192,90687,1,0,0:0:0:0:
192,192,90687,1,0,0:0:0:0:
192,192,90821,1,0,0:0:0:0:
320,192,90954,1,0,0:0:0:0:
448,192,90954,1,0,0:0:0:0:
64,192,91087,1,0,0:0:0:0:
64,192,91221,1,0,0:0:0:0:
320,192,91354,1,0,0:0:0:0:
192,192,91487,1,0,0:0:0:0:
448,192,91487,1,0,0:0:0:0:
320,192,91621,1,0,0:0:0:0:
448,192,91754,1,0,0:0:0:0:
64,192,91754,1,0,0:0:0:0:
64,192,91887,1,0,0:0:0:0:
320,192,92021,1,0,0:0:0:0:
448,192,92021,1,0,0:0:0:0:
192,192,92154,1,0,0:0:0:0:
192,192,92287,1,0,0:0:0:0:
320,192,92421,1,0,0:0:0:0:
448,192,92487,1,0,0:0:0:0:
64,192,92554,1,0,0:0:0:0:
192,192,92554,1,0,0:0:0:0:
320,192,92687,1,0,0:0:0:0:
64,192,92821,1,0,0:0:0:0:
448,192,92821,1,0,0:0:0:0:
448,192,92954,1,0,0:0:0:0:
192,192,93087,1,0,0:0:0:0:
64,192,93087,1,0,0:0:0:0:
320,192,93221,1,0,0:0:0:0:
320,192,93354,1,0,0:0:0:0:
192,192,93487,1,0,0:0:0:0:
448,192,93621,1,0,0:0:0:0:
320,192,93687,1,0,0:0:0:0:
64,192,93754,1,0,0:0:0:0:
192,192,93821,1,0,0:0:0:0:
320,192,93887,1,0,0:0:0:0:
448,192,93887,1,0,0:0:0:0:
64,192,94021,1,0,0:0:0:0:
64,192,94154,1,0,0:0:0:0:
320,192,94287,1,0,0:0:0:0:
448,192,94287,1,0,0:0:0:0:
192,192,94421,1,0,0:0:0:0:
192,192,94554,1,0,0:0:0:0:
448,192,94687,1,0,0:0:0:0:
320,192,94687,1,0,0:0:0:0:
64,192,94821,1,0,0:0:0:0:
64,192,94954,1,0,0:0:0:0:
320,192,95087,1,0,0:0:0:0:
448,192,95087,1,0,0:0:0:0:
192,192,95221,1,0,0:0:0:0:
192,192,95354,1,0,0:0:0:0:
320,192,95487,1,0,0:0:0:0:
448,192,95487,1,0,0:0:0:0:
448,192,95621,1,0,0:0:0:0:
64,192,95754,1,0,0:0:0:0:
192,192,95754,1,0,0:0:0:0:
192,192,95887,1,0,0:0:0:0:
320,192,95954,1,0,0:0:0:0:
64,192,96021,1,0,0:0:0:0:
448,192,96021,1,0,0:0:0:0:
192,192,96154,1,0,0:0:0:0:
192,192,96287,1,0,0:0:0:0:
64,192,96421,1,0,0:0:0:0:
448,192,96421,1,0,0:0:0:0:
320,192,96554,1,0,0:0:0:0:
320,192,96687,1,0,0:0:0:0:
64,192,96821,1,0,0:0:0:0:
448,192,96821,1,0,0:0:0:0:
192,192,96954,1,0,0:0:0:0:
192,192,97087,1,0,0:0:0:0:
64,192,97221,1,0,0:0:0:0:
448,192,97221,1,0,0:0:0:0:
320,192,97354,1,0,0:0:0:0:
320,192,97487,1,0,0:0:0:0:
192,192,97621,1,0,0:0:0:0:
64,192,97621,1,0,0:0:0:0:
448,192,97754,1,0,0:0:0:0:
64,192,97887,1,0,0:0:0:0:
192,192,97954,1,0,0:0:0:0:
320,192,98021,1,0,0:0:0:0:
448,192,98087,1,0,0:0:0:0:
192,192,98154,1,0,0:0:0:0:
64,192,98154,1,0,0:0:0:0:
320,192,98287,1,0,0:0:0:0:
320,192,98421,1,0,0:0:0:0:
192,192,98554,1,0,0:0:0:0:
64,192,98554,1,0,0:0:0:0:
448,192,98687,1,0,0:0:0:0:
448,192,98821,1,0,0:0:0:0:
192,192,98954,1,0,0:0:0:0:
64,192,98954,1,0,0:0:0:0:
320,192,99087,1,0,0:0:0:0:
320,192,99221,1,0,0:0:0:0:
192,192,99354,1,0,0:0:0:0:
64,192,99354,1,0,0:0:0:0:
448,192,99487,1,0,0:0:0:0:
448,192,99621,1,0,0:0:0:0:
64,192,99754,1,0,0:0:0:0:
320,192,99754,1,0,0:0:0:0:
320,192,99887,1,0,0:0:0:0:
192,192,100021,1,0,0:0:0:0:
64,192,100021,1,0,0:0:0:0:
320,192,100154,1,0,0:0:0:0:
448,192,100287,1,0,0:0:0:0:
64,192,100287,1,0,0:0:0:0:
64,192,100421,1,0,0:0:0:0:
320,192,100554,1,0,0:0:0:0:
448,192,100554,1,0,0:0:0:0:
320,192,100687,1,0,0:0:0:0:
448,192,100687,1,0,0:0:0:0:
64,192,100821,1,0,0:0:0:0:
192,192,100821,1,0,0:0:0:0:
320,192,100954,1,0,0:0:0:0:
448,192,101021,1,0,0:0:0:0:
192,192,101087,1,0,0:0:0:0:
64,192,101087,1,0,0:0:0:0:
320,192,101221,1,0,0:0:0:0:
64,192,101354,1,0,0:0:0:0:
448,192,101354,1,0,0:0:0:0:
448,192,101487,1,0,0:0:0:0:
192,192,101621,1,0,0:0:0:0:
64,192,101621,1,0,0:0:0:0:
192,192,101821,1,0,0:0:0:0:
448,192,101821,1,0,0:0:0:0:
448,192,102021,1,0,0:0:0:0:
64,192,102021,1,0,0:0:0:0:
192,192,102221,1,0,0:0:0:0:
448,192,102221,1,0,0:0:0:0:
64,192,102421,1,0,0:0:0:0:
192,192,102421,1,0,0:0:0:0:
