osu file format v14

[General]
AudioFilename: audio.mp3
AudioLeadIn: 0
PreviewTime: 49978
Countdown: 0
SampleSet: Soft
StackLeniency: 0.7
Mode: 0
LetterboxInBreaks: 0
WidescreenStoryboard: 1

[Editor]
Bookmarks: 67978,83978,112978,149978,190353
DistanceSpacing: 0.2
BeatDivisor: 4
GridSize: 32
TimelineZoom: 4.399999

[Metadata]
Title:DUBSTEP
TitleUnicode:卍DUBSTEP卍
Artist:KEMOMIMI EDM SQUAD
ArtistUnicode:KEMOMIMI EDM SQUAD
Creator:Deca
Version:AERIL'S INSANE
Source:
Tags:かたぎり katagiri sabi blink182 blink-182 darkside usao night sky manji mnyui captin1 risen aeril kemonomimi electronic dubstep punk rock breakcore xdubstepx +dubstep+ english japanese
BeatmapID:4477211
BeatmapSetID:2072490

[Difficulty]
HPDrainRate:5
CircleSize:3.8
OverallDifficulty:8
ApproachRate:9
SliderMultiplier:1.6
SliderTickRate:1

[Events]
//Background and Video events
0,0,"Dpz2QOeUcAAS4tS.jpg",0,0
//Break Periods
2,100178,105378
//Storyboard Layer 0 (Background)
//Storyboard Layer 1 (Fail)
//Storyboard Layer 2 (Pass)
//Storyboard Layer 3 (Foreground)
//Storyboard Layer 4 (Overlay)
//Storyboard Sound Samples

[TimingPoints]
978,250,4,2,1,59,1,0
4478,-100,4,2,2,59,0,0
4853,-142.857142857143,4,2,2,59,0,0
19978,-83.3333333333333,4,2,2,66,0,0
20478,-111.111111111111,4,2,2,66,0,0
35978,-83.3333333333333,4,2,2,66,0,0
36478,-111.111111111111,4,2,2,66,0,0
43978,-100,4,2,2,76,0,0
44228,-166.666666666667,4,2,2,76,0,0
44478,-100,4,2,2,76,0,0
44728,-166.666666666667,4,2,2,76,0,0
44978,-100,4,2,2,76,0,0
45228,-166.666666666667,4,2,2,76,0,0
45478,-100,4,2,2,76,0,0
45728,-166.666666666667,4,2,2,76,0,0
45978,-100,4,2,2,76,0,0
46228,-166.666666666667,4,2,2,76,0,0
46478,-100,4,2,2,76,0,0
46728,-166.666666666667,4,2,2,76,0,0
46978,-100,4,2,2,76,0,0
47228,-166.666666666667,4,2,2,76,0,0
47478,-100,4,2,2,76,0,0
47509,-100,4,2,2,44,0,0
47728,-100,4,2,2,76,0,0
50978,-100,4,2,1,66,0,0
51478,-100,4,2,1,88,0,0
51978,-76.9230769230769,4,2,1,88,0,0
52478,-58.8235294117647,4,2,1,88,0,0
53978,-76.9230769230769,4,2,1,88,0,0
55228,-66.6666666666667,4,2,1,88,0,0
55259,-66.6666666666667,4,2,1,44,0,0
55478,-90.9090909090909,4,2,1,88,0,0
55978,-76.9230769230769,4,2,1,88,0,0
56478,-58.8235294117647,4,2,1,88,0,0
57978,-76.9230769230769,4,2,1,88,0,0
59259,-76.9230769230769,4,2,1,44,0,0
59478,-76.9230769230769,4,2,1,79,0,0
59978,-58.8235294117647,4,2,1,79,0,0
60728,-76.9230769230769,4,2,1,79,0,0
60759,-76.9230769230769,4,2,1,44,0,0
60978,-76.9230769230769,4,2,1,79,0,0
61978,-111.111111111111,4,2,1,79,0,0
62228,-76.9230769230769,4,2,1,79,0,0
62478,-90.9090909090909,4,2,1,79,0,0
62978,-76.9230769230769,4,2,1,88,0,0
63978,-100,4,2,1,79,0,0
65978,-76.9230769230769,4,2,1,88,0,0
66519,-76.9230769230769,4,2,1,55,0,0
66728,-76.9230769230769,4,2,1,88,0,0
68259,-76.9230769230769,4,2,1,44,0,0
68478,-76.9230769230769,4,2,1,88,0,0
69978,-58.8235294117647,4,2,1,88,0,0
70228,-76.9230769230769,4,2,1,88,0,0
70259,-76.9230769230769,4,2,1,44,0,0
70478,-76.9230769230769,4,2,1,88,0,0
71478,-100,4,2,1,88,0,0
72228,-66.6666666666667,4,2,1,88,0,0
72478,-76.9230769230769,4,2,1,88,0,0
73978,-142.857142857143,4,2,1,79,0,0
74978,-100,4,2,1,79,0,0
75978,-100,4,2,1,88,0,0
82478,-76.9230769230769,4,2,1,88,0,0
82978,-100,4,2,1,79,0,0
83509,-100,4,2,1,44,0,0
83978,-76.9230769230769,4,2,1,79,0,0
87728,-100,4,2,1,79,0,0
87978,-76.9230769230769,4,2,1,79,0,0
91478,-142.857142857143,4,2,1,79,0,0
91978,-90.9090909090909,4,2,1,88,0,0
107978,-111.111111111111,4,2,1,66,0,0
108009,-111.111111111111,4,2,1,33,0,0
108478,-111.111111111111,4,2,1,66,0,0
111978,-83.3333333333333,4,2,1,66,0,0
112009,-83.3333333333333,4,2,1,33,0,0
112478,-83.3333333333333,4,2,1,66,0,0
115978,-66.6666666666667,4,2,1,66,0,0
116009,-83.3333333333333,4,2,1,33,0,0
116353,-111.111111111111,4,2,1,66,0,0
117978,-66.6666666666667,4,2,1,66,0,0
118009,-83.3333333333333,4,2,1,33,0,0
118478,-111.111111111111,4,2,1,76,0,0
120978,-100,4,2,1,76,0,0
121978,-250,4,2,1,76,0,0
125978,-76.9230769230769,4,2,1,88,0,0
127759,-76.9230769230769,4,2,1,44,0,0
127978,-76.9230769230769,4,2,1,88,0,0
129353,-76.9230769230769,4,2,1,76,0,0
129478,-142.857142857143,4,2,1,76,0,0
129978,-76.9230769230769,4,2,1,88,0,0
131978,-142.857142857143,4,2,1,81,0,0
132978,-100,4,2,1,81,0,0
133728,-76.9230769230769,4,2,1,81,0,0
134228,-58.8235294117647,4,2,1,88,0,0
134978,-66.6666666666667,4,2,1,88,0,0
135759,-66.6666666666667,4,2,1,44,0,0
135978,-66.6666666666667,4,2,1,88,0,0
136478,-100,4,2,1,88,0,0
136978,-125,4,2,1,76,0,0
137759,-125,4,2,1,44,0,0
137978,-100,4,2,1,88,0,0
139478,-76.9230769230769,4,2,1,88,0,0
139728,-100,4,2,1,88,0,0
139978,-76.9230769230769,4,2,1,81,0,0
140353,-142.857142857143,4,2,1,81,0,0
140978,-100,4,2,1,81,0,0
141759,-100,4,2,1,44,0,0
141978,-100,4,2,1,81,0,0
142228,-58.8235294117647,4,2,1,88,0,0
142978,-66.6666666666667,4,2,1,88,0,0
143759,-66.6666666666667,4,2,1,44,0,0
143978,-100,4,2,1,88,0,0
144978,-125,4,2,1,76,0,0
145759,-125,4,2,1,44,0,0
145978,-83.3333333333333,4,2,1,88,0,0
147743,-83.3333333333333,4,2,1,44,0,0
147978,-100,4,2,1,88,0,0
148978,-142.857142857143,4,2,1,88,0,0
149853,-142.857142857143,4,2,2,59,0,0
149978,-125,4,2,2,59,0,0
164978,-142.857142857143,4,2,2,59,0,0
165478,-83.3333333333333,4,2,2,59,0,0
165978,-125,4,2,2,59,0,0
166478,-76.9230769230769,4,2,2,59,0,0
166978,-125,4,2,2,59,0,0
172978,-100,4,2,2,59,0,0
177603,-100,4,2,1,62,0,0
177728,-100,4,2,2,65,0,0
177853,-100,4,2,1,69,0,0
177978,-66.6666666666667,4,2,2,88,0,0
178228,-100,4,2,1,69,0,0
179978,-76.9230769230769,4,2,1,72,0,0
180228,-100,4,2,1,72,0,0
180978,-76.9230769230769,4,2,1,72,0,0
181228,-100,4,2,1,72,0,0
181978,-76.9230769230769,4,2,1,72,0,0
182728,-100,4,2,1,72,0,0
182978,-76.9230769230769,4,2,1,72,0,0
183478,-100,4,2,1,72,0,0
185978,-76.9230769230769,4,2,1,72,0,0
186228,-100,4,2,1,72,0,0
189978,-76.9230769230769,4,2,1,72,0,0
190728,-100,4,2,1,72,0,0
190978,-76.9230769230769,4,2,1,72,0,0
191478,-100,4,2,1,72,0,0
191978,-76.9230769230769,4,2,1,72,0,0
192978,-100,4,2,1,72,0,0
193978,-100,4,2,1,81,0,0
199728,-100,4,2,1,88,0,0
201978,-76.9230769230769,4,2,1,81,0,0
205755,-76.9230769230769,4,2,1,44,0,0
205978,-76.9230769230769,4,2,1,81,0,0
209009,-76.9230769230769,4,2,1,44,0,0
209228,-76.9230769230769,4,2,1,81,0,0
209978,-76.9230769230769,4,2,1,88,0,0
217009,-76.9230769230769,4,2,1,44,0,0
217228,-76.9230769230769,4,2,1,88,0,0
217978,-100,4,2,1,66,0,0
219978,-76.9230769230769,4,2,1,66,0,0
220478,-100,4,2,1,66,0,0
220728,-76.9230769230769,4,2,1,66,0,0
222478,-100,4,2,1,66,0,0
223978,-76.9230769230769,4,2,1,66,0,0
224478,-100,4,2,1,66,0,0
225728,-142.857142857143,4,2,1,66,0,0
225978,-142.857142857143,4,2,2,59,0,0
229978,-200,4,2,2,59,0,0
233728,-142.857142857143,4,2,2,59,0,0
233978,-83.3333333333333,4,2,2,59,0,0
234228,-111.111111111111,4,2,2,59,0,0
240978,-111.111111111111,4,2,1,59,0,0
241853,-500,4,2,1,59,0,0
242103,-500,4,2,2,14,0,0
243978,-500,4,2,1,5,0,0

[Colours]
Combo1 : 17,254,176
Combo2 : 173,255,95
Combo3 : 255,88,100
Combo4 : 255,94,55

[HitObjects]
256,192,1478,12,0,3915,0:0:0:0:
486,135,3978,6,0,B|479:72|392:39|327:53|327:53|368:92|364:147,1,280,0|0,1:0|0:0,0:0:0:0:
363,123,4478,1,10,0:2:0:0:
363,123,4853,6,0,P|309:127|251:164,1,111.999996582031,8|8,0:0|0:0,0:0:0:0:
135,30,5228,2,0,P|190:35|242:57,2,111.999996582031,0|8|0,3:0|0:0|3:0,0:0:0:0:
81,86,5853,1,0,0:0:0:0:
159,139,5978,6,0,P|138:169|61:168,1,111.999996582031,2|0,3:2|3:0,0:0:0:0:
68,172,6353,1,0,3:0:0:0:
31,241,6478,2,0,P|48:290|54:359,1,111.999996582031,8|0,0:0|0:0,0:0:0:0:
182,376,6853,2,0,P|209:337|222:263,1,111.999996582031,8|8,0:0|0:0,0:0:0:0:
320,235,7228,6,0,P|357:229|396:295,1,111.999996582031,0|8,3:0|0:0,0:0:0:0:
455,351,7603,1,8,0:0:0:0:
392,297,7728,2,0,P|362:304|334:322,1,55.9999982910157,0|8,3:0|0:0,0:0:0:0:
479,222,7978,5,2,3:2:0:0:
482,207,8228,1,0,3:0:0:0:
260,79,8478,6,0,L|267:126,1,27.9999991455078,8|0,0:0|0:0,0:0:0:0:
362,148,8728,2,0,L|369:195,1,27.9999991455078,8|0,0:0|0:0,0:0:0:0:
53,18,8978,6,8,P|25:44|-5:55,1,55.9999982910157,0|0,0:0|0:0,0:0:0:0:
62,172,9228,2,0,P|34:149|-5:139,1,55.9999982910157,0|0,1:0|0:0,0:0:0:0:
101,90,9478,2,0,P|140:91|220:135,1,111.999996582031,8|0,0:0|3:0,0:0:0:0:
310,1,9853,5,0,0:0:0:0:
310,1,9978,2,0,P|277:15|283:95,1,111.999996582031,2|0,3:2|3:0,0:0:0:0:
339,178,10353,1,0,3:0:0:0:
339,178,10478,2,0,P|285:207|240:262,1,111.999996582031,8|0,0:0|3:0,0:0:0:0:
264,329,10853,1,0,0:0:0:0:
264,329,10978,2,0,L|273:406,2,55.9999982910157,0|0|8,3:0|3:0|0:0,3:0:0:0:
305,298,11478,5,8,0:0:0:0:
220,357,11603,1,8,0:0:0:0:
315,338,11728,5,0,3:0:0:0:
215,308,11853,1,8,0:0:0:0:
130,368,11978,6,0,P|94:368|15:310,1,111.999996582031,0|0,3:0|3:0,0:0:0:0:
29,331,12353,1,0,0:0:0:0:
1,256,12478,2,0,P|35:230|115:253,1,111.999996582031,8|0,0:0|0:0,0:0:0:0:
211,152,12853,6,0,P|229:103|281:35,1,111.999996582031,8|8,0:0|0:0,0:0:0:0:
136,11,13228,2,0,L|151:80,2,55.9999982910157,0|0|8,0:0|3:0|0:0,0:0:0:0:
0,106,13728,5,0,3:0:0:0:
0,106,13853,1,0,0:0:0:0:
0,106,13978,2,0,P|37:110|110:155,1,111.999996582031,0|0,3:0|3:0,0:0:0:0:
189,174,14353,1,0,3:0:0:0:
189,174,14478,2,0,P|204:212|203:244,1,55.9999982910157,0|0,3:0|0:0,0:0:0:0:
253,117,14728,1,0,0:0:0:0:
253,117,14853,2,0,P|270:84|357:47,1,111.999996582031,8|8,0:0|0:0,0:0:0:0:
457,85,15228,5,0,3:0:0:0:
384,113,15353,1,8,0:0:0:0:
457,85,15478,2,0,L|467:25,1,55.9999982910157,8|8,0:0|0:0,0:0:0:0:
457,239,15728,2,0,L|467:179,1,55.9999982910157,0|8,3:0|0:0,0:0:0:0:
465,339,15978,6,0,L|486:209,1,111.999996582031,0|0,3:0|0:0,0:0:0:0:
384,294,16353,1,0,0:0:0:0:
384,294,16478,2,0,P|345:303|301:372,1,111.999996582031,8|0,0:0|0:0,0:0:0:0:
127,274,16853,2,0,P|181:274|242:299,1,111.999996582031,8|0,0:0|3:0,0:0:0:0:
296,231,17228,2,0,L|304:171,2,55.9999982910157,0|0|8,3:0|3:0|0:0,0:0:0:0:
89,356,17728,5,0,3:0:0:0:
89,356,17853,1,0,0:0:0:0:
89,356,17978,2,0,L|165:369,1,55.9999982910157,8|0,0:0|0:0,0:0:0:0:
31,208,18228,5,0,3:0:0:0:
39,217,18353,1,0,0:0:0:0:
78,235,18478,1,0,3:0:0:0:
86,244,18603,1,0,0:0:0:0:
129,268,18728,2,0,L|205:281,1,55.9999982910157,8|0,0:0|0:0,0:0:0:0:
160,183,18978,6,0,L|236:196,2,55.9999982910157,0|0|0,3:0|0:0|3:0,0:0:0:0:
491,24,19478,6,0,L|464:28,6,13.9999995727539,0|0|0|0|0|0|0,3:0|3:0|3:0|3:0|3:0|3:0|3:0,3:0:0:0:
494,101,19728,2,0,P|460:132|452:166,1,55.9999982910157,0|0,3:0|3:0,0:0:0:0:
373,20,19978,6,0,B|400:39|395:66|395:66|331:19|230:31,1,191.999994140625,2|0,1:2|0:0,0:0:0:0:
264,28,20353,1,0,0:0:0:0:
204,87,20478,2,0,P|195:132|202:177,1,71.9999978027344,8|0,0:0|0:0,0:0:0:0:
115,173,20728,5,0,3:0:0:0:
115,173,20853,2,0,P|160:188|253:252,1,143.999995605469,8|8,0:0|0:0,0:0:0:0:
278,384,21228,2,0,P|281:348|304:300,1,71.9999978027344,0|0,3:0|0:0,0:0:0:0:
386,314,21478,6,0,L|162:370,1,215.999993408203,10|0,0:2|0:0,0:0:0:0:
125,286,21978,6,0,P|62:309|-10:240,2,143.999995605469,0|0|8,1:0|3:0|0:0,0:0:0:0:
143,127,22728,1,0,3:0:0:0:
143,127,22853,2,0,P|86:137|-15:195,1,143.999995605469,8|8,0:0|0:0,0:0:0:0:
154,26,23228,2,0,P|208:51|239:55,1,71.9999978027344
322,199,23478,5,10,0:2:0:0:
374,188,23603,1,2,0:2:0:0:
443,211,23728,1,2,3:2:0:0:
495,274,23853,1,10,0:2:0:0:
488,365,23978,5,2,1:2:0:0:
491,380,24228,1,0,0:0:0:0:
186,275,24478,6,0,L|193:228,1,35.9999989013672,8|0,0:0|0:0,0:0:0:0:
288,206,24728,2,0,L|295:159,1,35.9999989013672,8|0,0:0|0:0,0:0:0:0:
495,9,24978,6,0,P|469:33|437:49,1,71.9999978027344,2|8,1:2|0:0,0:0:0:0:
508,166,25227,2,0,P|481:144|446:135,1,71.9999978027344,0|0,3:0|3:0,0:0:0:0:
359,26,25478,2,0,P|300:64|222:74,1,143.999995605469,8|0,0:0|0:0,0:0:0:0:
59,23,25853,5,0,0:0:0:0:
59,23,25978,2,0,P|126:41|124:121,1,143.999995605469,2|0,1:2|3:0,0:0:0:0:
98,192,26353,1,0,3:0:0:0:
98,192,26478,2,0,P|60:203|27:222,1,71.9999978027344,8|0,0:0|0:0,0:0:0:0:
98,356,26728,2,0,P|107:310|92:264,1,71.9999978027344,0|0,3:0|0:0,0:0:0:0:
252,312,26978,2,0,L|259:387,2,71.9999978027344,2|0|8,1:2|3:0|0:0,0:0:0:0:
207,298,27478,5,8,0:0:0:0:
292,357,27603,1,8,0:0:0:0:
197,338,27728,5,0,3:0:0:0:
297,308,27853,1,8,0:0:0:0:
382,368,27978,6,0,P|418:368|501:281,1,143.999995605469,2|0,1:2|0:0,0:0:0:0:
496,301,28353,1,0,0:0:0:0:
406,282,28478,2,0,P|393:216|397:191,1,71.9999978027344,8|0,0:0|0:0,0:0:0:0:
508,18,28728,1,0,3:0:0:0:
508,18,28853,2,0,P|487:37|451:173,1,143.999995605469,8|8,0:0|0:0,0:0:0:0:
361,126,29228,2,0,P|323:106|264:102,1,71.9999978027344,0|0,0:0|3:0,0:0:0:0:
134,46,29478,5,10,0:2:0:0:
119,97,29603,1,0,0:0:0:0:
147,165,29728,1,0,3:0:0:0:
213,212,29853,1,0,0:0:0:0:
304,199,29978,6,0,P|252:242|234:329,1,143.999995605469,2|0,1:2|3:0,0:0:0:0:
132,317,30353,1,0,3:0:0:0:
132,317,30478,2,0,P|151:352|157:386,1,71.9999978027344,8|0,0:0|0:0,0:0:0:0:
47,269,30728,1,0,3:0:0:0:
47,269,30853,2,0,L|22:102,1,143.999995605469,8|0,0:0|0:0,0:0:0:0:
123,79,31228,5,0,0:0:0:0:
151,5,31353,1,0,3:0:0:0:
123,79,31478,2,0,L|51:91,1,71.9999978027344,8|0,0:0|0:0,0:0:0:0:
282,91,31728,2,0,L|203:104,1,71.9999978027344,0|0,3:0|3:0,0:0:0:0:
369,15,31978,6,0,P|328:47|313:148,1,143.999995605469,2|0,1:2|3:0,0:0:0:0:
213,200,32353,1,0,0:0:0:0:
213,200,32478,2,0,P|264:211|343:266,1,143.999995605469,8|0,0:0|3:0,0:0:0:0:
405,322,32853,2,0,P|373:382|372:408,1,71.9999978027344,8|0,0:0|1:0,0:0:0:0:
503,241,33103,1,0,0:0:0:0:
503,241,33228,2,0,L|495:157,2,71.9999978027344,0|0|8,3:0|3:0|0:0,0:0:0:0:
466,64,33728,5,0,3:0:0:0:
466,64,33853,1,0,3:0:0:0:
466,64,33978,1,2,1:2:0:0:
262,183,34228,2,0,L|203:173,1,35.9999989013672,0|0,3:0|0:0,0:0:0:0:
395,297,34478,5,8,0:0:0:0:
344,209,34728,2,0,L|285:219,1,35.9999989013672
113,214,34978,5,2,1:2:0:0:
82,207,35103,1,0,0:0:0:0:
51,200,35228,1,8,0:0:0:0:
62,295,35478,6,8,L|73:377,1,71.9999978027344,0|8,0:0|0:0,0:0:0:0:
100,119,35728,2,0,L|89:37,1,71.9999978027344,0|8,1:0|0:0,0:0:0:0:
14,223,35978,6,0,B|4:205|4:205|106:179|184:281,1,191.999994140625,2|0,1:2|0:0,0:0:0:0:
406,300,36478,5,10,0:2:0:0:
257,380,36728,2,0,P|247:333|261:240,1,143.999995605469,2|8,0:2|1:3,0:0:0:0:
204,181,37103,1,8,0:0:0:0:
212,171,37228,2,0,P|233:133|240:87,1,71.9999978027344,2|0,0:2|0:0,0:0:0:0:
168,25,37478,1,10,0:0:0:0:
391,23,37728,6,0,P|335:90|342:171,2,143.999995605469,10|0|2,0:3|1:0|3:2,0:0:0:0:
477,88,38353,1,0,3:0:0:0:
489,100,38478,2,0,P|442:109|411:122,1,71.9999978027344,8|0,0:0|0:0,0:0:0:0:
350,230,38728,2,0,P|385:242|419:269,1,71.9999978027344,2|8,3:2|0:0,0:0:0:0:
430,364,38978,5,8,1:3:0:0:
430,364,39103,1,0,0:0:0:0:
430,364,39228,1,2,0:0:0:0:
499,197,39478,1,0,0:0:0:0:
304,248,39728,2,0,P|264:268|204:274,1,71.9999978027344,10|0,3:3|0:0,3:0:0:0:
135,378,39978,6,0,P|91:338|-7:315,1,143.999995605469,8|0,1:3|3:0,0:0:0:0:
135,262,40353,1,0,3:0:0:0:
150,274,40478,2,0,L|130:104,1,143.999995605469,8|8,0:0|0:0,0:0:0:0:
366,17,40978,2,0,L|352:95,1,71.9999978027344,8|0,1:3|0:0,0:0:0:0:
278,70,41228,2,0,L|292:-8,1,71.9999978027344,8|8,0:0|3:0,0:0:0:0:
98,50,41478,2,0,B|115:79|115:79|177:85|227:140,1,143.999995605469,0|8,0:0|3:0,0:0:0:0:
294,193,41853,1,0,0:0:0:0:
286,212,41978,6,0,P|336:192|442:179,2,143.999995605469,10|10|0,1:3|0:0|3:0,0:0:0:0:
286,212,42603,1,0,3:0:0:0:
286,212,42728,1,2,3:2:0:0:
98,334,42978,2,0,L|0:347,2,71.9999978027344,8|0|10,1:3|0:0|0:2,0:0:0:0:
251,384,43478,6,0,P|250:343|228:295,1,71.9999978027344,10|0,0:0|0:0,0:0:0:0:
337,150,43728,2,0,P|338:191|360:239,1,71.9999978027344,8|0,0:3|0:0,0:0:0:0:
472,282,43978,6,0,L|464:367,1,80,0|0,1:0|0:0,0:0:0:0:
391,337,44228,2,0,L|395:290,1,47.9999985351563,8|0,0:0|0:0,0:0:0:0:
319,270,44478,2,0,L|311:354,1,80,2|0,1:2|0:0,0:0:0:0:
238,321,44728,2,0,L|232:386,1,47.9999985351563,10|0,0:2|0:0,0:0:0:0:
1,275,44978,6,0,L|8:359,1,80,0|0,1:0|0:0,0:0:0:0:
81,329,45228,2,0,L|78:282,1,47.9999985351563,10|0,0:2|0:0,0:0:0:0:
154,262,45478,2,0,L|161:346,1,80,2|0,1:2|0:0,0:0:0:0:
234,243,45728,1,10,0:2:0:0:
234,243,45853,1,8,0:0:0:0:
139,214,45978,6,0,L|146:298,1,80,2|0,1:2|0:0,0:0:0:0:
214,167,46228,2,0,L|218:215,1,47.9999985351563,10|0,0:2|0:0,0:0:0:0:
295,226,46478,2,0,L|288:146,1,80,0|0,1:0|0:0,0:0:0:0:
370,204,46728,2,0,L|373:251,1,47.9999985351563,10|0,0:2|0:0,0:0:0:0:
497,142,46978,6,0,L|489:226,1,80,0|0,1:0|0:0,0:0:0:0:
421,95,47228,2,0,L|417:142,1,47.9999985351563,10|0,0:2|0:0,0:0:0:0:
264,152,47478,2,8,L|266:120,2,20,0|0|0,0:0|0:0|0:0,0:0:0:0:
191,190,47603,2,0,L|187:237,1,40
118,118,47728,2,0,L|109:214,1,80,10|8,1:2|0:2,0:0:0:0:
6,52,47978,6,0,P|46:45|86:12,1,80,8|8,0:2|0:2,0:0:0:0:
110,197,48228,2,0,P|77:174|38:167,1,80,8|8,0:2|0:2,0:0:0:0:
242,0,48478,6,0,P|204:48|194:90,1,80,8|8,0:2|0:2,0:0:0:0:
247,308,48728,2,0,P|285:260|295:218,1,80,8|8,0:2|0:2,0:0:0:0:
361,106,48978,6,0,P|304:120|261:115,1,80,8|8,1:2|0:2,0:0:0:0:
430,194,49228,2,0,P|469:195|507:207,1,80,8|8,0:2|0:2,0:0:0:0:
488,293,49478,5,8,0:2:0:0:
443,327,49603,1,8,0:2:0:0:
375,295,49728,1,8,0:2:0:0:
323,358,49853,1,8,0:2:0:0:
254,240,49978,6,0,L|258:280,7,40,8|8|8|8|8|8|8|8,1:2|0:2|0:2|0:2|0:2|0:2|0:2|0:2,0:0:0:0:
238,299,50478,2,0,L|242:259,7,40,8|8|8|8|8|8|8|8,1:2|0:2|0:2|0:2|0:2|0:2|0:2|0:2,0:0:0:0:
156,257,50978,6,0,B|172:283|172:283|294:278|396:326,1,240,2|0,1:2|0:0,0:2:0:0:
376,317,51478,2,0,P|346:342|337:390,2,80,10|0|4,0:0|0:0|1:0,0:0:0:0:
504,23,51978,6,2,B|454:36|428:75|456:86|415:151|346:147,1,207.999990478516,4|10,1:2|0:2,0:1:0:0:
351,147,52353,1,2,1:2:0:0:
371,1,52478,6,2,B|348:33|348:33|360:121,4,68.0000012969971,0|0|0|0|0,1:2|1:2|1:2|1:2|1:2,1:2:0:0:
172,1,52853,1,2,1:2:0:0:
172,1,52915,1,0,1:2:0:0:
172,1,52978,2,0,B|188:31|188:31|174:83,4,68.0000012969971,8|0|2|0|2,0:2|0:0|1:2|0:0|1:2,0:0:0:0:
267,165,53353,6,0,L|267:96,1,68.0000012969971,2|0,1:2|1:2,0:0:0:0:
267,97,53478,2,2,B|83:139|83:139|64:95|12:85,1,272.000005187988,14|0,0:2|0:2,0:1:0:0:
6,166,53853,5,0,0:0:0:0:
105,41,53978,2,2,P|69:100|74:246,1,207.999990478516,4|0,1:2|1:0,0:1:0:0:
227,368,54353,2,0,L|304:383,2,51.999997619629,8|0|0,0:0|1:0|1:0,0:0:0:0:
180,293,54603,5,10,0:2:0:0:
101,316,54728,1,2,1:2:0:0:
22,339,54853,1,10,0:2:0:0:
45,265,54978,5,2,1:2:0:0:
131,352,55103,1,10,0:2:0:0:
232,280,55228,2,0,L|278:268,6,30.0000011444092,2|0|0|0|0|0|0,1:2|1:0|1:0|1:0|1:0|1:0|1:0,0:0:0:0:
319,217,55478,6,0,P|339:265|334:314,1,88.000002685547,2|2,1:1|1:1,0:0:0:0:
491,331,55728,2,0,P|440:333|397:351,1,88.000002685547,2|2,1:1|1:1,0:0:0:0:
218,368,55978,6,2,L|252:131,1,207.999990478516,4|8,1:2|0:0,0:1:0:0:
247,162,56353,1,2,1:2:0:0:
106,261,56478,6,2,B|74:238|74:238|-14:250,4,68.0000012969971,10|0|0|0|10,0:2|0:0|1:0|0:0|0:2,0:1:0:0:
112,128,56853,1,2,1:2:0:0:
112,128,56915,1,2,1:2:0:0:
112,128,56978,2,0,B|82:144|82:144|30:130,6,68.0000012969971,10|10|2|2|10|10|2,0:2|0:2|1:2|1:2|0:2|0:2|1:2,0:0:0:0:
76,57,57478,5,2,1:1:0:0:
184,23,57603,1,2,1:1:0:0:
76,57,57728,2,2,B|180:93|126:135|243:171,1,204.000003890991,8|0,0:0|0:0,0:1:0:0:
297,122,57978,6,0,P|288:55|268:-13,1,103.999995239258,4|2,1:2|1:2,0:0:0:0:
466,0,58228,2,0,P|475:67|495:135,1,103.999995239258,10|2,0:2|1:2,0:0:0:0:
382,56,58478,2,0,L|424:286,1,207.999990478516,2|10,1:2|0:2,0:0:0:0:
402,347,58853,1,2,1:2:0:0:
402,347,58978,2,0,P|463:352|509:382,1,103.999995239258,2|0,1:2|0:0,0:0:0:0:
216,330,59228,6,8,L|223:281,2,25.9999988098145
294,305,59353,2,0,L|284:369,2,51.999997619629,0|0|6,1:0|0:0|1:2,0:0:0:0:
254,16,59728,1,8,0:0:0:0:
0,350,59978,6,2,B|17:317|17:317|203:261|203:261|224:222,1,272.000005187988,6|0,1:2|0:0,2:1:0:0:
58,276,60478,1,6,1:2:0:0:
118,382,60603,1,0,0:0:0:0:
58,276,60728,2,8,L|188:302,1,103.999995239258,10|0,0:0|1:0,0:0:0:0:
443,191,60978,5,10,0:2:0:0:
409,271,61103,1,0,1:0:0:0:
323,241,61228,1,10,0:2:0:0:
409,271,61353,1,2,1:2:0:0:
326,334,61478,6,2,P|297:280|179:214,1,155.999992858887,0|0,1:0|0:0,0:1:0:0:
157,183,61728,2,0,P|189:155|252:155,1,103.999995239258,10|0,0:2|3:0,0:0:0:0:
507,0,61978,6,0,L|514:46,3,35.9999989013672,10|0|0|0,0:0|1:0|1:0|1:0,0:0:0:0:
439,77,62228,2,0,L|428:7,3,51.999997619629,10|0|2|0,0:0|0:0|1:2|0:0,0:0:0:0:
340,42,62478,6,0,L|355:-11,2,44.0000013427735,10|0|0,0:2|1:0|1:0,0:0:0:0:
329,177,62728,5,2,1:2:0:0:
329,177,62853,1,2,1:2:0:0:
213,85,62978,6,0,B|88:67|155:11|12:-3,1,207.999990478516,6|10,1:2|0:2,0:1:0:0:
97,154,63353,2,0,L|120:239,1,51.999997619629
9,133,63478,5,10,0:2:0:0:
176,135,63603,1,10,0:2:0:0:
27,211,63728,1,10,0:2:0:0:
27,211,63978,6,0,P|51:288|28:379,2,160,6|0|10,1:0|1:0|0:2,0:0:0:0:
154,266,64603,1,2,3:2:0:0:
154,266,64728,2,0,P|131:306|130:345,1,80,2|2,3:2|3:2,0:0:0:0:
300,377,64978,6,0,L|482:351,1,160,2|2,1:2|3:2,0:0:0:0:
486,284,65353,1,2,1:2:0:0:
352,253,65478,6,0,L|317:246,6,20,10|0|0|0|0|0|0,0:2|0:0|0:0|0:0|0:0|0:0|0:0,0:0:0:0:
352,253,65728,2,0,P|370:301|367:343,1,80,0|0,1:0|1:0,0:0:0:0:
402,191,65978,6,2,P|427:167|494:152,1,103.999995239258,6|0,1:2|0:0,0:1:0:0:
256,280,66228,2,0,L|135:263,1,103.999995239258,0|0,1:0|1:0,0:0:0:0:
277,2,66478,2,2,B|308:31|308:31|249:104|283:205,1,207.999990478516,8|2,0:0|1:2,0:1:0:0:
277,187,66853,1,10,0:1:0:0:
230,121,66978,6,0,L|178:112,1,51.999997619629,0|0,1:0|1:0,0:0:0:0:
304,81,67103,2,0,L|356:72,1,51.999997619629,2|0,1:0|1:0,0:0:0:0:
266,15,67228,5,10,0:1:0:0:
266,15,67353,1,2,1:0:0:0:
189,38,67478,1,10,0:1:0:0:
112,65,67603,1,2,0:1:0:0:
46,151,67728,6,0,P|66:199|38:154,1,155.999992858887,10|0,0:2|0:0,0:0:0:0:
36,154,67978,2,2,P|59:181|61:298,1,155.999992858887,4|0,1:2|0:0,0:1:0:0:
27,363,68228,6,8,L|32:323,4,25.9999988098145
77,37,68478,6,0,L|17:25,6,51.999997619629,0|0|0|0|0|0|0,1:0|1:0|1:0|1:0|1:0|1:0|1:0,0:0:0:0:
210,73,68978,1,0,1:0:0:0:
210,73,69040,2,0,L|270:85,5,51.999997619629,0|0|0|0|0|0,1:0|1:0|1:0|1:0|1:0|1:0,0:0:0:0:
160,137,69478,5,8,0:0:0:0:
25,149,69603,2,0,B|-14:154|-14:154|28:50|130:71,1,207.999990478516,0|0,0:0|1:0,0:0:0:0:
238,0,69978,6,2,B|277:111|173:100|231:222,1,204.000003890991,0|0,1:0|0:0,0:1:0:0:
251,277,70228,6,8,L|247:302,4,25.9999988098145,0|0|0|0|0,1:0|1:0|1:0|1:0|1:0,1:0:0:0:
509,327,70478,6,0,L|459:338,6,51.999997619629,0|0|0|0|0|0|0,1:0|1:0|1:0|1:0|1:0|1:0|1:0,0:0:0:0:
275,384,70978,1,0,1:0:0:0:
275,384,71040,2,0,L|326:374,5,51.999997619629,0|0|0|0|0|0,0:0|1:0|1:0|1:0|1:0|1:0,0:0:0:0:
381,309,71478,6,0,P|409:309|463:276,1,80,2|2,1:1|1:1,0:0:0:0:
454,98,71728,2,0,P|420:77|381:75,2,80,10|2|0,0:1|1:1|1:0,0:0:0:0:
480,178,72103,5,0,0:0:0:0:
488,17,72228,2,0,P|448:41|398:166,1,180.000006866455,8|0,0:0|0:0,0:0:0:0:
341,243,72478,6,0,L|353:303,6,51.999997619629,0|0|0|0|0|0|0,1:0|1:0|1:0|1:0|1:0|1:0|1:0,0:0:0:0:
171,141,72978,1,0,1:0:0:0:
171,141,73040,2,0,L|159:81,5,51.999997619629,0|0|0|0|0|0,1:0|1:0|1:0|1:0|1:0|1:0,0:0:0:0:
297,177,73478,5,8,0:1:0:0:
215,207,73603,1,2,0:1:0:0:
297,177,73728,1,2,0:2:0:0:
215,207,73853,1,0,0:0:0:0:
279,263,73978,6,2,B|245:235|115:165|-21:297|22:381|140:394|154:333|145:289,1,391.99998803711,4|0,1:2|0:0,0:1:0:0:
228,321,74978,2,0,P|203:287|13:230,2,240,2|0|0,1:0|1:0|3:3,0:1:0:0:
228,321,75853,1,0,0:0:0:0:
400,328,75978,6,2,P|320:354|298:388,1,120,4|0,1:2|0:0,0:1:0:0:
293,265,76228,2,0,P|298:220|282:162,1,80,0|0,1:2|1:2,0:0:0:0:
478,204,76478,6,2,L|393:226,1,80,2|0,1:2|0:0,0:1:0:0:
410,21,76728,1,2,1:2:0:0:
410,21,76853,1,0,1:0:0:0:
512,127,76978,2,2,L|345:97,1,160,2|2,1:2|1:2,0:1:0:0:
146,0,77353,5,2,1:2:0:0:
191,136,77478,1,10,0:2:0:0:
189,31,77603,5,10,0:2:0:0:
151,109,77728,1,10,0:0:0:0:
45,352,77978,6,0,P|35:301|0:240,1,120,2|0,1:1|0:0,0:0:0:0:
145,302,78228,2,0,P|130:343|132:396,1,80,2|0,1:2|1:0,0:0:0:0:
95,218,78478,6,2,L|277:179,1,160,8|2,0:0|1:2,0:1:0:0:
166,27,78853,2,2,L|9:60,2,160,10|10|8,0:1|0:0|0:0,0:1:0:0:
181,148,79415,5,8,0:0:0:0:
181,148,79478,2,8,L|82:129,1,80,10|2,0:2|1:2,0:0:0:0:
228,283,79728,2,0,L|327:302,1,80,2|2,1:2|1:2,0:0:0:0:
475,143,79978,6,2,P|470:87|510:0,1,120,0|0,1:2|0:0,0:1:0:0:
315,19,80228,2,0,P|371:32|412:70,1,80,2|0,1:2|1:0,0:0:0:0:
466,229,80478,6,2,L|452:320,1,80,2|0,1:2|0:0,0:1:0:0:
245,317,80728,1,10,0:2:0:0:
245,317,80853,1,2,1:2:0:0:
340,217,80978,2,0,L|370:399,1,160,2|2,1:1|1:2,0:0:0:0:
182,194,81353,6,0,L|289:173,1,80,2|10,1:2|0:0,0:0:0:0:
98,181,81603,1,10,0:1:0:0:
71,285,81728,1,10,0:1:0:0:
0,205,81853,1,10,0:1:0:0:
71,285,81978,6,0,B|168:306|117:337|233:356,1,160,2|10,1:2|0:2,0:0:0:0:
213,352,82353,1,0,0:0:0:0:
48,363,82478,2,0,B|170:343|119:294|255:269,1,207.999990478516,2|10,1:2|0:2,0:0:0:0:
508,36,82978,6,0,P|481:81|476:125,1,80,2|2,1:2|1:2,0:0:0:0:
374,75,83228,2,0,P|392:38|391:-10,1,80,2|10,1:2|0:2,0:0:0:0:
476,192,83478,5,2,1:2:0:0:
478,206,83603,1,0,1:0:0:0:
403,155,83728,1,0,1:0:0:0:
400,168,83853,1,0,1:0:0:0:
343,265,83978,6,2,B|352:292|352:292|483:349|483:349|501:409,2,207.999990478516,4|2|10,1:2|1:1|0:0,0:0:0:0:
470,6,84728,6,0,B|448:42|448:42|486:226,1,207.999990478516,2|2,3:1|3:2,0:0:0:0:
244,384,85228,2,0,B|266:348|266:348|228:164,1,207.999990478516,2|10,3:1|0:0,0:0:0:0:
18,73,85728,2,0,B|-4:109|-4:109|16:201,1,103.999995239258,10|2,0:1|1:2,0:0:0:0:
145,274,85978,6,0,L|367:297,2,207.999990478516,2|2|10,1:2|1:0|0:2,0:0:0:0:
485,261,86728,6,0,B|509:346|509:346|394:384,1,207.999990478516,2|10,3:1|0:2,0:0:0:0:
48,260,87228,1,2,3:1:0:0:
48,260,87353,1,0,3:0:0:0:
48,260,87478,2,0,B|33:210|33:210|101:187,1,103.999995239258,8|0,0:0|0:0,0:0:0:0:
249,263,87728,6,0,L|244:322,2,40,2|0|0,0:1|0:0|0:0,0:0:0:0:
333,37,87978,6,2,B|363:60|363:60|495:36|495:36|527:-20,2,207.999990478516,4|2|10,1:2|1:1|0:0,0:0:0:0:
20,384,88728,6,0,B|31:365|31:365|3:263|35:168,1,207.999990478516,2|2,3:1|3:2,0:0:0:0:
234,0,89228,2,0,B|245:19|245:19|217:121|249:216,1,207.999990478516,2|10,3:1|0:0,0:0:0:0:
469,313,89728,2,0,B|480:294|480:294|459:248|473:182,1,103.999995239258,10|2,0:1|1:2,0:0:0:0:
336,141,89978,6,0,L|114:118,2,207.999990478516,2|2|10,1:2|1:0|0:2,0:0:0:0:
501,78,90728,6,0,B|520:103|520:103|435:95,1,103.999995239258,2|2,3:1|3:2,0:0:0:0:
407,20,90978,1,10,0:2:0:0:
233,130,91228,1,2,3:1:0:0:
59,240,91478,2,0,B|21:206|21:206|175:221,1,195.999994018555,8|0,0:0|0:0,0:0:0:0:
182,296,91978,6,2,P|158:341|42:333,2,176.000005371094,6|10|2,1:2|0:1|1:0,0:1:0:0:
270,354,92603,1,0,1:0:0:0:
270,354,92665,1,0,1:0:0:0:
270,354,92728,2,0,P|313:361|355:390,1,88.000002685547,10|2,0:1|3:2,0:0:0:0:
512,233,92978,2,2,P|455:234|330:293,2,176.000005371094,2|8|2,1:2|0:0|1:0,0:1:0:0:
439,279,93603,1,0,0:0:0:0:
409,159,93728,2,0,P|417:108|408:63,1,88.000002685547,10|8,0:1|0:0,0:0:0:0:
235,23,93978,5,2,1:1:0:0:
235,23,94103,1,0,1:0:0:0:
235,23,94228,2,0,P|215:64|215:120,1,88.000002685547,10|0,0:1|0:0,0:0:0:0:
161,175,94478,1,2,1:0:0:0:
61,89,94603,2,0,P|43:78|4:74,2,44.0000013427735,0|0|10,1:0|0:0|0:1,0:0:0:0:
73,178,94853,1,0,3:0:0:0:
73,178,94978,2,2,P|66:224|31:269,2,88.000002685547,0|0|10,1:0|0:0|0:1,0:1:0:0:
294,315,95478,5,2,1:1:0:0:
215,297,95603,1,0,3:0:0:0:
272,236,95728,5,10,0:1:0:0:
239,382,95853,1,10,0:2:0:0:
272,236,95978,6,2,P|253:152|282:62,2,176.000005371094,2|10|2,1:2|0:1|1:0,0:1:0:0:
141,342,96603,1,0,1:2:0:0:
141,342,96665,1,0,1:0:0:0:
141,342,96728,2,0,P|87:364|61:392,1,88.000002685547,10|2,0:1|3:2,0:0:0:0:
72,144,96978,2,2,P|120:150|148:280,1,176.000005371094,2|10,1:2|0:1,0:1:0:0:
83,228,97353,1,0,3:0:0:0:
162,256,97478,2,0,P|199:237|255:236,1,88.000002685547,2|0,1:0|3:0,0:0:0:0:
114,55,97728,5,10,0:1:0:0:
114,55,97853,1,0,1:0:0:0:
114,55,97978,2,0,P|71:47|27:21,1,88.000002685547,2|2,1:0|1:2,0:0:0:0:
267,20,98228,2,2,P|333:21|420:94,1,176.000005371094,10|0,0:2|1:0,0:1:0:0:
426,243,98603,1,0,0:0:0:0:
459,168,98728,2,0,P|480:151|528:132,2,44.0000013427735,10|0|2,0:1|0:0|3:2,0:0:0:0:
307,124,98978,5,2,1:0:0:0:
307,124,99040,1,0,1:0:0:0:
307,124,99103,2,0,P|263:130|218:162,1,88.000002685547,0|10,1:0|0:1,0:0:0:0:
300,353,99353,2,0,P|344:347|389:315,1,88.000002685547,2|14,3:2|0:1,0:0:0:0:
307,240,99978,5,0,1:0:0:0:
256,192,105978,12,0,107915,0:0:0:0:
191,161,107978,6,0,B|281:180|230:208|348:231,1,143.999995605469,0|0,1:0|1:0,1:0:0:0:
256,192,108353,12,0,111915,0:0:0:0:
309,118,111978,6,0,B|302:208|202:176|201:302,1,191.999994140625,0|0,1:0|1:0,1:0:0:0:
256,192,112353,12,0,115915,3:0:0:0:
55,177,115978,6,0,B|61:308|167:252|162:422,1,240.000009155274,0|0,1:0|1:0,1:0:0:0:
161,384,116478,6,0,L|89:371,1,71.9999978027344,8|0,0:0|0:0,0:0:0:0:
0,337,116728,2,0,L|72:350,1,71.9999978027344,0|0,1:0|0:0,0:0:0:0:
168,374,116978,6,0,L|96:361,1,71.9999978027344,0|0,1:0|0:0,0:0:0:0:
7,327,117228,2,0,L|79:340,1,71.9999978027344,8|0,0:0|0:0,0:0:0:0:
178,365,117478,6,0,L|106:352,1,71.9999978027344,8|0,0:0|0:0,0:0:0:0:
17,318,117728,2,0,L|89:331,1,71.9999978027344,0|0,1:0|0:0,0:0:0:0:
162,235,117978,6,0,B|194:123|275:166|292:30,1,240.000009155274,0|0,1:0|1:0,1:0:0:0:
291,41,118478,6,0,L|306:145,1,71.9999978027344,8|0,0:0|0:0,0:0:0:0:
163,84,118728,2,0,L|148:-20,1,71.9999978027344,0|0,1:0|0:0,0:0:0:0:
302,53,118978,6,0,L|317:157,1,71.9999978027344,0|0,1:0|0:0,0:0:0:0:
174,96,119228,2,0,L|159:-8,1,71.9999978027344,0|0,1:0|0:0,0:0:0:0:
312,64,119478,6,0,L|327:168,1,71.9999978027344,8|0,0:0|0:0,0:0:0:0:
184,107,119728,2,0,L|169:3,1,71.9999978027344,0|0,1:0|0:0,0:0:0:0:
502,0,119978,5,0,1:0:0:0:
494,40,120103,1,0,1:0:0:0:
487,81,120228,1,0,1:0:0:0:
479,121,120353,1,0,1:0:0:0:
472,162,120478,1,0,1:0:0:0:
464,203,120603,1,0,1:0:0:0:
456,243,120728,1,0,1:0:0:0:
449,284,120853,1,0,1:0:0:0:
488,371,120978,6,0,L|432:383,3,40,0|0|0|0,1:0|1:0|1:0|1:0,0:0:0:0:
368,285,121228,2,0,L|312:297,3,40,0|0|0|0,1:0|1:0|1:0|1:0,0:0:0:0:
267,376,121478,2,0,L|211:388,3,40,0|0|0|0,1:0|1:0|1:0|1:0,0:0:0:0:
150,356,121728,2,0,L|94:368,3,40,0|0|0|0,1:0|1:0|1:0|1:0,0:0:0:0:
162,283,121978,6,0,B|72:284|-4:257|-4:257|37:347,1,256
256,192,123040,12,0,123978,1:0:0:0:
256,192,124040,12,8,125728,0:0:0:0:
236,0,125853,5,8,0:0:0:0:
236,0,125978,2,2,B|244:91|281:41|297:156,1,155.999992858887,6|0,1:2|0:0,0:1:0:0:
294,141,126228,2,8,P|236:166|202:111,1,103.999995239258,8|0,0:0|0:0,0:0:0:0:
27,74,126478,5,2,1:2:0:0:
108,192,126603,2,0,L|115:140,5,51.999997619629,2|0|2|0|2|0,1:2|0:0|1:2|3:0|1:2|3:0,0:0:0:0:
182,237,126978,6,0,B|110:248|110:248|61:302|61:302|-30:319,2,207.999990478516,2|2|8,1:0|1:0|0:1,0:1:0:0:
20,221,127603,1,0,0:0:0:0:
155,327,127728,6,0,B|203:340|203:340|206:347|206:347|273:364,1,103.999995239258,0|0,1:0|1:0,1:0:0:0:
251,358,127978,6,0,P|281:317|262:228,1,103.999995239258,2|0,1:1|0:0,0:0:0:0:
512,297,128228,2,0,P|448:305|431:419,1,155.999992858887,2|0,1:0|0:0,0:0:0:0:
413,382,128478,6,0,L|406:329,1,51.999997619629,8|0,0:0|0:0,0:0:0:0:
301,249,128665,2,0,L|350:268,1,51.999997619629,0|0,1:0|0:0,0:0:0:0:
472,218,128853,2,0,L|429:251,1,51.999997619629,0|0,1:0|0:0,0:0:0:0:
296,148,128978,6,0,L|89:199,1,207.999990478516,8|0,0:0|1:0,0:0:0:0:
94,197,129290,1,0,1:0:0:0:
94,197,129353,1,0,1:0:0:0:
42,77,129478,6,0,L|36:133,3,55.9999982910157,10|2|2|2,0:1|3:1|3:1|3:1,0:0:0:0:
0,1,129978,6,0,B|102:20|45:68|179:87,1,155.999992858887,6|0,1:2|0:0,0:1:0:0:
196,128,130228,2,0,B|233:90|233:90|221:33,1,103.999995239258,0|0,1:0|3:0,0:0:0:0:
455,82,130477,6,0,L|468:12,2,69.3333301595054,8|8|8,0:0|0:0|0:0,0:0:0:0:
330,124,130727,2,0,L|316:57,2,69.3333301595054,8|8|8,0:0|0:0|0:0,0:0:0:0:
483,164,130978,6,0,P|446:212|440:279,1,103.999995239258,8|0,0:0|1:0,0:0:0:0:
504,313,131228,1,0,1:0:0:0:
301,294,131353,2,0,P|336:342|348:400,2,103.999995239258,8|0|0,0:0|1:0|1:0,0:0:0:0:
330,124,131728,6,0,B|319:146|319:146|218:155|138:216,1,207.999990478516,8|6,0:0|1:2,0:0:0:0:
0,285,132228,5,8,0:0:0:0:
84,270,132353,1,2,1:2:0:0:
84,270,132415,1,2,1:2:0:0:
84,270,132478,2,0,P|81:306|68:347,1,55.9999982910157,10|2,0:1|1:1,0:0:0:0:
142,384,132728,2,0,P|175:362|202:352,1,55.9999982910157,2|2,1:0|1:0,0:0:0:0:
234,204,132978,6,0,B|252:107|382:119|388:-5|248:-28|222:41|268:110,1,320,2|2,1:0|1:0,0:0:0:0:
321,228,133603,1,0,0:0:0:0:
171,274,133728,6,2,P|236:288|364:385,1,207.999990478516,2|0,0:0|0:0,0:1:0:0:
350,367,134228,6,2,B|377:326|377:326|346:207,1,136.000002593994,0|0,1:0|0:0,0:1:0:0:
460,0,134478,2,2,B|433:41|433:41|464:160,1,136.000002593994,0|0,1:0|0:0,0:1:0:0:
506,235,134728,6,0,L|415:219,1,68.0000012969971,2|0,1:0|0:0,0:0:0:0:
499,223,134853,2,0,L|408:207,1,68.0000012969971,2|0,1:0|0:0,0:0:0:0:
402,61,134978,6,0,P|304:52|263:193,1,240.000009155274,2|10,1:2|0:2,0:0:0:0:
22,33,135353,2,0,P|75:49|73:105,1,120.000004577637,2|0,1:2|1:0,0:0:0:0:
73,104,135540,1,0,1:0:0:0:
73,104,135603,1,10,0:2:0:0:
175,15,135728,6,0,L|147:217,1,180.000006866455,2|0,1:2|1:0,1:0:0:0:
204,245,135978,5,2,1:2:0:0:
126,292,136103,1,0,1:0:0:0:
62,227,136228,1,2,1:2:0:0:
81,384,136353,5,2,1:2:0:0:
81,384,136478,2,0,L|97:298,1,80,0|2,1:0|1:2,0:0:0:0:
217,259,136728,2,0,L|233:345,1,80,2|0,1:2|1:0,0:0:0:0:
377,382,136978,6,0,P|407:364|452:354,3,64,2|0|10|10,1:2|1:0|0:0|0:3,0:0:0:0:
495,299,137478,6,0,P|478:357|484:384,1,64,10|10,0:0|0:3,0:0:0:0:
319,303,137728,2,0,P|316:271|302:242,1,64,0|0,1:0|1:0,1:0:0:0:
413,86,137978,6,2,L|230:113,1,160,0|10,1:0|0:2,0:1:0:0:
22,14,138353,2,0,P|45:41|57:102,1,80,2|10,3:2|0:2,0:0:0:0:
170,161,138603,5,0,0:0:0:0:
57,83,138728,2,0,P|119:88|178:-7,2,160,2|2|10,1:2|1:2|0:2,0:0:0:0:
101,299,139353,1,0,3:0:0:0:
0,239,139478,6,0,P|20:197|140:205,1,155.999992858887,10|0,0:2|0:2,0:2:0:0:
139,231,139728,2,0,L|178:221,3,40,10|0|0|0,0:2|0:0|0:0|0:0,0:0:0:0:
232,148,139978,6,0,B|197:252|281:244|242:369,1,207.999990478516,0|0,1:0|1:0,0:1:0:0:
422,310,140353,5,0,1:0:0:0:
422,310,140415,1,0,1:0:0:0:
422,310,140478,2,0,P|402:350|397:382,1,55.9999982910157,10|0,0:1|3:0,0:0:0:0:
290,275,140728,2,0,P|331:257|355:235,1,55.9999982910157,0|0,3:0|3:0,0:0:0:0:
265,68,140978,6,0,L|259:4,3,40,2|0|0|0,1:0|0:0|1:0|1:0,0:0:0:0:
183,63,141228,2,0,B|230:72|230:72|271:114|271:114|334:124,1,160,2|0,1:0|1:0,0:0:0:0:
505,142,141603,5,2,1:0:0:0:
393,177,141728,1,8,0:1:0:0:
393,177,141790,1,0,1:1:0:0:
393,177,141853,1,0,1:1:0:0:
418,62,141978,1,2,1:0:0:0:
162,17,142228,6,2,B|135:58|135:58|166:177,1,136.000002593994,0|0,1:0|0:0,0:1:0:0:
52,384,142478,2,2,B|79:343|79:343|48:224,1,136.000002593994,0|0,1:0|0:0,0:1:0:0:
6,149,142728,6,0,L|97:165,1,68.0000012969971,2|0,1:0|0:0,0:0:0:0:
13,161,142853,2,0,L|104:177,1,68.0000012969971,2|0,1:0|0:0,0:0:0:0:
238,117,142978,6,0,P|174:171|178:354,1,240.000009155274,2|10,1:2|0:2,0:0:0:0:
299,313,143353,2,0,P|246:297|248:241,1,120.000004577637,2|0,1:2|1:0,0:0:0:0:
248,242,143540,1,0,1:0:0:0:
248,242,143603,1,10,0:2:0:0:
332,384,143728,6,0,L|360:182,1,180.000006866455,2|0,1:2|1:0,1:0:0:0:
429,168,143978,2,0,P|471:196|466:237,1,80,2|0,1:0|1:0,0:0:0:0:
472,221,144165,1,0,1:0:0:0:
472,221,144228,1,10,0:2:0:0:
512,348,144353,5,2,0:2:0:0:
512,348,144478,2,0,L|430:320,1,80,2|2,1:2|1:2,0:0:0:0:
322,214,144728,2,0,L|319:132,1,80,2|0,1:2|0:0,0:0:0:0:
450,23,144978,6,0,P|428:72|428:103,3,64,2|2|10|0,1:2|3:2|0:2|1:0,0:0:0:0:
512,107,145478,6,0,P|461:118|437:134,1,64,2|10,3:2|0:2,0:0:0:0:
292,0,145728,2,0,P|327:23|361:29,1,64,2|0,1:2|1:0,1:0:0:0:
221,158,145978,6,2,B|208:182|208:182|108:195|40:258,1,191.999994140625,0|10,1:0|0:2,0:1:0:0:
46,356,146353,2,0,P|42:293|-22:139,1,191.999994140625,2|8,1:2|0:0,0:0:0:0:
119,35,146728,2,0,P|92:78|82:149,1,95.9999970703126,2|0,1:2|1:0,0:0:0:0:
135,303,146978,6,0,L|361:346,1,191.999994140625,2|2,1:0|1:2,0:0:0:0:
419,309,147353,1,2,1:2:0:0:
475,384,147478,1,10,0:2:0:0:
456,31,147728,6,0,L|461:71,6,23.9999992675781,2|0|0|0|0|0|0,1:2|1:0|1:0|1:0|1:0|1:0|1:0,1:0:0:0:
512,128,147978,6,0,B|486:95|486:95|364:65,2,160,2|2|10,1:2|1:2|0:2,0:0:0:0:
400,166,148728,2,0,L|411:246,1,80,10|0,0:2|3:0,0:0:0:0:
180,174,148978,6,0,L|204:-5,1,167.999994873047,2|0,1:2|0:0,0:0:0:0:
258,196,149478,6,0,L|224:204,1,27.9999991455078,10|0,0:3|0:0,0:0:0:0:
104,143,149728,1,2,3:0:0:0:
28,314,149978,6,0,P|52:365|55:385,1,64,0|0,1:0|0:0,0:0:0:0:
107,288,150228,2,0,P|102:344|94:362,1,64,0|0,1:0|0:0,0:0:0:0:
211,354,150478,2,0,P|256:336|361:333,1,128,8|0,0:0|3:0,0:0:0:0:
407,370,150853,5,0,0:0:0:0:
483,227,151103,1,0,3:0:0:0:
483,227,151228,1,0,1:0:0:0:
314,240,151478,2,0,P|259:218|189:161,1,128,8|0,0:0|0:0,0:0:0:0:
224,41,151853,1,0,0:0:0:0:
224,41,151978,6,0,P|262:34|288:21,1,64,0|0,1:0|0:0,0:0:0:0:
296,107,152228,2,0,P|308:70|310:41,1,64,0|0,1:0|0:0,0:0:0:0:
153,109,152478,2,0,P|103:122|53:192,1,128,8|0,0:0|3:0,0:0:0:0:
19,75,152853,1,0,3:0:0:0:
19,75,152978,6,0,P|14:32|3:4,2,64,0|0|0,3:0|0:0|1:0,0:0:0:0:
117,266,153478,1,8,0:0:0:0:
325,220,153728,1,8,0:0:0:0:
484,314,153978,6,0,P|460:365|457:385,1,64,0|0,1:0|0:0,0:0:0:0:
404,288,154228,2,0,P|404:319|412:350,1,64,0|0,1:0|0:0,0:0:0:0:
479,182,154478,2,0,P|485:131|462:45,1,128,8|0,0:0|3:0,0:0:0:0:
391,15,154853,5,0,0:0:0:0:
201,71,155103,1,0,0:0:0:0:
201,71,155228,1,0,1:0:0:0:
334,213,155478,2,0,P|276:241|226:303,1,128,8|0,0:0|0:0,0:0:0:0:
65,368,155853,1,0,0:0:0:0:
65,368,155978,2,0,L|52:292,1,64,8|0,0:0|0:0,0:0:0:0:
78,158,156228,5,0,3:0:0:0:
87,166,156353,1,0,0:0:0:0:
105,205,156478,1,0,3:0:0:0:
114,213,156603,1,0,0:0:0:0:
138,256,156728,2,0,L|151:332,1,64,8|0,0:0|0:0,0:0:0:0:
243,337,156978,6,0,L|231:266,3,64,0|0|0|0,1:0|1:0|1:0|1:0,0:0:0:0:
485,347,157978,5,2,1:2:0:0:
485,347,158103,1,0,0:0:0:0:
379,365,158228,2,0,P|391:330|390:275,1,64,8|0,0:0|0:0,0:0:0:0:
360,276,158415,1,0,0:0:0:0:
360,276,158478,2,0,L|308:287,2,32,0|0|0,1:0|0:0|0:0,0:0:0:0:
478,258,158728,2,0,P|459:199|459:110,1,128,8|0,0:0|1:0,0:0:0:0:
456,24,159103,5,0,1:0:0:0:
413,96,159228,2,0,L|330:107,1,64,8|0,0:0|1:0,0:0:0:0:
229,21,159478,1,0,0:0:0:0:
229,21,159540,1,0,0:0:0:0:
229,21,159603,2,0,P|251:52|258:85,1,64,0|8,1:0|0:0,0:0:0:0:
330,224,159853,1,0,0:0:0:0:
261,260,159978,6,0,P|240:313|240:347,2,64,2|0|8,1:2|0:0|0:0,0:0:0:0:
179,175,160353,1,0,0:0:0:0:
179,175,160415,1,0,0:0:0:0:
179,175,160478,2,0,L|89:202,1,64,0|0,1:0|1:0,0:0:0:0:
105,204,160665,2,0,L|22:189,1,64,0|0,1:0|1:0,0:0:0:0:
27,202,160853,1,0,1:0:0:0:
15,91,160978,6,0,P|53:66|94:55,1,64,8|0,0:0|0:0,0:0:0:0:
116,28,161165,2,0,P|121:76|139:111,1,64,8|0,0:0|0:0,0:0:0:0:
178,102,161353,1,8,0:0:0:0:
105,204,161478,6,0,P|112:238|111:279,3,64,0|8|0|8,1:0|0:0|1:0|0:0,0:0:0:0:
4,308,161978,5,2,1:2:0:0:
80,350,162103,2,0,L|90:393,2,32,0|0|8,0:0|3:0|0:0,0:0:0:0:
158,279,162353,2,0,P|176:314|182:358,1,64,0|0,1:0|0:0,0:0:0:0:
232,347,162540,1,0,0:0:0:0:
232,347,162603,2,0,L|316:359,1,64
382,328,162853,1,0,0:0:0:0:
455,380,162978,5,0,1:0:0:0:
503,306,163103,2,0,L|511:269,2,32,0|0|8,0:0|0:0|0:0,0:0:0:0:
382,328,163353,5,8,1:0:0:0:
317,275,163478,2,8,L|309:238,2,32,0|0|0,0:0|0:0|0:0,0:0:0:0:
428,217,163728,5,8,0:0:0:0:
428,217,163853,1,8,0:0:0:0:
441,133,163978,2,0,L|453:54,1,64,2|0,1:2|0:0,0:0:0:0:
339,19,164228,1,8,0:0:0:0:
339,19,164353,2,0,L|354:109,1,64,8|0,0:0|1:0,0:0:0:0:
289,156,164603,1,8,0:0:0:0:
289,156,164728,2,0,L|304:66,1,64,8|0,0:0|0:0,0:0:0:0:
149,65,164978,6,0,L|106:72,7,27.9999991455078,0|0|0|0|0|0|0|0,1:0|1:0|1:0|1:0|1:0|1:0|1:0|1:0,0:0:0:0:
106,151,165478,6,8,L|187:160,7,47.9999985351563,8|8|8|8|8|8|8|8,0:0|0:0|0:0|0:0|0:0|0:0|0:0|0:0,0:0:0:0:
38,106,165978,6,0,P|51:140|56:174,1,64,2|0,1:2|1:0,0:0:0:0:
112,239,166228,2,0,P|106:274|93:306,1,64,0|0,1:0|1:0,0:0:0:0:
217,375,166478,6,8,L|297:362,7,51.999997619629,0|0|0|0|8|8|8|8,0:0|0:0|0:0|0:0|0:0|0:0|0:0|0:0,0:0:0:0:
194,286,166978,5,0,1:0:0:0:
194,286,167103,1,0,0:0:0:0:
290,281,167228,2,0,P|270:245|266:213,1,64,8|0,0:0|0:0,0:0:0:0:
232,197,167415,1,0,3:0:0:0:
232,197,167478,2,0,L|188:188,2,32,8|8|0,0:0|0:0|1:0,0:0:0:0:
305,144,167728,2,0,P|300:102|250:35,1,128,8|2,0:0|1:2,0:0:0:0:
380,3,168103,5,0,1:0:0:0:
325,64,168228,2,0,L|405:51,1,64,8|0,0:0|0:0,0:0:0:0:
494,168,168478,1,0,1:0:0:0:
494,168,168540,1,0,0:0:0:0:
494,168,168603,2,0,P|483:208|483:256,1,64,0|8,1:0|0:0,0:0:0:0:
399,381,168853,1,8,0:0:0:0:
454,322,168978,6,0,P|488:332|528:357,2,64,0|0|8,1:0|1:0|0:0,0:0:0:0:
333,287,169353,1,8,0:0:0:0:
333,287,169415,1,8,0:0:0:0:
333,287,169478,2,0,L|243:314,1,64,0|0,1:0|1:0,0:0:0:0:
259,316,169665,2,0,L|176:301,1,64,0|0,0:0|1:0,0:0:0:0:
181,314,169853,1,0,1:0:0:0:
117,246,169978,6,0,P|146:229|202:218,1,64,10|8,0:2|0:0,0:0:0:0:
227,214,170165,2,0,P|225:181|205:140,1,64,8|8,0:0|0:0,0:0:0:0:
180,115,170353,1,8,0:0:0:0:
260,67,170478,6,0,L|248:1,11,64,0|0|0|0|0|0|0|0|0|0|0|0,1:0|1:0|1:0|1:0|1:0|1:0|1:0|1:0|1:0|1:0|1:0|1:0,0:0:0:0:
249,118,171978,5,0,1:0:0:0:
255,130,172103,1,0,1:0:0:0:
250,147,172228,1,0,1:0:0:0:
260,167,172353,1,0,1:0:0:0:
245,188,172478,1,0,1:0:0:0:
269,221,172603,1,0,1:0:0:0:
230,260,172728,1,0,1:0:0:0:
272,321,172853,1,0,1:0:0:0:
209,381,172978,6,0,P|167:357|120:350,1,80,8|0,0:0|1:0,0:0:0:0:
78,300,173165,2,0,P|84:252|71:207,1,80,0|0,0:0|1:0,0:0:0:0:
70,209,173353,1,0,1:0:0:0:
11,116,173478,5,8,0:0:0:0:
115,79,173603,1,0,1:0:0:0:
115,79,173665,1,0,1:0:0:0:
115,79,173728,1,0,1:0:0:0:
161,170,173853,1,0,1:0:0:0:
237,128,173978,6,0,L|281:120,1,40,4|0,1:2|0:0,0:0:0:0:
256,192,174978,12,0,177915,0:0:0:0:
34,365,177978,6,0,B|47:315|125:283|190:297|190:297|149:336|152:378,1,240.000009155274,4|10,1:2|0:2,0:0:0:0:
249,378,178353,5,2,0:2:0:0:
249,378,178415,1,0,0:0:0:0:
249,378,178478,2,0,P|290:383|332:364,1,80,2|0,3:2|3:0,0:0:0:0:
382,301,178728,1,10,0:2:0:0:
499,348,178853,5,2,1:2:0:0:
419,384,178978,2,0,P|418:338|465:217,1,160,2|10,1:2|0:2,0:0:0:0:
391,172,179353,1,2,3:2:0:0:
391,172,179478,2,0,P|334:154|292:153,1,80,2|10,3:2|0:2,0:0:0:0:
495,14,179728,5,2,1:2:0:0:
495,14,179978,2,0,B|475:45|475:45|383:34|300:72,1,207.999990478516,2|10,1:0|0:2,0:0:0:0:
230,121,180353,5,8,0:0:0:0:
160,68,180478,1,2,3:2:0:0:
160,68,180540,1,0,0:0:0:0:
160,68,180603,2,0,P|142:109|142:155,2,80,0|10|0,3:0|0:2|0:0,0:0:0:0:
32,12,180978,6,2,P|50:69|22:230,1,207.999990478516,2|10,1:2|0:2,0:1:0:0:
111,301,181353,1,10,0:2:0:0:
7,303,181478,5,10,0:2:0:0:
105,280,181603,1,10,0:2:0:0:
138,372,181728,2,0,P|181:357|238:357,1,80,10|8,0:2|0:0,0:0:0:0:
474,365,181978,6,2,B|450:374|450:374|382:337|304:330|304:330|283:288,1,207.999990478516,2|0,1:2|3:0,0:1:0:0:
494,284,182353,2,0,B|481:258|481:258|403:251|335:214|335:214|311:223,1,207.999990478516,2|0,1:2|0:0,0:0:0:0:
266,150,182728,2,0,P|265:114|252:62,1,80,10|2,0:2|3:2,0:0:0:0:
349,0,182978,6,0,B|337:25|337:25|241:34|155:80,1,207.999990478516,2|8,1:0|0:0,0:0:0:0:
95,131,183353,1,2,1:0:0:0:
0,66,183478,1,8,0:0:0:0:
0,66,183540,2,0,P|9:128|4:158,1,80,8|0,0:0|0:0,0:0:0:0:
20,196,183728,2,0,P|64:209|107:239,1,80,2|0,1:0|1:0,0:0:0:0:
41,376,183978,6,2,L|32:288,2,80,2|0|0,1:2|0:0|3:0,0:1:0:0:
137,246,184353,2,0,L|145:325,2,80,2|8|8,1:1|0:0|0:0,0:0:0:0:
235,375,184728,5,2,1:2:0:0:
239,271,184853,1,2,1:2:0:0:
239,271,184978,2,0,P|295:275|333:294,1,80,2|8,1:0|0:0,0:0:0:0:
477,286,185228,1,8,0:2:0:0:
512,371,185353,2,0,P|447:382|326:349,1,160,2|8,1:1|0:0,0:0:0:0:
355,364,185728,1,8,0:0:0:0:
355,364,185853,1,8,0:0:0:0:
398,245,185978,6,2,B|408:135|487:176|489:53,1,207.999990478516,0|10,1:0|0:2,0:1:0:0:
364,0,186353,1,2,1:2:0:0:
391,89,186478,1,10,0:2:0:0:
391,89,186540,1,0,3:0:0:0:
391,89,186603,2,0,P|327:104|295:128,1,80,0|2,1:0|1:2,0:0:0:0:
222,211,186853,1,0,0:0:0:0:
307,194,186978,6,0,P|307:232|279:286,1,80,2|8,1:1|0:0,0:0:0:0:
138,237,187228,2,0,P|136:212|155:156,1,80,10|2,0:2|1:2,0:0:0:0:
109,17,187478,5,10,0:2:0:0:
22,33,187603,1,10,0:2:0:0:
104,36,187728,5,2,1:2:0:0:
17,52,187853,1,0,1:0:0:0:
79,120,187978,6,0,P|95:155|106:303,1,160,2|10,1:0|0:2,0:0:0:0:
174,338,188353,1,2,1:2:0:0:
11,351,188478,2,0,P|71:356|104:376,1,80,10|0,0:2|3:0,0:0:0:0:
234,279,188728,5,2,1:2:0:0:
234,279,188790,2,0,P|257:328|255:374,1,80,8|0,0:0|0:0,0:0:0:0:
291,381,188978,2,2,L|397:364,1,80,2|0,1:2|0:0,0:1:0:0:
512,311,189228,2,0,L|406:294,1,80,10|2,0:2|1:2,0:0:0:0:
274,198,189478,1,10,0:2:0:0:
364,243,189603,1,10,0:2:0:0:
364,243,189665,1,0,0:0:0:0:
364,243,189728,2,0,P|374:192|390:166,1,80,2|0,1:2|1:0,0:0:0:0:
252,32,189978,6,2,B|144:28|191:96|39:94,1,207.999990478516,2|8,1:2|0:0,0:1:0:0:
234,130,190353,2,0,B|133:93|202:47|60:-7,1,207.999990478516,2|0,1:2|0:0,0:0:0:0:
59,94,190728,2,0,P|71:145|63:195,1,80,2|2,1:2|0:2,0:0:0:0:
107,309,190978,5,2,1:0:0:0:
8,234,191103,2,0,B|22:264|22:264|229:304,1,207.999990478516,8|0,0:0|1:0,0:0:0:0:
327,367,191478,2,2,L|245:385,1,80,8|0,0:0|0:0,0:1:0:0:
420,191,191728,1,0,1:0:0:0:
420,191,191853,1,0,0:0:0:0:
502,238,191978,6,0,P|425:235|299:292,1,207.999990478516,2|8,1:0|0:0,0:0:0:0:
139,186,192353,2,0,P|242:184|334:138,1,207.999990478516,2|0,1:1|3:0,0:0:0:0:
263,0,192728,5,2,1:2:0:0:
263,0,192853,1,2,0:2:0:0:
263,0,192978,2,0,L|255:86,2,80,0|8|10,1:0|0:0|0:2,0:0:0:0:
370,153,193353,2,2,L|378:67,2,80,2|0|0,1:2|0:0|1:0,0:1:0:0:
504,55,193728,2,0,L|500:97,3,40,8|0|8|8,0:0|0:0|0:0|0:0,0:0:0:0:
461,124,193978,6,2,L|474:231,1,80,4|0,1:2|0:0,0:1:0:0:
311,325,194228,2,0,L|298:218,1,80,8|0,0:0|3:0,0:0:0:0:
486,299,194478,2,0,L|379:312,1,80,2|0,1:2|3:0,0:0:0:0:
285,149,194728,2,0,L|392:136,1,80,10|2,0:2|3:2,0:0:0:0:
215,289,194978,5,2,1:0:0:0:
156,343,195103,1,0,0:0:0:0:
215,289,195228,2,0,L|201:396,1,80,10|0,0:2|3:0,0:0:0:0:
173,148,195478,2,0,L|186:41,1,80,2|2,1:2|3:2,0:0:0:0:
123,239,195728,2,0,L|16:226,1,80,10|2,0:2|3:2,0:0:0:0:
264,197,195978,2,2,L|371:210,1,80,2|0,1:2|0:0,0:1:0:0:
134,255,196228,6,0,L|54:245,1,80,10|2,0:2|0:2,0:0:0:0:
4,97,196478,1,2,1:2:0:0:
58,0,196603,2,0,L|67:40,2,40,0|0|10,0:0|0:0|0:2,0:0:0:0:
94,148,196853,6,0,P|94:108|105:70,1,80,2|2,0:2|1:0,0:0:0:0:
252,161,197103,2,0,P|233:196|223:235,1,80,2|10,0:2|0:0,0:0:0:0:
212,73,197353,2,0,P|193:38|183:0,1,80,2|0,0:2|1:0,0:0:0:0:
321,89,197603,1,0,0:0:0:0:
398,75,197728,1,8,0:0:0:0:
438,144,197853,1,0,0:0:0:0:
426,50,197978,5,2,1:2:0:0:
406,171,198103,2,0,L|384:282,1,80,0|10,1:0|0:2,0:0:0:0:
456,384,198353,2,0,L|478:273,1,80,0|2,1:0|1:2,0:0:0:0:
362,232,198603,2,0,L|340:343,1,80,8|2,0:0|1:2,0:0:0:0:
183,350,198853,5,8,0:0:0:0:
183,350,198915,1,0,1:0:0:0:
183,350,198978,2,0,P|136:352|81:370,1,80,2|2,1:2|1:2,0:0:0:0:
0,225,199228,2,0,P|34:286|38:323,1,80,10|2,0:2|1:2,0:0:0:0:
181,203,199478,2,0,P|145:232|119:292,1,80,2|2,1:2|1:2,0:0:0:0:
123,76,199728,5,8,1:0:0:0:
117,94,199853,1,0,1:0:0:0:
36,140,199978,2,0,L|15:48,1,80,2|10,1:2|0:2,0:0:0:0:
198,125,200228,2,0,L|177:217,1,80,2|10,1:2|0:2,0:0:0:0:
394,278,200478,6,0,L|332:289,3,40,2|0|10|0,1:2|0:0|0:2|0:0,0:0:0:0:
443,211,200728,2,0,L|505:222,3,40,2|0|10|0,1:2|0:0|0:2|0:0,0:0:0:0:
512,251,200978,1,6,1:2:0:0:
256,192,201040,12,0,201728,0:0:0:0:
270,79,201978,6,0,B|329:32|329:32|306:182,1,207.999990478516,0|0,1:0|0:0,0:0:0:0:
242,305,202353,2,0,B|182:351|182:351|205:201,1,207.999990478516,0|0,1:0|0:0,0:0:0:0:
323,215,202728,5,2,1:0:0:0:
189,169,202853,1,0,3:0:0:0:
323,215,202978,1,0,1:0:0:0:
334,300,203228,5,0,1:0:0:0:
187,85,203478,2,0,P|136:65|69:71,1,103.999995239258,2|0,1:2|3:0,0:0:0:0:
15,203,203728,1,2,1:2:0:0:
15,203,203853,1,0,1:0:0:0:
126,150,203978,6,0,B|126:207|126:207|79:246,2,103.999995239258,2|0|8,1:0|1:0|0:0,0:0:0:0:
166,289,204353,1,2,1:0:0:0:
36,314,204478,2,0,B|84:329|84:329|120:383,1,103.999995239258,10|0,0:2|1:0,0:0:0:0:
126,379,204665,1,0,1:0:0:0:
139,384,204728,2,0,L|262:361,1,103.999995239258,2|0,1:0|1:0,0:0:0:0:
495,303,204978,6,2,P|448:344|429:389,1,103.999995239258,2|0,1:2|0:0,0:1:0:0:
308,269,205228,2,2,P|334:333|331:386,1,103.999995239258,10|0,0:2|0:0,0:1:0:0:
454,225,205478,5,2,1:0:0:0:
379,211,205603,1,0,1:0:0:0:
431,143,205728,2,0,P|443:89|438:26,1,103.999995239258,10|0,0:0|1:0,1:0:0:0:
203,0,205978,6,2,B|207:104|281:63|293:185,1,207.999990478516,4|8,1:2|0:0,0:1:0:0:
233,347,206353,2,0,P|145:358|117:378,1,103.999995239258,2|8,1:0|0:0,0:0:0:0:
133,364,206540,1,0,1:0:0:0:
133,364,206603,1,0,1:0:0:0:
49,322,206728,2,0,P|59:284|46:208,1,103.999995239258,2|0,1:0|0:0,0:0:0:0:
173,153,206978,6,0,L|156:274,1,103.999995239258,2|0,1:0|1:0,0:0:0:0:
0,94,207228,1,2,1:2:0:0:
0,94,207353,2,0,L|17:199,1,103.999995239258,2|8,1:0|0:0,0:0:0:0:
138,32,207603,5,8,0:0:0:0:
128,49,207728,1,2,1:1:0:0:
217,35,207853,1,2,1:2:0:0:
277,103,207978,2,0,P|340:112|394:144,1,103.999995239258,2|0,1:2|1:0,0:0:0:0:
440,61,208228,6,0,L|426:7,2,51.999997619629,10|0|0,0:1|0:0|0:0,0:0:0:0:
495,168,208478,2,0,P|445:225|433:270,1,103.999995239258,2|0,1:0|1:0,1:0:0:0:
322,341,208728,1,2,1:0:0:0:
292,248,208853,1,0,1:0:0:0:
322,341,208978,6,2,P|380:354|423:381,1,103.999995239258,0|0,1:0|1:0,1:1:0:0:
184,147,209228,2,0,P|126:134|83:107,1,103.999995239258,2|0,1:0|0:0,0:0:0:0:
350,115,209478,6,0,P|330:173|335:235,1,103.999995239258,2|0,1:0|0:0,0:0:0:0:
147,374,209728,2,0,P|167:316|162:254,1,103.999995239258,2|2,1:2|1:2,0:0:0:0:
0,120,209978,6,2,B|20:151|20:151|122:149|207:203,1,207.999990478516,4|8,1:2|0:0,0:1:0:0:
277,64,210353,1,2,0:1:0:0:
185,47,210478,2,0,L|196:104,2,51.999997619629,2|0|0,1:2|0:0|0:0,0:0:0:0:
344,10,210728,5,8,0:0:0:0:
277,64,210853,1,0,0:0:0:0:
277,64,210978,2,0,P|303:132|268:298,1,207.999990478516,0|10,1:0|0:2,0:0:0:0:
114,277,211353,1,0,1:1:0:0:
114,277,211415,1,0,1:0:0:0:
114,277,211478,2,0,P|162:245|222:233,1,103.999995239258,2|0,1:0|3:0,0:0:0:0:
302,351,211728,5,8,0:0:0:0:
216,316,211853,1,0,1:0:0:0:
371,282,211978,2,0,L|389:389,2,103.999995239258,2|0|8,1:0|1:0|0:0,0:0:0:0:
512,157,212353,6,0,P|442:168|403:210,1,103.999995239258,0|2,0:0|1:0,0:0:0:0:
478,50,212603,2,0,L|492:-13,2,51.999997619629,0|0|10,3:0|3:0|0:1,0:0:0:0:
395,93,212853,1,8,0:0:0:0:
395,93,212978,2,0,L|282:122,1,103.999995239258,2|0,1:2|0:0,0:0:0:0:
132,100,213228,1,8,0:0:0:0:
226,0,213353,1,0,0:0:0:0:
219,83,213478,6,0,P|246:131|242:270,1,155.999992858887,2|0,1:0|0:0,0:0:0:0:
292,307,213728,2,2,B|283:342|286:360|286:360|262:337|208:328,1,103.999995239258,8|0,0:0|0:0,0:1:0:0:
15,349,213978,6,0,P|79:357|123:385,1,103.999995239258,4|0,1:2|0:0,0:0:0:0:
145,268,214228,2,0,P|81:260|37:232,1,103.999995239258,10|0,0:1|3:0,0:0:0:0:
366,197,214478,6,0,P|386:262|380:315,1,103.999995239258,2|0,1:0|3:0,0:0:0:0:
158,178,214728,2,0,P|158:126|176:77,1,103.999995239258,10|0,0:1|0:0,0:0:0:0:
272,135,214978,6,0,L|254:260,1,103.999995239258,2|0,1:0|0:0,0:0:0:0:
481,333,215228,1,10,0:1:0:0:
481,333,215290,1,0,1:0:0:0:
481,333,215353,2,0,L|491:403,2,51.999997619629,8|8|2,0:0|0:0|1:1,0:0:0:0:
384,297,215603,1,0,1:0:0:0:
457,236,215728,2,0,L|472:117,1,103.999995239258,10|8,0:1|0:0,0:0:0:0:
351,61,215978,5,2,1:2:0:0:
478,10,216103,1,0,1:0:0:0:
351,61,216228,2,0,L|228:42,1,103.999995239258,10|0,0:1|0:0,0:0:0:0:
210,195,216478,2,0,P|266:168|338:163,1,103.999995239258,2|0,1:0|3:0,0:0:0:0:
134,17,216728,2,0,P|133:72|116:134,1,103.999995239258,10|0,0:1|0:0,0:0:0:0:
119,375,216978,6,0,L|179:386,2,51.999997619629,2|0|0,1:0|1:0|1:0,1:0:0:0:
51,316,217228,2,0,L|-9:327,2,51.999997619629,10|0|8,0:1|0:0|0:0,0:0:0:0:
195,285,217478,6,0,B|241:308|241:308|272:367,1,103.999995239258,2|0,1:0|1:0,0:0:0:0:
422,317,217728,1,10,0:1:0:0:
436,321,217790,1,8,0:0:0:0:
452,325,217853,1,8,0:0:0:0:
466,330,217915,1,8,0:0:0:0:
481,334,217978,6,2,B|401:353|401:353|332:276,1,160,2|0,1:2|0:0,0:1:0:0:
419,229,218353,1,0,3:0:0:0:
419,229,218478,2,0,L|430:138,1,80,8|0,0:0|0:0,0:0:0:0:
442,27,218728,1,0,3:0:0:0:
496,86,218853,2,0,L|485:-5,2,80,0|0|0,3:0|3:0|3:0,0:0:0:0:
412,63,219228,1,0,3:0:0:0:
512,189,219478,2,0,P|439:196|342:259,1,160,8|0,0:0|0:0,0:0:0:0:
6,173,219978,6,2,B|45:177|77:162|77:162|130:209|130:209|171:201|225:235,1,207.999990478516,2|0,1:2|0:0,0:1:0:0:
56,260,220353,1,0,3:0:0:0:
56,260,220478,2,0,P|84:304|92:345,1,80,8|0,0:0|0:0,0:0:0:0:
268,381,220728,2,2,B|292:344|292:344|258:257|298:148,2,207.999990478516,0|0|0,1:0|3:0|0:0,0:1:0:0:
288,12,221478,1,8,0:0:0:0:
357,119,221603,1,0,0:0:0:0:
225,80,221728,2,0,P|156:75|78:94,1,103.999995239258,0|0,1:0|0:0,0:0:0:0:
0,0,221978,6,2,P|48:46|69:210,1,207.999990478516,0|0,1:0|0:0,0:1:0:0:
143,246,222353,1,0,3:0:0:0:
143,246,222478,2,0,L|254:263,1,80,8|0,0:0|0:0,0:0:0:0:
322,353,222728,1,0,3:0:0:0:
376,292,222853,2,0,L|269:316,2,80,0|0|0,3:0|3:0|3:0,0:0:0:0:
405,371,223228,1,0,3:0:0:0:
512,217,223478,2,0,P|425:214|337:171,1,160,8|0,0:0|1:0,0:0:0:0:
152,53,223978,6,2,B|267:44|227:108|354:91,1,207.999990478516,0|0,1:0|3:0,0:1:0:0:
464,35,224353,1,0,0:0:0:0:
464,35,224478,2,0,P|441:98|448:139,1,80,8|0,0:0|3:0,0:0:0:0:
379,176,224728,1,0,3:0:0:0:
505,251,224978,1,8,0:0:0:0:
505,251,225103,1,0,0:0:0:0:
505,251,225228,1,0,3:0:0:0:
291,215,225478,6,0,P|320:254|328:304,1,80,8|0,0:0|0:0,0:0:0:0:
416,288,225728,2,0,P|400:333|380:352,1,55.9999982910157,0|0,3:0|0:0,0:0:0:0:
310,370,225978,5,0,1:0:0:0:
175,289,226353,1,0,0:0:0:0:
175,289,226478,1,8,0:0:0:0:
35,327,226728,1,0,0:0:0:0:
122,373,226853,6,0,L|134:301,1,55.9999982910157,0|0,3:0|3:0,0:0:0:0:
35,327,227103,2,0,L|47:255,1,55.9999982910157,0|0,3:0|3:0,0:0:0:0:
119,219,227353,5,0,0:0:0:0:
119,219,227478,1,8,0:0:0:0:
210,271,227728,1,0,3:0:0:0:
209,138,227978,5,0,1:0:0:0:
348,246,228228,1,0,0:0:0:0:
348,246,228353,1,0,3:0:0:0:
348,246,228478,1,8,0:0:0:0:
512,196,228728,1,0,3:0:0:0:
424,179,228853,6,0,L|436:247,1,55.9999982910157,0|0,3:0|3:0,0:0:0:0:
502,140,229103,2,0,L|514:208,1,55.9999982910157,0|0,0:0|3:0,0:0:0:0:
426,94,229353,1,0,0:0:0:0:
426,94,229478,1,8,0:0:0:0:
461,17,229728,1,0,3:0:0:0:
267,43,229978,6,0,P|248:105|249:134,1,80,0|0,3:0|0:0,0:0:0:0:
132,116,230478,2,0,P|149:126|164:152,2,40,8|0|0,0:0|0:0|3:0,0:0:0:0:
277,200,230978,6,0,L|269:249,1,40,0|0,3:0|3:0,0:0:0:0:
259,321,231228,2,0,L|251:370,1,40,0|0,3:0|3:0,0:0:0:0:
356,291,231478,5,8,0:0:0:0:
174,262,231728,1,0,0:0:0:0:
45,384,231978,5,0,3:0:0:0:
31,300,232228,1,0,3:0:0:0:
31,300,232353,1,0,0:0:0:0:
31,300,232478,1,8,0:0:0:0:
73,220,232728,2,0,L|65:271,2,40,0|0|0,0:0|0:0|3:0,0:0:0:0:
5,153,233228,1,8,0:0:0:0:
121,73,233478,6,0,L|178:63,1,40,8|8,0:0|0:0,0:0:0:0:
274,47,233728,2,0,L|331:37,1,55.9999982910157,0|0,3:0|3:0,0:0:0:0:
439,114,233978,6,0,B|466:133|461:160|461:160|397:113|296:125,1,191.999994140625,0|0,1:0|0:0,0:0:0:0:
227,231,234478,2,0,P|296:215|383:223,1,143.999995605469,8|0,0:0|0:0,0:0:0:0:
501,255,234853,2,0,P|486:296|387:287,1,143.999995605469,0|0,3:0|3:0,0:0:0:0:
296,370,235228,2,0,P|299:334|322:286,1,71.9999978027344,0|0,0:0|3:0,0:0:0:0:
252,205,235478,5,0,3:0:0:0:
200,194,235603,1,0,3:0:0:0:
131,217,235728,1,0,3:0:0:0:
79,280,235853,1,0,0:0:0:0:
86,371,235978,6,0,P|57:306|-9:253,1,143.999995605469,0|0,3:0|0:0,0:0:0:0:
67,180,236353,1,0,0:0:0:0:
67,180,236478,2,0,P|79:142|79:96,1,71.9999978027344,8|0,0:0|0:0,0:0:0:0:
173,20,236728,1,0,3:0:0:0:
173,20,236853,2,0,P|167:77|197:190,1,143.999995605469,0|0,3:0|0:0,0:0:0:0:
165,257,237228,2,0,P|219:282|250:286,1,71.9999978027344,0|0,3:0|3:0,0:0:0:0:
348,384,237478,6,0,L|338:311,1,71.9999978027344,8|0,0:0|0:0,0:0:0:0:
416,233,237728,2,0,L|426:306,1,71.9999978027344,0|8,3:0|0:0,0:0:0:0:
488,365,237978,5,0,0:0:0:0:
491,380,238228,1,0,3:0:0:0:
368,133,238478,6,0,L|361:180,1,35.9999989013672,8|0,0:0|0:0,0:0:0:0:
266,202,238728,2,0,L|259:249,1,35.9999989013672,0|0,3:0|0:0,0:0:0:0:
98,334,238978,6,0,P|66:350|40:375,1,71.9999978027344,0|0,3:0|0:0,0:0:0:0:
89,249,239227,2,0,P|54:240|27:218,1,71.9999978027344
177,375,239478,2,0,P|236:337|314:327,1,143.999995605469,8|0,0:0|0:0,0:0:0:0:
408,359,239853,5,0,3:0:0:0:
408,359,239978,2,0,P|341:341|343:261,1,143.999995605469,0|0,0:0|3:0,0:0:0:0:
250,224,240353,1,0,0:0:0:0:
250,224,240478,2,0,P|212:235|179:254,1,71.9999978027344,8|0,0:0|0:0,0:0:0:0:
335,188,240728,2,0,P|357:150|364:107,1,71.9999978027344,0|0,3:0|0:0,0:0:0:0:
255,41,240978,6,0,L|262:116,2,71.9999978027344,0|0|0,3:0|0:0|3:0,0:0:0:0:
261,54,241478,5,0,3:0:0:0:
259,68,241603,1,0,0:0:0:0:
257,82,241728,1,0,3:0:0:0:
255,96,241853,2,0,L|252:116,1,16,0|4,0:0|3:2,0:0:0:0:
