osu file format v14

[General]
AudioFilename: audio.mp3
AudioLeadIn: 0
PreviewTime: 225646
Countdown: 0
SampleSet: Normal
StackLeniency: 0.7
Mode: 1
LetterboxInBreaks: 0
WidescreenStoryboard: 1

[Editor]
Bookmarks: 181339
DistanceSpacing: 1.1
BeatDivisor: 4
GridSize: 16
TimelineZoom: 7.499995

[Metadata]
Title:+Breakcore Strikes Back+
TitleUnicode:†Breakcore Strikes Back†
Artist:KEMOMIMI EDM SQUAD
ArtistUnicode:KEMOMIMI EDM SQUAD
Creator:_knots
Version:knots & Whulf's Onslaught
Source:
Tags:sabi breakcore hardcore katagiri whulf electronic instrumental かたぎり
BeatmapID:4255745
BeatmapSetID:1973980

[Difficulty]
HPDrainRate:4
CircleSize:5
OverallDifficulty:8
ApproachRate:5
SliderMultiplier:1.4
SliderTickRate:1

[Events]
//Background and Video events
0,0,"bgbgbgb.jpg",0,50
//Break Periods
//Storyboard Layer 0 (Background)
//Storyboard Layer 1 (Fail)
//Storyboard Layer 2 (Pass)
//Storyboard Layer 3 (Foreground)
//Storyboard Layer 4 (Overlay)
//Storyboard Sound Samples

[TimingPoints]
434,461.538461538462,4,1,0,60,1,0
434,-50,4,1,0,60,0,0
15180,-62.5,4,1,0,70,0,0
28908,-61.7207752129367,4,1,0,70,0,0
29023,-60.9756097560976,4,1,0,70,0,0
29138,-60.2409638554217,4,1,0,70,0,0
29254,-59.5238095238095,4,1,0,70,0,0
29369,-58.8235294117647,4,1,0,70,0,0
29485,-58.1327752586908,4,1,0,70,0,0
29715,-56.8181818181818,4,1,0,70,0,0
29946,-55.5555555555556,4,1,0,70,0,0
37562,-55.181547290586,4,1,0,70,0,0
37677,-54.9994500054999,4,1,0,70,0,0
37735,-54.9088513068307,4,1,0,71,0,0
37792,-54.8185505975222,4,1,0,71,0,0
38023,-54.4543672402527,4,1,0,72,0,0
38138,-54.2770299609205,4,1,0,72,0,0
38196,-54.188793757451,4,1,0,73,0,0
38253,-54.100843973166,4,1,0,73,0,0
38485,-53.746103407503,4,1,0,74,0,0
38601,-53.5676023141204,4,1,0,74,0,0
38658,-53.4816557920633,4,1,0,74,0,0
38716,-53.3959846219564,4,1,0,75,0,0
38831,-53.2254630615286,4,1,0,75,0,0
38946,-53.0560271646859,4,1,0,76,0,0
39004,-52.9717131052018,4,1,0,76,0,0
39061,-52.8876665961498,4,1,0,77,0,0
39119,-52.7983104540655,4,1,0,77,0,0
39177,-52.7148128624143,4,1,0,78,0,0
39408,-52.3779593547035,4,1,0,78,0,0
39523,-52.2138680033417,4,1,0,79,0,0
39581,-52.1322072776561,4,1,0,79,0,0
39638,-52.0508015823444,4,1,0,79,0,0
39869,-51.7223544015724,4,1,0,80,0,0
39985,-51.562338867691,4,1,0,80,0,0
40042,-51.4827018121911,4,1,0,81,0,0
40100,-51.403310373188,4,1,0,81,0,0
40331,-51.0829587249693,4,1,0,82,0,0
40446,-50.9268690160929,4,1,0,82,0,0
40504,-50.8491813281806,4,1,0,83,0,0
40562,-50.7665752868311,4,1,0,83,0,0
40677,-50.612410162972,4,1,0,83,0,0
40792,-50.4591785245736,4,1,0,84,0,0
40850,-50.3829101168884,4,1,0,84,0,0
40908,-50.3018108651911,4,1,0,85,0,0
40965,-50.2260170768458,4,1,0,85,0,0
41023,-50.1504513540622,4,1,0,86,0,0
41138,-50,4,1,0,86,0,0
41254,-49.667229561935,4,1,0,87,0,0
41369,-49.3437284121188,4,1,0,87,0,0
41485,-49.0196078431373,4,1,0,87,0,0
41600,-48.6997175416383,4,1,0,88,0,0
41715,-48.3886576986354,4,1,0,88,0,0
41831,-48.0769230769231,4,1,0,89,0,0
41946,-47.7691793254992,4,1,0,89,0,0
42004,-47.6190476190476,4,1,0,90,0,0
42062,-47.4653502942852,4,1,0,90,0,0
42119,-47.317119333775,4,1,0,91,0,0
42177,-47.1698113207547,4,1,0,91,0,0
42235,-47.0189956742524,4,1,0,91,0,0
42292,-46.8735352020249,4,1,0,92,0,0
42350,-46.7289719626168,4,1,0,92,0,0
42408,-46.5809577044904,4,1,0,93,0,0
42465,-46.4381907680877,4,1,0,93,0,0
42523,-46.2962962962963,4,1,0,94,0,0
42581,-46.1510060919328,4,1,0,94,0,0
42638,-46.0108585626208,4,1,0,95,0,0
42696,-45.8715596330275,4,1,0,95,0,0
42754,-45.7289189683556,4,1,0,96,0,0
42812,-45.5913194127838,4,1,0,96,0,0
42869,-45.4545454545455,4,1,0,96,0,0
43795,-41.6666666666667,4,1,0,97,0,0
44028,-43.4782608695652,4,1,0,97,0,0
44143,-44.243872223697,4,1,0,97,0,0
44259,-45.045045045045,4,1,0,98,0,0
44374,-45.8715596330275,4,1,0,98,0,0
44490,-46.7333395644453,4,1,0,99,0,0
44547,-47.1653617583247,4,1,0,99,0,0
44605,-47.6190476190476,4,1,0,100,0,0
44723,-47.6190476190476,4,1,0,100,0,0
44741,230.769230769231,4,1,0,100,1,1
44741,-90.9090909090909,4,1,0,100,0,1
44798,-95.2380952380952,4,1,0,100,0,1
51872,-83.3333333333333,4,1,0,100,0,1
52103,-86.9565217391304,4,1,0,100,0,1
52166,-90.9090909090909,4,1,0,100,0,1
52281,-95.2380952380952,4,1,0,100,0,1
52562,-105.263157894737,4,1,0,100,0,1
52619,-104.873534855028,4,1,0,100,0,1
52677,-104.480025877406,4,1,0,100,0,1
52735,-104.089458928169,4,1,0,100,0,1
52792,-103.708460427035,4,1,0,100,0,1
52850,-103.323630082211,4,1,0,100,0,1
52908,-102.941645154094,4,1,0,100,0,1
53023,-102.192552282722,4,1,0,100,0,1
53081,-101.818869589887,4,1,0,100,0,1
53138,-101.454282752772,4,1,0,100,0,1
53196,-101.085970018465,4,1,0,100,0,1
53254,-100.720321806106,4,1,0,100,0,1
53312,-100.357309305577,4,1,0,100,0,1
53369,-100.003096071086,4,1,0,100,0,1
53427,-99.6452259756286,4,1,0,100,0,1
53485,-99.2899080876702,4,1,0,100,0,1
53542,-98.9431765967223,4,1,0,100,0,1
53600,-98.5928390464271,4,1,0,100,0,1
53658,-98.2449736898135,4,1,0,100,0,1
53715,-97.9054893758904,4,1,0,100,0,1
53773,-97.5624490289063,4,1,0,100,0,1
53831,-97.2218041718087,4,1,0,100,0,1
53888,-96.889342172361,4,1,0,100,0,1
53946,-96.5533733895316,4,1,0,100,0,1
53985,-96.3287703915779,4,1,0,100,0,1
54023,-96.1109292706877,4,1,0,100,0,1
54062,-95.8883776161496,4,1,0,100,0,1
54177,-95.2380952380952,4,1,0,100,0,1
55795,-90.9090909090909,4,1,0,100,0,1
56257,-95.2380952380952,4,1,0,100,0,1
57700,-96.7876512307051,4,1,0,100,0,1
57738,-98.3467571004663,4,1,0,100,0,1
57779,-100,4,1,0,100,0,0
57786,-100,4,1,0,100,0,0
58565,-125,4,1,0,100,0,0
59488,-100,4,1,0,100,0,0
66009,-101.015406162465,4,1,0,100,0,0
66067,-102.051644853201,4,1,0,100,0,0
66124,-103.090941575844,4,1,0,100,0,0
66182,-104.170427875068,4,1,0,100,0,0
66240,-105.272760445174,4,1,0,100,0,0
66297,-106.379056047198,4,1,0,100,0,0
66355,-107.528885575848,4,1,0,100,0,0
66413,-108.703843255463,4,1,0,100,0,0
66470,-109.883831651114,4,1,0,100,0,0
66528,-111.111111111111,4,1,0,100,0,0
66646,-100,4,1,0,100,0,0
73988,-99.6304380713622,4,1,0,100,0,0
74046,-99.2571859188287,4,1,0,100,0,0
74104,-98.8867200068641,4,1,0,100,0,0
74161,-98.5253259243428,4,1,0,100,0,0
74219,-98.1602929903756,4,1,0,100,0,0
74277,-97.7979549408121,4,1,0,100,0,0
74315,-97.5620079573351,4,1,0,100,0,0
74354,-97.3210327429331,4,1,0,100,0,0
74392,-97.0873786407767,4,1,0,100,0,0
81641,-95.2380952380952,4,1,0,100,0,0
81985,-93.0138916851218,4,1,0,100,0,0
82042,-91.9585987261146,4,1,0,100,0,0
82100,-90.9090909090909,4,1,0,100,0,0
82331,-95.2380952380952,4,1,0,100,0,0
82562,-90.9090909090909,4,1,0,100,0,0
83254,-95.2380952380952,4,1,0,100,0,0
83369,-93.0326218284333,4,1,0,100,0,0
83427,-91.9585987261146,4,1,0,100,0,0
83485,-90.9090909090909,4,1,0,100,0,0
83715,-95.2380952380952,4,1,0,100,0,0
83831,-93.0138916851218,4,1,0,100,0,0
83888,-91.9585987261146,4,1,0,100,0,0
83946,-90.9090909090909,4,1,0,100,0,0
84177,-95.2380952380952,4,1,0,100,0,0
84408,-90.9090909090909,4,1,0,100,0,0
85007,-95.2380952380952,4,1,0,100,0,0
85046,-94.6320770109316,4,1,0,100,0,0
85084,-94.0489703259283,4,1,0,100,0,0
85123,-93.4579439252336,4,1,0,100,0,0
85215,-92.315901814301,4,1,0,100,0,0
85273,-91.6070955785015,4,1,0,100,0,0
85331,-90.9090909090909,4,1,0,100,0,0
85562,-95.2380952380952,4,1,0,100,0,0
85677,-93.0232558139535,4,1,0,100,0,0
85735,-91.9448331001399,4,1,0,100,0,0
85792,-90.9090909090909,4,1,0,100,0,0
86023,-95.2380952380952,4,1,0,100,0,0
86254,-90.9090909090909,4,1,0,100,0,0
87084,-91.8807674434044,4,1,0,100,0,0
87142,-92.378752886836,4,1,0,100,0,0
87200,-92.8821658188261,4,1,0,100,0,0
87315,-93.8967136150235,4,1,0,100,0,0
87431,-94.9427873665724,4,1,0,100,0,0
87546,-96.0031076150442,4,1,0,100,0,0
87661,-97.0873786407767,4,1,0,100,0,0
87696,-97.3461778550099,4,1,0,100,0,0
87754,-97.1323238529716,4,1,0,100,0,0
87812,-96.9194073974536,4,1,0,100,0,0
87869,-96.7110693948016,4,1,0,100,0,0
87927,-96.4999937283366,4,1,0,100,0,0
87985,-96.2898374170293,4,1,0,100,0,0
88042,-96.0841943998068,4,1,0,100,0,0
88100,-95.875843275398,4,1,0,100,0,0
88215,-95.4653937947494,4,1,0,100,0,0
88331,-95.0549201629278,4,1,0,100,0,0
88446,-94.6514546304574,4,1,0,100,0,0
88562,-94.247935774197,4,1,0,100,0,0
88619,-94.0509130029055,4,1,0,100,0,0
88677,-93.851277442756,4,1,0,100,0,0
88735,-93.65248759348,4,1,0,100,0,0
88792,-93.4579439252336,4,1,0,100,0,0
88908,-93.4579439252336,4,1,0,100,0,0
89031,-93.4579439252336,4,1,0,100,0,0
89048,-93.4579439252336,4,1,0,100,0,1
96433,-93.4579439252336,4,1,0,100,0,0
96875,-90.9090909090909,4,1,0,100,0,0
96877,-90.9090909090909,4,1,0,100,0,0
96894,-90.9090909090909,4,1,0,100,0,1
96932,-90.7581143290018,4,1,0,100,0,1
96990,-90.6050029086678,4,1,0,100,0,1
97105,-90.3029424554283,4,1,0,100,0,1
97163,-90.1513616762655,4,1,0,100,0,1
97220,-90.0028893383415,4,1,0,100,0,1
97336,-89.7022403962449,4,1,0,100,0,1
97393,-89.5552425035218,4,1,0,100,0,1
97451,-89.4061594098906,4,1,0,100,0,1
97567,-89.1094773578968,4,1,0,100,0,1
97624,-88.9644142343063,4,1,0,100,0,1
97682,-88.8172901459854,4,1,0,100,0,1
97797,-88.5270128172336,4,1,0,100,0,1
97855,-88.3813306852036,4,1,0,100,0,1
97913,-88.2361272413109,4,1,0,100,0,1
98028,-87.9496301315715,4,1,0,100,0,1
98086,-87.8058405682715,4,1,0,100,0,1
98143,-87.6649874764304,4,1,0,100,0,1
98201,-87.5221263802647,4,1,0,100,0,1
98259,-87.3797301467082,4,1,0,100,0,1
98317,-87.2377965104881,4,1,0,100,0,1
98374,-87.0987585281288,4,1,0,100,0,1
98490,-86.8171683389075,4,1,0,100,0,1
98547,-86.6794668447561,4,1,0,100,0,1
98605,-86.5397971940547,4,1,0,100,0,1
98720,-86.2641927443921,4,1,0,100,0,1
98778,-86.1258571112586,4,1,0,100,0,1
98836,-85.9879644454259,4,1,0,100,0,1
98951,-85.7158581216807,4,1,0,100,0,1
99009,-85.5792741558834,4,1,0,100,0,1
99067,-85.4431247771347,4,1,0,100,0,1
99182,-85.1744503992125,4,1,0,100,0,1
99240,-85.039585039585,4,1,0,100,0,1
99297,-84.907460408319,4,1,0,100,0,1
99413,-84.6398391435481,4,1,0,100,0,1
99470,-84.508952794357,4,1,0,100,0,1
99528,-84.3761850587789,4,1,0,100,0,1
99643,-84.1141684443604,4,1,0,100,0,1
99701,-83.9826372974576,4,1,0,100,0,1
99759,-83.8515168645186,4,1,0,100,0,1
99817,-83.7208052248233,4,1,0,100,0,1
99874,-83.5927436668098,4,1,0,100,0,1
99932,-83.4628369326403,4,1,0,100,0,1
99990,-83.3333333333333,4,1,0,100,0,1
99993,-83.3333333333333,4,1,0,100,0,1
100010,-83.3333333333333,4,1,0,100,0,0
100567,-86.9565217391304,4,1,0,100,0,0
100570,-86.9565217391304,4,1,0,100,0,0
100587,-86.9565217391304,4,1,0,100,0,1
100624,-86.8232890704801,4,1,0,100,0,1
100682,-86.6881374127751,4,1,0,100,0,1
100797,-86.4214046822743,4,1,0,100,0,1
100855,-86.28750033393,4,1,0,100,0,1
100912,-86.156308348893,4,1,0,100,0,1
101028,-85.890549380418,4,1,0,100,0,1
101085,-85.7605607625521,4,1,0,100,0,1
101143,-85.6286948914398,4,1,0,100,0,1
101259,-85.366175965325,4,1,0,100,0,1
101316,-85.2377685121655,4,1,0,100,0,1
101374,-85.1075042158516,4,1,0,100,0,1
101489,-84.8503953555573,4,1,0,100,0,1
101547,-84.7213114754098,4,1,0,100,0,1
101605,-84.5926197522458,4,1,0,100,0,1
101720,-84.3386077601964,4,1,0,100,0,1
101778,-84.2110751903222,4,1,0,100,0,1
101835,-84.0861166792492,4,1,0,100,0,1
101893,-83.9593460008838,4,1,0,100,0,1
101951,-83.8329569934335,4,1,0,100,0,1
102009,-83.7069479358333,4,1,0,100,0,1
102066,-83.5834799710175,4,1,0,100,0,1
102182,-83.3333333333333,4,1,0,100,0,1
102239,-83.210964268233,4,1,0,100,0,1
102297,-83.0868167202572,4,1,0,100,0,1
102412,-82.8417542959733,4,1,0,100,0,1
102470,-82.7187051833641,4,1,0,100,0,1
102528,-82.5960210709354,4,1,0,100,0,1
102643,-82.3538410545371,4,1,0,100,0,1
102701,-82.2322360548894,4,1,0,100,0,1
102759,-82.1109896535069,4,1,0,100,0,1
102874,-81.8716414883909,4,1,0,100,0,1
102932,-81.7514553277651,4,1,0,100,0,1
102989,-81.6336846361867,4,1,0,100,0,1
103105,-81.3950558173525,4,1,0,100,0,1
103162,-81.2783090085556,4,1,0,100,0,1
103220,-81.1598572792603,4,1,0,100,0,1
103335,-80.9260140806254,4,1,0,100,0,1
103393,-80.8085862250131,4,1,0,100,0,1
103451,-80.691498663469,4,1,0,100,0,1
103509,-80.5747499189263,4,1,0,100,0,1
103567,-80.4583385228546,4,1,0,100,0,1
103624,-80.3442614795284,4,1,0,100,0,1
103682,-80.2285146547442,4,1,0,100,0,1
103740,-80.1131008482564,4,1,0,100,0,1
103797,-80,4,1,0,100,0,1
103800,-80,4,1,0,100,0,1
103817,-80,4,1,0,100,0,0
104257,-111.111111111111,4,1,0,100,0,0
107715,-109.593920683923,4,1,0,100,0,0
107946,-108.111273792094,4,1,0,100,0,0
108177,-106.668207558072,4,1,0,100,0,0
108408,-105.263157894737,4,1,0,100,0,0
108638,-103.900489671864,4,1,0,100,0,0
108869,-102.566951883543,4,1,0,100,0,0
109100,-101.267211585934,4,1,0,100,0,0
109331,-100,4,1,0,100,0,0
109446,-99.3808882907133,4,1,0,100,0,0
109562,-98.7641110694987,4,1,0,100,0,0
109677,-98.160161650537,4,1,0,100,0,0
109792,-97.5635537233761,4,1,0,100,0,0
109850,-97.2653985984509,4,1,0,100,0,0
109908,-96.96906025109,4,1,0,100,0,0
109965,-96.6795852100136,4,1,0,100,0,0
110023,-96.3868003341688,4,1,0,100,0,0
110081,-96.0957834461218,4,1,0,100,0,0
110138,-95.8114911506721,4,1,0,100,0,0
110196,-95.5239327296248,4,1,0,100,0,0
110254,-95.2380952380952,4,1,0,100,0,0
110488,-90.9090909090909,4,1,0,100,0,0
110718,-86.9565217391304,4,1,0,100,0,0
110949,-83.3333333333333,4,1,0,100,0,0
111180,-95.2380952380952,4,1,0,100,0,0
116773,-95.5237775076931,4,1,0,100,0,0
116831,-95.8111788354299,4,1,0,100,0,0
116888,-96.0953148981556,4,1,0,100,0,0
116946,-96.3861709067189,4,1,0,100,0,0
117004,-96.6787929545395,4,1,0,100,0,0
117062,-96.9731971753341,4,1,0,100,0,0
117119,-97.2642776271097,4,1,0,100,0,0
117177,-97.562263951615,4,1,0,100,0,0
117235,-97.8620817548415,4,1,0,100,0,0
117292,-98.1585310764489,4,1,0,100,0,0
117350,-98.4620305461524,4,1,0,100,0,0
117408,-98.7674126360258,4,1,0,100,0,0
117465,-99.0693807493228,4,1,0,100,0,0
117523,-99.3785477926341,4,1,0,100,0,0
117581,-99.689650519498,4,1,0,100,0,0
117638,-99.997292980699,4,1,0,100,0,0
117696,-100.312287847929,4,1,0,100,0,0
117754,-100.62927347517,4,1,0,100,0,0
117812,-100.948268794578,4,1,0,100,0,0
117869,-101.263740782368,4,1,0,100,0,0
117927,-101.586777768611,4,1,0,100,0,0
117985,-101.911882362678,4,1,0,100,0,0
118042,-102.233415437412,4,1,0,100,0,0
118100,-102.562678735042,4,1,0,100,0,0
118158,-102.89406980307,4,1,0,100,0,0
118215,-103.221840333082,4,1,0,100,0,0
118273,-103.557511704185,4,1,0,100,0,0
118331,-103.895373365209,4,1,0,100,0,0
118388,-104.229564628538,4,1,0,100,0,0
118446,-104.571832979476,4,1,0,100,0,0
118504,-104.916356613366,4,1,0,100,0,0
118562,-105.263157894737,4,1,0,100,0,0
118757,-102.858669516431,4,1,0,100,0,0
118815,-100.522193211488,4,1,0,100,0,0
118873,-98.2895072759765,4,1,0,100,0,0
118931,-96.1538461538461,4,1,0,100,0,0
119046,-95.2380952380952,4,1,0,100,0,0
124158,-95.5239327296248,4,1,0,100,0,0
124215,-95.8065185800291,4,1,0,100,0,0
124273,-96.0957834461218,4,1,0,100,0,0
124331,-96.3868003341688,4,1,0,100,0,0
124388,-96.674522126211,4,1,0,100,0,0
124446,-96.96906025109,4,1,0,100,0,0
124504,-97.2653985984509,4,1,0,100,0,0
124562,-97.5635537233761,4,1,0,100,0,0
124619,-97.8583545377439,4,1,0,100,0,0
124677,-98.160161650537,4,1,0,100,0,0
124735,-98.4638361425219,4,1,0,100,0,0
124792,-98.7641110694987,4,1,0,100,0,0
124850,-99.0715397413192,4,1,0,100,0,0
124908,-99.3808882907133,4,1,0,100,0,0
124965,-99.6867912301544,4,1,0,100,0,0
125023,-100,4,1,0,100,0,0
126182,-111.111111111111,4,1,0,100,0,0
126297,-110.499177881008,4,1,0,100,0,0
126413,-109.888714260767,4,1,0,100,0,0
126470,-109.59120990469,4,1,0,100,0,0
126528,-109.290135152204,4,1,0,100,0,0
126643,-108.698041802107,4,1,0,100,0,0
126759,-108.107263896047,4,1,0,100,0,0
126874,-107.527883928294,4,1,0,100,0,0
126932,-107.238024415939,4,1,0,100,0,0
126990,-106.949723432527,4,1,0,100,0,0
127105,-106.382651728219,4,1,0,100,0,0
127220,-105.821561792943,4,1,0,100,0,0
127336,-105.261557177616,4,1,0,100,0,0
127393,-104.988548634178,4,1,0,100,0,0
127451,-104.712200287422,4,1,0,100,0,0
127567,-104.163845123621,4,1,0,100,0,0
127682,-103.625857061589,4,1,0,100,0,0
127797,-103.093397673622,4,1,0,100,0,0
128028,-102.040214635297,4,1,0,100,0,0
128143,-101.523884953286,4,1,0,100,0,0
128259,-101.008332238906,4,1,0,100,0,0
128317,-100.75251444624,4,1,0,100,0,0
128374,-100.502366640532,4,1,0,100,0,0
128490,-99.9971107451388,4,1,0,100,0,0
128605,-99.5012002817428,4,1,0,100,0,0
128720,-99.0101842316054,4,1,0,100,0,0
128778,-98.7643751961875,4,1,0,100,0,0
128836,-98.5197836606889,4,1,0,100,0,0
128893,-98.2805866734818,4,1,0,100,0,0
128951,-98.0383825508108,4,1,0,100,0,0
129009,-97.7973692761977,4,1,0,100,0,0
129067,-97.5575380885939,4,1,0,100,0,0
129124,-97.3229852089309,4,1,0,100,0,0
129182,-97.0854722432607,4,1,0,100,0,0
129240,-96.8491157376315,4,1,0,100,0,0
129297,-96.617952905378,4,1,0,100,0,0
129355,-96.3838645446064,4,1,0,100,0,0
129413,-96.1509077523579,4,1,0,100,0,0
129470,-95.9230619993903,4,1,0,100,0,0
129528,-95.6923247069232,4,1,0,100,0,0
129586,-95.4626948007171,4,1,0,100,0,0
129643,-95.2380952380952,4,1,0,100,0,0
142619,-94.9188426252646,4,1,0,100,0,0
142677,-94.5961786425976,4,1,0,100,0,0
142735,-94.2757009345794,4,1,0,100,0,0
142792,-93.9628573091925,4,1,0,100,0,0
142850,-93.6466492602263,4,1,0,100,0,0
142908,-93.3325623084485,4,1,0,100,0,0
142965,-93.0259365994236,4,1,0,100,0,0
143023,-92.7159926470588,4,1,0,100,0,0
143081,-92.4081071796633,4,1,0,100,0,0
143138,-92.1075158363294,4,1,0,100,0,0
143196,-91.8036516694158,4,1,0,100,0,0
143254,-91.5017858155224,4,1,0,100,0,0
143312,-91.2018986268859,4,1,0,100,0,0
143369,-90.9090909090909,4,1,0,100,0,0
144411,-95.2380952380952,4,1,0,100,0,0
157850,-95.4665784248842,4,1,0,100,0,0
157908,-95.696160543992,4,1,0,100,0,0
157965,-95.9228627239101,4,1,0,100,0,0
158023,-96.1546473357497,4,1,0,100,0,0
158081,-96.3875548131134,4,1,0,100,0,0
158138,-96.6175485599464,4,1,0,100,0,0
158196,-96.8527066722618,4,1,0,100,0,0
158254,-97.0890122833586,4,1,0,100,0,0
158312,-97.3264738129375,4,1,0,100,0,0
158369,-97.5609756097561,4,1,0,100,0,0
158427,-97.8007542692487,4,1,0,100,0,0
158485,-98.0417144556306,4,1,0,100,0,0
158542,-98.2796797819792,4,1,0,100,0,0
158600,-98.5230086228976,4,1,0,100,0,0
158658,-98.7675453611777,4,1,0,100,0,0
158715,-99.0090515207413,4,1,0,100,0,0
158773,-99.2560099772073,4,1,0,100,0,0
158831,-99.5042034921319,4,1,0,100,0,0
158888,-99.7493301063186,4,1,0,100,0,0
158946,-100,4,1,0,100,0,0
162913,-100.147164257953,4,1,0,100,0,0
162927,-100.219016690582,4,1,0,100,0,0
162951,-100.290972300948,4,1,0,100,0,0
162985,-100.438994853164,4,1,0,100,0,0
163042,-100.656123184283,4,1,0,100,0,0
163100,-100.878026530845,4,1,0,100,0,0
163215,-101.320913186226,4,1,0,100,0,0
163331,-101.771608252167,4,1,0,100,0,0
163388,-101.994542869221,4,1,0,100,0,0
163446,-102.222393406001,4,1,0,100,0,0
163504,-102.451264234704,4,1,0,100,0,0
163561,-102.677189724543,4,1,0,100,0,0
163619,-102.908103916247,4,1,0,100,0,0
163677,-103.140059070418,4,1,0,100,0,0
163792,-103.603076082289,4,1,0,100,0,0
163831,-103.761044647744,4,1,0,100,0,0
163869,-103.915426781519,4,1,0,100,0,0
163908,-104.074350025489,4,1,0,100,0,0
163965,-104.30749882094,4,1,0,100,0,0
164023,-104.545812652643,4,1,0,100,0,0
164138,-105.021566222152,4,1,0,100,0,0
164254,-105.505863645399,4,1,0,100,0,0
164312,-105.749691198151,4,1,0,100,0,0
164369,-105.990415335463,4,1,0,100,0,0
164427,-106.236490272997,4,1,0,100,0,0
164485,-106.483710479859,4,1,0,100,0,0
164600,-106.977306622597,4,1,0,100,0,0
164658,-107.227990788251,4,1,0,100,0,0
164715,-107.475500121487,4,1,0,100,0,0
164754,-107.645508010546,4,1,0,100,0,0
164792,-107.811674858837,4,1,0,100,0,0
164831,-107.98274879974,4,1,0,100,0,0
164946,-108.490373216695,4,1,0,100,0,0
165062,-109.007269889514,4,1,0,100,0,0
165119,-109.263071222725,4,1,0,100,0,0
165177,-109.524595576098,4,1,0,100,0,0
165235,-109.787374865558,4,1,0,100,0,0
165292,-110.04685491562,4,1,0,100,0,0
165350,-110.312149299638,4,1,0,100,0,0
165408,-110.578725886421,4,1,0,100,0,0
165465,-110.841964584029,4,1,0,100,0,0
165523,-111.111111111111,4,1,0,100,0,0
165872,-97.5609756097561,4,1,0,100,0,0
166565,-125,4,1,0,70,0,0
166587,461.538461538462,4,1,0,70,1,0
166587,-62.5,4,1,0,70,0,0
181339,-95.2380952380952,4,1,0,100,0,0
181356,230.769230769231,4,1,0,100,1,1
181356,-95.2380952380952,4,1,0,100,0,1
181449,-100,4,1,0,100,0,1
195762,-100,4,1,0,100,0,1
195779,-100,4,1,0,100,0,0
195871,-97.4099099099099,4,1,0,100,0,0
195929,-96.1538461538461,4,1,0,100,0,0
195987,-94.9297629499561,4,1,0,100,0,0
196044,-93.7567743334056,4,1,0,100,0,0
196102,-92.5925925925926,4,1,0,100,0,0
196564,-100,4,1,0,100,0,0
196679,-100,4,1,0,100,0,0
196737,-98.6767054528861,4,1,0,100,0,0
196794,-97.4099099099099,4,1,0,100,0,0
196910,-94.9297629499561,4,1,0,100,0,0
197025,-92.5925925925926,4,1,0,100,0,0
197141,-100,4,1,0,100,0,0
197948,-92.5925925925926,4,1,0,100,0,0
198010,-100,4,1,0,100,0,0
199102,-100,4,1,0,100,0,0
199217,-98.0433857932795,4,1,0,100,0,0
199333,-96.1458246433636,4,1,0,100,0,0
199448,-94.3357616436114,4,1,0,100,0,0
199563,-92.5925925925926,4,1,0,100,0,0
199679,-95.2380952380952,4,1,0,100,0,0
199737,-97.5816716164616,4,1,0,100,0,0
199794,-100,4,1,0,100,0,0
201525,-100,4,1,0,100,0,0
201564,-100.475386142407,4,1,0,100,0,0
201602,-100.94295061318,4,1,0,100,0,0
201640,-101.414887072678,4,1,0,100,0,0
201756,-102.883226646221,4,1,0,100,0,0
201871,-104.381489923659,4,1,0,100,0,0
201987,-105.937649175633,4,1,0,100,0,0
202102,-107.52688172043,4,1,0,100,0,0
202563,-107.52688172043,4,1,0,100,0,0
202564,-107.53439005656,4,1,0,100,0,0
202794,-109.289617486339,4,1,0,100,0,0
203025,-111.111111111111,4,1,0,100,0,0
203256,-108.695652173913,4,1,0,100,0,0
203314,-106.373181064653,4,1,0,100,0,0
203371,-104.185459137651,4,1,0,100,0,0
203429,-102.049832125817,4,1,0,100,0,0
203487,-100,4,1,0,100,0,0
204064,-100,4,1,0,100,0,0
204121,-99.021235189743,4,1,0,100,0,0
204179,-98.0447718900538,4,1,0,100,0,0
204294,-96.1645358532518,4,1,0,100,0,0
204352,-95.2433384717023,4,1,0,100,0,0
204410,-94.3396226415094,4,1,0,100,0,0
204641,-100,4,1,0,100,0,0
205333,-96.1538461538461,4,1,0,100,0,0
205564,-92.5925925925926,4,1,0,100,0,0
205795,-100,4,1,0,100,0,0
206025,-100,4,1,0,100,0,0
206140,-97.571277719113,4,1,0,100,0,0
206198,-96.3905695806384,4,1,0,100,0,0
206256,-95.2380952380952,4,1,0,100,0,0
206488,-100,4,1,0,100,0,0
206948,-100,4,1,0,100,0,0
207064,-97.5506756756757,4,1,0,100,0,0
207121,-96.3905695806384,4,1,0,100,0,0
207179,-95.2380952380952,4,1,0,100,0,0
207411,-100,4,1,0,100,0,0
209948,-100,4,1,0,100,0,0
210064,-98.8313520048358,4,1,0,100,0,0
210121,-98.267053991786,4,1,0,100,0,0
210179,-97.6994323274574,4,1,0,100,0,0
210294,-96.5931469082316,4,1,0,100,0,0
210410,-95.5023364485981,4,1,0,100,0,0
210525,-94.4449793010494,4,1,0,100,0,0
210583,-93.9205361416946,4,1,0,100,0,0
210640,-93.4107788992573,4,1,0,100,0,0
210756,-92.3902806554907,4,1,0,100,0,0
210871,-91.4003540482624,4,1,0,100,0,0
211103,-100,4,1,0,70,0,0
212718,-90.9090909090909,4,1,0,100,0,0
212949,-100,4,1,0,70,0,0
213871,-100,4,1,0,70,0,0
213987,-99.2022556908053,4,1,0,70,0,0
214044,-98.8149061515276,4,1,0,70,0,0
214102,-98.4238537117904,4,1,0,70,0,0
214217,-97.6575722699885,4,1,0,70,0,0
214333,-96.896621213139,4,1,0,70,0,0
214448,-96.1538461538461,4,1,0,70,0,0
214564,-90.9090909090909,4,1,0,100,0,0
214795,-100,4,1,0,70,0,0
216411,-90.9090909090909,4,1,0,100,0,0
216641,-100,4,1,0,70,0,0
218487,-100,4,1,0,100,0,0
218602,-99.6688264938805,4,1,0,100,0,0
218717,-99.3398392652124,4,1,0,100,0,0
218948,-98.6855236520202,4,1,0,90,0,0
219064,-98.3601898428397,4,1,0,90,0,0
219179,-98.0397711177837,4,1,0,90,0,0
219410,-97.4024146567979,4,1,0,90,0,0
219525,-97.0881956912029,4,1,0,90,0,0
219640,-96.7759975393563,4,1,0,90,0,0
219871,-96.1549147080069,4,1,0,90,0,0
219987,-95.8460260315702,4,1,0,90,0,0
220102,-95.5417529330573,4,1,0,90,0,0
220333,-94.9363616414308,4,1,0,90,0,0
220448,-94.6378277870444,4,1,0,90,0,0
220564,-94.3385940523891,4,1,0,90,0,0
220794,-93.7508464934854,4,1,0,90,0,0
220910,-93.4571868333648,4,1,0,90,0,0
221025,-93.1678690642834,4,1,0,90,0,0
221256,-92.5920971668584,4,1,0,90,0,0
221371,-92.3081026297541,4,1,0,90,0,0
221487,-92.0233980324382,4,1,0,90,0,0
221717,-91.4640591966173,4,1,0,90,0,0
221833,-91.1845294551586,4,1,0,90,0,0
221890,-91.0477994370347,4,1,0,90,0,0
221948,-90.9090909090909,4,1,0,90,0,0
222064,-90.9090909090909,4,1,0,90,0,0
222179,-91.461802802009,4,1,0,90,0,0
222294,-92.0212765957447,4,1,0,90,0,0
222410,-92.5925925925926,4,1,0,90,0,0
222525,-93.1660294038451,4,1,0,90,0,0
222640,-93.7466132003901,4,1,0,90,0,0
222756,-94.3396226415094,4,1,0,90,0,0
222871,-94.9349722877682,4,1,0,90,0,0
222987,-95.5431601038272,4,1,0,90,0,0
223102,-96.1538461538461,4,1,0,90,0,0
223217,-96.7723891033171,4,1,0,90,0,0
223333,-97.4044254264963,4,1,0,90,0,0
223448,-98.0392156862745,4,1,0,90,0,0
223564,-98.687963491158,4,1,0,90,0,0
223679,-99.3396497272466,4,1,0,90,0,0
223794,-100,4,1,0,90,0,0
224948,-100,4,1,0,90,0,0
225006,-100.675046554935,4,1,0,90,0,0
225064,-101.359268807124,4,1,0,90,0,0
225121,-102.040816326531,4,1,0,90,0,0
225179,-102.743793799739,4,1,0,90,0,0
225294,-104.166666666667,4,1,0,90,0,0
225410,-105.642403517342,4,1,0,90,0,0
225525,-107.147281060325,4,1,0,90,0,0
225640,-108.695652173913,4,1,0,80,0,0
225663,461.538461538462,4,1,0,80,1,0
225663,-54.3478260869565,4,1,0,80,0,0
226125,-54.3478260869565,4,1,0,80,0,0
239256,-54.3478260869565,4,1,0,80,0,0
239285,-54.2475859824238,4,1,0,80,0,0
239371,-53.9607165983164,4,1,0,80,0,0
239400,-53.8618980932888,4,1,0,80,0,0
239487,-53.5676023141204,4,1,0,80,0,0
239525,-53.4473543559594,4,1,0,80,0,0
239564,-53.3162721262529,4,1,0,80,0,0
239602,-53.1914893617021,4,1,0,80,0,0
239660,-52.999788000848,4,1,0,80,0,0
239717,-52.820621170505,4,1,0,80,0,0
239833,-52.443885043004,4,1,0,80,0,0
239948,-52.0833333333333,4,1,0,80,0,0
240179,-52.0833333333333,4,1,0,80,0,0
240294,-51.2295081967213,4,1,0,80,0,0
240410,-50.3981453482512,4,1,0,80,0,0
240641,-50,4,1,0,80,0,0
262679,-50,4,1,0,80,0,0
262794,-50.1052209640244,4,1,0,80,0,0
262910,-50.2108857200241,4,1,0,81,0,0
263025,-50.3119339907426,4,1,0,81,0,0
263140,-50.4184733286276,4,1,0,81,0,0
263256,-50.5254648342765,4,1,0,81,0,0
263371,-50.6329113924051,4,1,0,82,0,0
263487,-50.7408159123199,4,1,0,82,0,0
263602,-50.8491813281806,4,1,0,82,0,0
263717,-50.9528176908183,4,1,0,82,0,0
263833,-51.062091503268,4,1,0,83,0,0
263948,-51.1718350220039,4,1,0,83,0,0
264064,-51.2820512820513,4,1,0,83,0,0
264179,-51.3927433446397,4,1,0,83,0,0
264294,-51.5039142974866,4,1,0,84,0,0
264410,-51.6155672550841,4,1,0,84,0,0
264525,-51.7223544015724,4,1,0,84,0,0
264640,-51.8349574953349,4,1,0,84,0,0
264756,-51.9480519480519,4,1,0,85,0,0
264871,-52.0616409829238,4,1,0,85,0,0
264987,-52.1757278514035,4,1,0,85,0,0
265102,-52.2903158335076,4,1,0,85,0,0
265217,-52.3999161601341,4,1,0,86,0,0
265333,-52.5154920701607,4,1,0,86,0,0
265448,-52.6315789473684,4,1,0,86,0,0
265564,-52.7481801877835,4,1,0,86,0,0
265679,-52.8652992175936,4,1,0,87,0,0
265794,-52.9773257045984,4,1,0,87,0,0
265910,-53.0954656472337,4,1,0,87,0,0
266025,-53.2141336739038,4,1,0,88,0,0
266140,-53.3333333333333,4,1,0,88,0,0
266256,-53.453068206115,4,1,0,88,0,0
266371,-53.573341905068,4,1,0,88,0,0
266487,-53.6941580756014,4,1,0,89,0,0
266602,-53.8097287989669,4,1,0,89,0,0
266717,-53.9316147125445,4,1,0,89,0,0
266833,-54.054054054054,4,1,0,89,0,0
266948,-54.1770506013653,4,1,0,90,0,0
267064,-54.3006081668115,4,1,0,90,0,0
267179,-54.4247305975835,4,1,0,90,0,0
267294,-54.5434711465038,4,1,0,90,0,0
267410,-54.6687076317516,4,1,0,91,0,0
267525,-54.7945205479452,4,1,0,91,0,0
267640,-54.920913884007,4,1,0,91,0,0
267756,-55.0478916657492,4,1,0,91,0,0
267871,-55.175457956301,4,1,0,92,0,0
267987,-55.297500552975,4,1,0,92,0,0
268102,-55.4262276909434,4,1,0,92,0,0
268217,-55.5555555555556,4,1,0,92,0,0
268333,-55.5555555555556,4,1,0,93,0,0
268390,-55.3403431101273,4,1,0,93,0,0
268448,-55.1207143644582,4,1,0,93,0,0
268506,-54.9028220050511,4,1,0,94,0,0
268564,-54.6866455211637,4,1,0,94,0,0
268621,-54.4780998038788,4,1,0,94,0,0
268679,-54.2652485348383,4,1,0,94,0,0
268737,-54.054054054054,4,1,0,95,0,0
268794,-53.850296176629,4,1,0,95,0,0
268852,-53.642313056539,4,1,0,95,0,0
268910,-53.4359303195469,4,1,0,95,0,0
268967,-53.2311295645694,4,1,0,96,0,0
269025,-53.0335171828596,4,1,0,96,0,0
269083,-52.8317836010144,4,1,0,96,0,0
269140,-52.6315789473684,4,1,0,96,0,0
269198,-52.4328859060403,4,1,0,97,0,0
269256,-52.2356874216465,4,1,0,97,0,0
269314,-52.0453835744769,4,1,0,97,0,0
269371,-51.8510836876491,4,1,0,97,0,0
269429,-51.6582291559045,4,1,0,98,0,0
269487,-51.4668039114771,4,1,0,98,0,0
269544,-51.2820512820513,4,1,0,98,0,0
269602,-51.0933987328837,4,1,0,98,0,0
269660,-50.9061290979434,4,1,0,99,0,0
269717,-50.7253728314903,4,1,0,99,0,0
269775,-50.5407864146366,4,1,0,99,0,0
269833,-50.357538523517,4,1,0,99,0,0
269890,-50.1806503412284,4,1,0,100,0,0
269970,230.769230769231,4,1,0,100,1,8
269972,230.769230769231,4,1,0,100,1,1
269972,-100.360427541636,4,1,0,100,0,1
270012,-100,4,1,0,100,0,1
299262,-100,4,1,0,100,0,1
299279,-100,4,1,0,100,0,0
299488,-105.263157894737,4,1,0,60,0,0
299510,461.538461538462,4,1,0,60,1,0
299510,-52.6315789473684,4,1,0,60,0,0
310454,-52.6315789473684,4,1,0,60,0,0
310570,-52.6315789473684,4,1,0,61,0,0
310586,230.769230769231,4,1,0,61,1,0
310586,-105.263157894737,4,1,0,61,0,0
310685,-105.263157894737,4,1,0,62,0,0
310800,-105.263157894737,4,1,0,64,0,0
310916,-105.263157894737,4,1,0,65,0,0
311031,-105.263157894737,4,1,0,66,0,0
311146,-105.263157894737,4,1,0,67,0,0
311262,-105.263157894737,4,1,0,68,0,0
311377,-105.263157894737,4,1,0,70,0,0
311493,-105.263157894737,4,1,0,71,0,0
311608,-105.263157894737,4,1,0,72,0,0
311723,-105.263157894737,4,1,0,73,0,0
311839,-105.263157894737,4,1,0,75,0,0
311954,-105.263157894737,4,1,0,76,0,0
312070,-105.263157894737,4,1,0,77,0,0
312185,-105.263157894737,4,1,0,78,0,0
312300,-105.263157894737,4,1,0,79,0,0
312416,-105.263157894737,4,1,0,81,0,0
312473,-105.263157894737,4,1,0,82,0,0
312531,-105.263157894737,4,1,0,83,0,0
312589,-105.263157894737,4,1,0,84,0,0
312646,-105.263157894737,4,1,0,85,0,0
312704,-105.263157894737,4,1,0,87,0,0
312762,-105.263157894737,4,1,0,88,0,0
312820,-105.263157894737,4,1,0,89,0,0
312877,-105.263157894737,4,1,0,90,0,0
312935,-105.263157894737,4,1,0,92,0,0
312993,-105.263157894737,4,1,0,93,0,0
313050,-105.263157894737,4,1,0,94,0,0
313108,-105.263157894737,4,1,0,95,0,0
313166,-105.263157894737,4,1,0,96,0,0
313223,-105.263157894737,4,1,0,98,0,0
313281,-105.263157894737,4,1,0,99,0,0
313339,-105.263157894737,4,1,0,100,0,0
313679,-105.263157894737,4,1,0,100,0,0
313708,-104.552159623198,4,1,0,100,0,0
313794,-102.499048585564,4,1,0,100,0,0
313823,-101.824780723863,4,1,0,100,0,0
313910,-99.8541733606861,4,1,0,100,0,0
313939,-99.2141453831041,4,1,0,100,0,0
314025,-97.3634742372391,4,1,0,100,0,0
314054,-96.7548796551311,4,1,0,100,0,0

[HitObjects]
238,183,434,5,0,0:0:0:0:
238,183,780,1,8,0:0:0:0:
238,183,895,1,0,0:0:0:0:
238,183,1126,1,0,0:0:0:0:
238,183,1241,1,8,0:0:0:0:
238,183,1472,1,0,0:0:0:0:
238,183,1703,1,8,0:0:0:0:
238,183,1818,1,0,0:0:0:0:
238,183,2049,1,8,0:0:0:0:
238,183,2164,1,8,0:0:0:0:
238,183,2280,1,0,0:0:0:0:
238,183,2510,1,8,0:0:0:0:
238,183,2626,1,0,0:0:0:0:
238,183,2741,1,8,0:0:0:0:
238,183,2972,1,8,0:0:0:0:
238,183,3087,1,8,0:0:0:0:
238,183,3203,1,0,0:0:0:0:
238,183,3318,1,8,0:0:0:0:
238,183,3549,1,8,0:0:0:0:
238,183,3664,1,0,0:0:0:0:
238,183,3895,1,8,0:0:0:0:
238,183,4010,1,0,0:0:0:0:
238,183,4126,1,0,0:0:0:0:
238,183,4472,1,8,0:0:0:0:
238,183,4587,1,0,0:0:0:0:
238,183,4818,1,0,0:0:0:0:
238,183,4934,1,8,0:0:0:0:
238,183,5164,1,8,0:0:0:0:
238,183,5395,1,0,0:0:0:0:
238,183,5510,1,8,0:0:0:0:
238,183,5741,1,8,0:0:0:0:
238,183,5857,1,8,0:0:0:0:
238,183,5972,1,0,0:0:0:0:
238,183,6203,1,8,0:0:0:0:
238,183,6318,1,0,0:0:0:0:
238,183,6434,1,8,0:0:0:0:
238,183,6664,1,8,0:0:0:0:
238,183,6780,1,0,0:0:0:0:
238,183,6895,1,8,0:0:0:0:
238,183,7010,1,8,0:0:0:0:
238,183,7241,1,8,0:0:0:0:
238,183,7357,1,0,0:0:0:0:
238,183,7472,1,0,0:0:0:0:
238,183,7587,1,8,0:0:0:0:
238,183,7703,1,8,0:0:0:0:
238,183,7818,1,0,0:0:0:0:
238,183,8164,1,8,0:0:0:0:
238,183,8280,1,0,0:0:0:0:
238,183,8510,1,0,0:0:0:0:
238,183,8626,1,8,0:0:0:0:
238,183,8857,1,0,0:0:0:0:
238,183,9087,1,8,0:0:0:0:
238,183,9203,1,0,0:0:0:0:
238,183,9434,1,8,0:0:0:0:
238,183,9549,1,8,0:0:0:0:
238,183,9664,1,0,0:0:0:0:
238,183,9895,1,8,0:0:0:0:
238,183,10010,1,0,0:0:0:0:
238,183,10126,1,8,0:0:0:0:
238,183,10357,1,8,0:0:0:0:
238,183,10472,1,0,0:0:0:0:
238,183,10587,1,0,0:0:0:0:
238,183,10703,1,8,0:0:0:0:
238,183,10934,1,8,0:0:0:0:
238,183,11049,1,0,0:0:0:0:
238,183,11280,1,8,0:0:0:0:
238,183,11395,1,0,0:0:0:0:
238,183,11510,1,0,0:0:0:0:
238,183,11857,1,8,0:0:0:0:
238,183,11972,1,0,0:0:0:0:
238,183,12203,1,0,0:0:0:0:
238,183,12318,1,8,0:0:0:0:
238,183,12434,1,0,0:0:0:0:
238,183,12549,1,0,0:0:0:0:
238,183,12664,1,8,0:0:0:0:
238,183,12780,1,0,0:0:0:0:
238,183,12895,1,8,0:0:0:0:
238,183,13010,1,8,0:0:0:0:
238,183,13126,1,0,0:0:0:0:
238,183,13241,1,8,0:0:0:0:
238,183,13357,1,0,0:0:0:0:
238,183,13587,1,8,0:0:0:0:
238,183,13703,1,8,0:0:0:0:
238,183,13818,1,0,0:0:0:0:
238,183,14049,1,8,0:0:0:0:
238,183,14164,1,8,0:0:0:0:
238,183,14280,1,0,0:0:0:0:
238,183,14395,1,0,0:0:0:0:
238,183,14510,1,8,0:0:0:0:
238,183,14626,1,8,0:0:0:0:
238,183,14741,1,0,0:0:0:0:
238,183,14857,1,0,0:0:0:0:
238,183,14972,1,8,0:0:0:0:
238,183,15203,1,0,0:0:0:0:
238,183,15434,1,8,0:0:0:0:
238,183,15664,1,0,0:0:0:0:
238,183,15780,1,8,0:0:0:0:
238,183,16010,1,8,0:0:0:0:
238,183,16126,1,0,0:0:0:0:
238,183,16241,1,0,0:0:0:0:
238,183,16472,1,8,0:0:0:0:
238,183,16587,1,0,0:0:0:0:
238,183,16818,1,8,0:0:0:0:
238,183,17049,1,0,0:0:0:0:
238,183,17280,1,8,0:0:0:0:
238,183,17510,1,0,0:0:0:0:
238,183,17626,1,8,0:0:0:0:
238,183,17857,1,8,0:0:0:0:
238,183,17972,1,0,0:0:0:0:
238,183,18087,1,0,0:0:0:0:
238,183,18203,1,8,0:0:0:0:
238,183,18318,1,8,0:0:0:0:
238,183,18434,1,0,0:0:0:0:
238,183,18664,1,8,0:0:0:0:
238,183,18895,1,0,0:0:0:0:
238,183,19126,1,8,0:0:0:0:
238,183,19357,1,0,0:0:0:0:
238,183,19472,1,8,0:0:0:0:
238,183,19703,1,8,0:0:0:0:
238,183,19818,1,0,0:0:0:0:
238,183,19934,1,0,0:0:0:0:
238,183,20164,1,8,0:0:0:0:
238,183,20280,1,0,0:0:0:0:
238,183,20510,1,8,0:0:0:0:
238,183,20741,1,0,0:0:0:0:
238,183,20972,1,8,0:0:0:0:
238,183,21203,1,0,0:0:0:0:
238,183,21318,1,8,0:0:0:0:
238,183,21549,1,0,0:0:0:0:
238,183,21664,1,8,0:0:0:0:
238,183,21780,1,0,0:0:0:0:
238,183,21895,1,8,0:0:0:0:
238,183,22010,1,8,0:0:0:0:
238,183,22126,1,0,0:0:0:0:
238,183,22357,1,8,0:0:0:0:
238,183,22587,1,0,0:0:0:0:
238,183,22818,1,8,0:0:0:0:
238,183,23049,1,0,0:0:0:0:
238,183,23164,1,8,0:0:0:0:
238,183,23395,1,8,0:0:0:0:
238,183,23510,1,0,0:0:0:0:
238,183,23626,1,0,0:0:0:0:
238,183,23857,1,8,0:0:0:0:
238,183,23972,1,0,0:0:0:0:
238,183,24203,1,8,0:0:0:0:
238,183,24434,1,0,0:0:0:0:
238,183,24664,1,8,0:0:0:0:
238,183,24895,1,0,0:0:0:0:
238,183,25010,1,8,0:0:0:0:
238,183,25241,1,8,0:0:0:0:
238,183,25357,1,0,0:0:0:0:
238,183,25472,1,0,0:0:0:0:
238,183,25587,1,8,0:0:0:0:
238,183,25703,1,8,0:0:0:0:
238,183,25818,1,0,0:0:0:0:
238,183,26049,1,8,0:0:0:0:
238,183,26280,1,0,0:0:0:0:
238,183,26510,1,8,0:0:0:0:
238,183,26626,1,8,0:0:0:0:
238,183,26741,1,0,0:0:0:0:
238,183,26972,1,8,0:0:0:0:
238,183,27203,1,0,0:0:0:0:
238,183,27434,1,0,0:0:0:0:
238,183,27664,1,0,0:0:0:0:
238,183,28126,1,0,0:0:0:0:
238,183,28357,1,0,0:0:0:0:
238,183,28587,1,0,0:0:0:0:
238,183,28818,1,0,0:0:0:0:
238,183,28934,1,0,0:0:0:0:
238,183,29049,1,8,0:0:0:0:
238,183,29164,1,0,0:0:0:0:
238,183,29280,1,8,0:0:0:0:
238,183,29395,1,8,0:0:0:0:
238,183,29510,1,0,0:0:0:0:
238,183,29741,1,8,0:0:0:0:
238,183,29972,1,0,0:0:0:0:
238,183,30203,1,8,0:0:0:0:
238,183,30664,1,8,0:0:0:0:
238,183,30895,1,0,0:0:0:0:
238,183,31126,1,8,0:0:0:0:
238,183,31587,1,8,0:0:0:0:
238,183,31818,1,0,0:0:0:0:
238,183,32049,1,8,0:0:0:0:
238,183,32510,1,8,0:0:0:0:
238,183,32741,1,0,0:0:0:0:
238,183,32857,1,0,0:0:0:0:
238,183,32972,1,8,0:0:0:0:
238,183,33087,1,0,0:0:0:0:
238,183,33203,1,8,0:0:0:0:
238,183,33434,1,8,0:0:0:0:
238,183,33664,1,0,0:0:0:0:
238,183,33895,1,8,0:0:0:0:
238,183,34357,1,8,0:0:0:0:
238,183,34587,1,0,0:0:0:0:
238,183,34818,1,8,0:0:0:0:
238,183,35280,1,8,0:0:0:0:
238,183,35510,1,0,0:0:0:0:
238,183,35741,1,8,0:0:0:0:
238,183,36203,1,8,0:0:0:0:
238,183,36434,1,0,0:0:0:0:
238,183,36549,1,0,0:0:0:0:
238,183,36664,1,8,0:0:0:0:
238,183,36780,1,8,0:0:0:0:
238,183,36895,1,0,0:0:0:0:
238,183,37126,1,8,0:0:0:0:
238,183,37357,1,0,0:0:0:0:
238,183,37587,1,0,0:0:0:0:
238,183,37703,1,8,0:0:0:0:
238,183,37760,1,8,0:0:0:0:
238,183,37818,1,0,0:0:0:0:
238,183,38049,1,0,0:0:0:0:
238,183,38164,1,8,0:0:0:0:
238,183,38222,1,8,0:0:0:0:
238,183,38280,1,0,0:0:0:0:
238,183,38510,1,0,0:0:0:0:
238,183,38626,1,8,0:0:0:0:
238,183,38684,1,8,0:0:0:0:
238,183,38741,1,0,0:0:0:0:
238,183,38857,1,8,0:0:0:0:
238,183,38972,1,0,0:0:0:0:
238,183,39030,1,0,0:0:0:0:
238,183,39087,1,8,0:0:0:0:
238,183,39145,1,8,0:0:0:0:
238,183,39203,1,0,0:0:0:0:
238,183,39434,1,0,0:0:0:0:
238,183,39549,1,8,0:0:0:0:
238,183,39607,1,8,0:0:0:0:
238,183,39664,1,0,0:0:0:0:
238,183,39895,1,0,0:0:0:0:
238,183,40010,1,8,0:0:0:0:
238,183,40068,1,8,0:0:0:0:
238,183,40126,1,0,0:0:0:0:
238,183,40357,1,0,0:0:0:0:
238,183,40472,1,8,0:0:0:0:
238,183,40530,1,8,0:0:0:0:
238,183,40587,1,0,0:0:0:0:
238,183,40703,1,8,0:0:0:0:
238,183,40818,1,0,0:0:0:0:
238,183,40876,1,8,0:0:0:0:
238,183,40934,1,0,0:0:0:0:
238,183,40991,1,0,0:0:0:0:
238,183,41049,1,8,0:0:0:0:
238,183,41164,1,0,0:0:0:0:
238,183,41280,1,8,0:0:0:0:
238,183,41395,1,0,0:0:0:0:
238,183,41510,1,8,0:0:0:0:
238,183,41626,1,0,0:0:0:0:
238,183,41741,1,8,0:0:0:0:
238,183,41857,1,0,0:0:0:0:
238,183,41972,1,8,0:0:0:0:
238,183,42030,1,8,0:0:0:0:
238,183,42087,1,8,0:0:0:0:
238,183,42145,1,8,0:0:0:0:
238,183,42203,1,0,0:0:0:0:
238,183,42260,1,0,0:0:0:0:
238,183,42318,1,0,0:0:0:0:
238,183,42376,1,8,0:0:0:0:
238,183,42434,1,0,0:0:0:0:
238,183,42491,1,0,0:0:0:0:
238,183,42549,1,8,0:0:0:0:
238,183,42607,1,8,0:0:0:0:
238,183,42664,1,0,0:0:0:0:
238,183,42722,1,8,0:0:0:0:
238,183,42780,1,8,0:0:0:0:
238,183,42837,1,8,0:0:0:0:
238,183,42895,1,0,0:0:0:0:
238,183,43126,1,0,0:0:0:0:
238,183,43241,1,0,0:0:0:0:
238,183,43357,1,8,0:0:0:0:
238,183,43472,1,0,0:0:0:0:
238,183,43587,1,8,0:0:0:0:
238,183,43703,1,8,0:0:0:0:
238,183,43818,1,4,0:0:0:0:
238,183,44049,1,0,0:0:0:0:
238,183,44164,1,0,0:0:0:0:
238,183,44280,1,8,0:0:0:0:
238,183,44395,1,8,0:0:0:0:
238,183,44510,1,0,0:0:0:0:
238,183,44568,1,0,0:0:0:0:
238,183,44626,1,8,0:0:0:0:
238,183,44741,1,4,0:0:0:0:
238,183,44857,1,8,0:0:0:0:
238,183,44914,1,8,0:0:0:0:
238,183,44972,1,0,0:0:0:0:
238,183,45087,1,0,0:0:0:0:
238,183,45203,1,8,0:0:0:0:
238,183,45260,1,0,0:0:0:0:
238,183,45318,1,8,0:0:0:0:
238,183,45376,1,8,0:0:0:0:
238,183,45434,1,0,0:0:0:0:
238,183,45491,1,0,0:0:0:0:
238,183,45549,1,8,0:0:0:0:
238,183,45664,1,8,0:0:0:0:
238,183,45722,1,8,0:0:0:0:
238,183,45780,1,0,0:0:0:0:
238,183,45837,1,0,0:0:0:0:
238,183,45895,1,8,0:0:0:0:
238,183,45953,1,0,0:0:0:0:
238,183,46010,1,8,0:0:0:0:
238,183,46068,1,8,0:0:0:0:
238,183,46126,1,0,0:0:0:0:
238,183,46184,1,0,0:0:0:0:
238,183,46241,1,8,0:0:0:0:
238,183,46299,1,0,0:0:0:0:
238,183,46357,1,8,0:0:0:0:
238,183,46414,1,8,0:0:0:0:
238,183,46472,1,0,0:0:0:0:
238,183,46587,1,8,0:0:0:0:
238,183,46626,1,8,0:0:0:0:
238,183,46664,1,0,0:0:0:0:
238,183,46703,1,0,0:0:0:0:
238,183,46818,1,8,0:0:0:0:
238,183,46934,1,8,0:0:0:0:
238,183,46972,1,8,0:0:0:0:
238,183,47010,1,0,0:0:0:0:
238,183,47049,1,0,0:0:0:0:
238,183,47164,1,0,0:0:0:0:
238,183,47280,1,8,0:0:0:0:
238,183,47309,1,8,0:0:0:0:
238,183,47395,1,0,0:0:0:0:
238,183,47423,1,0,0:0:0:0:
238,183,47510,1,8,0:0:0:0:
238,183,47539,1,8,0:0:0:0:
238,183,47626,1,8,0:0:0:0:
238,183,47655,1,8,0:0:0:0:
238,183,47741,1,8,0:0:0:0:
238,183,47770,1,8,0:0:0:0:
238,183,47857,1,0,0:0:0:0:
238,183,47885,1,0,0:0:0:0:
238,183,47972,1,8,0:0:0:0:
238,183,48010,1,0,0:0:0:0:
238,183,48049,1,0,0:0:0:0:
238,183,48087,1,8,0:0:0:0:
238,183,48145,1,8,0:0:0:0:
238,183,48203,1,0,0:0:0:0:
238,183,48318,1,8,0:0:0:0:
238,183,48434,1,0,0:0:0:0:
238,183,48491,1,0,0:0:0:0:
238,183,48549,1,8,0:0:0:0:
238,183,48664,1,8,0:0:0:0:
238,183,48780,1,0,0:0:0:0:
238,183,48895,1,8,0:0:0:0:
238,183,48953,1,0,0:0:0:0:
238,183,49010,1,8,0:0:0:0:
238,183,49068,1,8,0:0:0:0:
238,183,49126,1,0,0:0:0:0:
238,183,49184,1,0,0:0:0:0:
238,183,49241,1,8,0:0:0:0:
238,183,49357,1,8,0:0:0:0:
238,183,49414,1,8,0:0:0:0:
238,183,49472,1,0,0:0:0:0:
238,183,49530,1,8,0:0:0:0:
238,183,49587,1,0,0:0:0:0:
238,183,49645,1,0,0:0:0:0:
238,183,49703,1,8,0:0:0:0:
238,183,49760,1,0,0:0:0:0:
238,183,49818,1,8,0:0:0:0:
238,183,49876,1,8,0:0:0:0:
238,183,49934,1,0,0:0:0:0:
238,183,49991,1,0,0:0:0:0:
238,183,50049,1,8,0:0:0:0:
238,183,50107,1,8,0:0:0:0:
238,183,50164,1,8,0:0:0:0:
238,183,50222,1,8,0:0:0:0:
238,183,50280,1,0,0:0:0:0:
238,183,50318,1,0,0:0:0:0:
238,183,50357,1,8,0:0:0:0:
238,183,50395,1,8,0:0:0:0:
238,183,50510,1,0,0:0:0:0:
238,183,50626,1,8,0:0:0:0:
238,183,50741,1,0,0:0:0:0:
238,183,50780,1,8,0:0:0:0:
238,183,50818,1,8,0:0:0:0:
238,183,50857,1,0,0:0:0:0:
238,183,50914,1,0,0:0:0:0:
238,183,50972,1,8,0:0:0:0:
238,183,51087,1,0,0:0:0:0:
238,183,51203,1,8,0:0:0:0:
238,183,51260,1,0,0:0:0:0:
238,183,51318,1,0,0:0:0:0:
238,183,51434,1,8,0:0:0:0:
238,183,51491,1,8,0:0:0:0:
238,183,51549,1,8,0:0:0:0:
238,183,51607,1,0,0:0:0:0:
238,183,51664,1,8,0:0:0:0:
238,183,51780,1,0,0:0:0:0:
238,183,51895,1,12,0:0:0:0:
238,183,52126,1,4,0:0:0:0:
238,183,52241,1,8,0:0:0:0:
238,183,52357,1,0,0:0:0:0:
238,183,52587,1,8,0:0:0:0:
238,183,52645,1,0,0:0:0:0:
238,183,52703,1,8,0:0:0:0:
238,183,52760,1,0,0:0:0:0:
238,183,52818,1,8,0:0:0:0:
238,183,52876,1,8,0:0:0:0:
238,183,52934,1,0,0:0:0:0:
238,183,53049,1,8,0:0:0:0:
238,183,53107,1,0,0:0:0:0:
238,183,53164,1,0,0:0:0:0:
238,183,53222,1,0,0:0:0:0:
238,183,53280,1,8,0:0:0:0:
238,183,53337,1,8,0:0:0:0:
238,183,53395,1,0,0:0:0:0:
238,183,53453,1,0,0:0:0:0:
238,183,53510,1,8,0:0:0:0:
238,183,53568,1,0,0:0:0:0:
238,183,53626,1,8,0:0:0:0:
238,183,53684,1,8,0:0:0:0:
238,183,53741,1,8,0:0:0:0:
238,183,53799,1,8,0:0:0:0:
238,183,53857,1,0,0:0:0:0:
238,183,53914,1,0,0:0:0:0:
238,183,53972,1,8,0:0:0:0:
238,183,54010,1,0,0:0:0:0:
238,183,54049,1,0,0:0:0:0:
238,183,54087,1,8,0:0:0:0:
238,183,54203,1,0,0:0:0:0:
238,183,54318,1,8,0:0:0:0:
238,183,54434,1,0,0:0:0:0:
238,183,54491,1,8,0:0:0:0:
238,183,54549,1,8,0:0:0:0:
238,183,54664,1,0,0:0:0:0:
238,183,54780,1,8,0:0:0:0:
238,183,54895,1,0,0:0:0:0:
238,183,54953,1,8,0:0:0:0:
238,183,55010,1,8,0:0:0:0:
238,183,55068,1,0,0:0:0:0:
238,183,55126,1,0,0:0:0:0:
238,183,55184,1,8,0:0:0:0:
238,183,55241,1,0,0:0:0:0:
238,183,55299,1,8,0:0:0:0:
238,183,55357,1,8,0:0:0:0:
238,183,55414,1,0,0:0:0:0:
238,183,55472,1,0,0:0:0:0:
238,183,55530,1,8,0:0:0:0:
238,183,55587,1,0,0:0:0:0:
238,183,55645,1,8,0:0:0:0:
238,183,55703,1,8,0:0:0:0:
238,183,55818,1,0,0:0:0:0:
238,183,55934,1,8,0:0:0:0:
238,183,56049,1,0,0:0:0:0:
238,183,56280,1,8,0:0:0:0:
238,183,56337,1,0,0:0:0:0:
238,183,56395,1,8,0:0:0:0:
238,183,56453,1,8,0:0:0:0:
238,183,56510,1,0,0:0:0:0:
238,183,56568,1,0,0:0:0:0:
238,183,56626,1,8,0:0:0:0:
238,183,56741,1,0,0:0:0:0:
238,183,56799,1,0,0:0:0:0:
238,183,56857,1,8,0:0:0:0:
238,183,56914,1,0,0:0:0:0:
238,183,56972,1,8,0:0:0:0:
238,183,57030,1,8,0:0:0:0:
238,183,57087,1,8,0:0:0:0:
238,183,57145,1,8,0:0:0:0:
238,183,57203,1,0,0:0:0:0:
238,183,57260,1,0,0:0:0:0:
238,183,57318,1,8,0:0:0:0:
238,183,57376,1,0,0:0:0:0:
238,183,57434,1,8,0:0:0:0:
238,183,57491,1,8,0:0:0:0:
238,183,57549,1,0,0:0:0:0:
238,183,57607,1,0,0:0:0:0:
238,183,57664,1,8,0:0:0:0:
238,183,57703,1,8,0:0:0:0:
238,183,57741,1,0,0:0:0:0:
238,183,57779,1,0,0:0:0:0:
256,192,57837,12,0,58472,0:0:0:0:
238,183,58587,5,8,0:0:0:0:
238,183,58818,1,8,0:0:0:0:
238,183,59049,1,8,0:0:0:0:
238,183,59280,1,8,0:0:0:0:
238,183,59510,1,0,0:0:0:0:
238,183,59626,1,8,0:0:0:0:
238,183,59684,1,0,0:0:0:0:
238,183,59741,1,0,0:0:0:0:
238,183,59799,1,8,0:0:0:0:
238,183,59857,1,8,0:0:0:0:
238,183,59972,1,0,0:0:0:0:
238,183,60087,1,8,0:0:0:0:
238,183,60145,1,0,0:0:0:0:
238,183,60203,1,8,0:0:0:0:
238,183,60318,1,0,0:0:0:0:
238,183,60434,1,8,0:0:0:0:
238,183,60510,1,8,0:0:0:0:
238,183,60587,1,8,0:0:0:0:
238,183,60664,1,0,0:0:0:0:
238,183,60780,1,0,0:0:0:0:
238,183,60895,1,8,0:0:0:0:
238,183,60953,1,0,0:0:0:0:
238,183,61068,1,0,0:0:0:0:
238,183,61126,1,8,0:0:0:0:
238,183,61241,1,8,0:0:0:0:
238,183,61357,1,0,0:0:0:0:
238,183,61414,1,8,0:0:0:0:
238,183,61472,1,8,0:0:0:0:
238,183,61530,1,0,0:0:0:0:
238,183,61587,1,0,0:0:0:0:
238,183,61645,1,8,0:0:0:0:
238,183,61703,1,8,0:0:0:0:
238,183,61818,1,0,0:0:0:0:
238,183,61934,1,8,0:0:0:0:
238,183,61991,1,0,0:0:0:0:
238,183,62049,1,8,0:0:0:0:
238,183,62164,1,0,0:0:0:0:
238,183,62222,1,0,0:0:0:0:
238,183,62280,1,8,0:0:0:0:
238,183,62337,1,8,0:0:0:0:
238,183,62395,1,0,0:0:0:0:
238,183,62510,1,8,0:0:0:0:
238,183,62568,1,8,0:0:0:0:
238,183,62626,1,8,0:0:0:0:
238,183,62741,1,0,0:0:0:0:
238,183,62857,1,0,0:0:0:0:
238,183,62914,1,0,0:0:0:0:
238,183,62972,1,8,0:0:0:0:
238,183,63030,1,8,0:0:0:0:
238,183,63087,1,8,0:0:0:0:
238,183,63145,1,8,0:0:0:0:
238,183,63203,1,4,0:0:0:0:
238,183,63549,1,4,0:0:0:0:
238,183,63895,1,8,0:0:0:0:
238,183,63924,1,8,0:0:0:0:
238,183,64010,1,8,0:0:0:0:
238,183,64039,1,8,0:0:0:0:
238,183,64126,1,0,0:0:0:0:
238,183,64155,1,0,0:0:0:0:
238,183,64241,1,0,0:0:0:0:
238,183,64270,1,0,0:0:0:0:
238,183,64357,1,8,0:0:0:0:
238,183,64385,1,8,0:0:0:0:
238,183,64472,1,8,0:0:0:0:
238,183,64501,1,8,0:0:0:0:
238,183,64587,1,0,0:0:0:0:
238,183,64616,1,0,0:0:0:0:
238,183,64703,1,0,0:0:0:0:
238,183,64732,1,0,0:0:0:0:
238,183,64818,1,8,0:0:0:0:
238,183,64934,1,0,0:0:0:0:
238,183,65049,1,8,0:0:0:0:
238,183,65087,1,8,0:0:0:0:
238,183,65126,1,8,0:0:0:0:
238,183,65164,1,0,0:0:0:0:
238,183,65222,1,0,0:0:0:0:
238,183,65280,1,8,0:0:0:0:
238,183,65395,1,0,0:0:0:0:
238,183,65453,1,8,0:0:0:0:
238,183,65510,1,0,0:0:0:0:
238,183,65626,1,8,0:0:0:0:
238,183,65684,1,0,0:0:0:0:
238,183,65741,1,0,0:0:0:0:
238,183,65799,1,0,0:0:0:0:
238,183,65857,1,8,0:0:0:0:
238,183,65972,1,0,0:0:0:0:
238,183,66030,1,0,0:0:0:0:
238,183,66087,1,0,0:0:0:0:
238,183,66145,1,8,0:0:0:0:
238,183,66203,1,0,0:0:0:0:
238,183,66260,1,0,0:0:0:0:
238,183,66318,1,8,0:0:0:0:
238,183,66376,1,8,0:0:0:0:
238,183,66434,1,8,0:0:0:0:
238,183,66491,1,8,0:0:0:0:
238,183,66549,1,0,0:0:0:0:
238,183,66664,1,0,0:0:0:0:
238,183,66780,1,8,0:0:0:0:
238,183,66895,1,0,0:0:0:0:
238,183,66953,1,8,0:0:0:0:
238,183,67010,1,8,0:0:0:0:
238,183,67068,1,0,0:0:0:0:
238,183,67126,1,0,0:0:0:0:
238,183,67241,1,0,0:0:0:0:
238,183,67357,1,8,0:0:0:0:
238,183,67414,1,0,0:0:0:0:
238,183,67472,1,0,0:0:0:0:
238,183,67530,1,8,0:0:0:0:
238,183,67587,1,8,0:0:0:0:
238,183,67703,1,0,0:0:0:0:
238,183,67818,1,8,0:0:0:0:
238,183,67895,1,8,0:0:0:0:
238,183,67972,1,8,0:0:0:0:
238,183,68049,1,0,0:0:0:0:
238,183,68164,1,0,0:0:0:0:
238,183,68280,1,8,0:0:0:0:
238,183,68337,1,0,0:0:0:0:
238,183,68453,1,0,0:0:0:0:
238,183,68510,1,8,0:0:0:0:
238,183,68626,1,0,0:0:0:0:
238,183,68741,1,8,0:0:0:0:
238,183,68799,1,8,0:0:0:0:
238,183,68857,1,0,0:0:0:0:
238,183,68914,1,0,0:0:0:0:
238,183,68972,1,8,0:0:0:0:
238,183,69030,1,0,0:0:0:0:
238,183,69087,1,8,0:0:0:0:
238,183,69203,1,0,0:0:0:0:
238,183,69318,1,8,0:0:0:0:
238,183,69376,1,8,0:0:0:0:
238,183,69434,1,0,0:0:0:0:
238,183,69549,1,0,0:0:0:0:
238,183,69607,1,0,0:0:0:0:
238,183,69664,1,8,0:0:0:0:
238,183,69722,1,8,0:0:0:0:
238,183,69780,1,8,0:0:0:0:
238,183,69895,1,8,0:0:0:0:
238,183,69953,1,8,0:0:0:0:
238,183,70010,1,0,0:0:0:0:
238,183,70126,1,0,0:0:0:0:
238,183,70241,1,8,0:0:0:0:
238,183,70357,1,0,0:0:0:0:
238,183,70587,1,4,0:0:0:0:
238,183,70818,1,0,0:0:0:0:
238,183,70934,1,8,0:0:0:0:
238,183,71049,1,0,0:0:0:0:
238,183,71078,1,0,0:0:0:0:
238,183,71164,1,8,0:0:0:0:
238,183,71193,1,8,0:0:0:0:
238,183,71280,1,8,0:0:0:0:
238,183,71309,1,8,0:0:0:0:
238,183,71395,1,8,0:0:0:0:
238,183,71424,1,8,0:0:0:0:
238,183,71510,1,0,0:0:0:0:
238,183,71539,1,0,0:0:0:0:
238,183,71626,1,8,0:0:0:0:
238,183,71655,1,8,0:0:0:0:
238,183,71741,1,8,0:0:0:0:
238,183,71770,1,8,0:0:0:0:
238,183,71857,1,8,0:0:0:0:
238,183,71885,1,8,0:0:0:0:
238,183,71972,1,0,0:0:0:0:
238,183,72010,1,0,0:0:0:0:
238,183,72049,1,0,0:0:0:0:
238,183,72087,1,8,0:0:0:0:
238,183,72145,1,8,0:0:0:0:
238,183,72203,1,0,0:0:0:0:
238,183,72318,1,0,0:0:0:0:
238,183,72434,1,8,0:0:0:0:
238,183,72491,1,8,0:0:0:0:
238,183,72549,1,0,0:0:0:0:
238,183,72664,1,8,0:0:0:0:
238,183,72722,1,8,0:0:0:0:
238,183,72780,1,0,0:0:0:0:
238,183,72837,1,0,0:0:0:0:
238,183,72895,1,8,0:0:0:0:
238,183,72953,1,0,0:0:0:0:
238,183,73010,1,8,0:0:0:0:
238,183,73068,1,8,0:0:0:0:
238,183,73126,1,8,0:0:0:0:
238,183,73184,1,0,0:0:0:0:
238,183,73241,1,0,0:0:0:0:
238,183,73357,1,8,0:0:0:0:
238,183,73414,1,8,0:0:0:0:
238,183,73472,1,8,0:0:0:0:
238,183,73530,1,8,0:0:0:0:
238,183,73587,1,0,0:0:0:0:
238,183,73703,1,0,0:0:0:0:
238,183,73818,1,8,0:0:0:0:
238,183,73934,1,0,0:0:0:0:
238,183,73991,1,0,0:0:0:0:
238,183,74049,1,8,0:0:0:0:
238,183,74107,1,0,0:0:0:0:
238,183,74164,1,8,0:0:0:0:
238,183,74222,1,8,0:0:0:0:
238,183,74280,1,0,0:0:0:0:
238,183,74318,1,0,0:0:0:0:
238,183,74357,1,0,0:0:0:0:
238,183,74395,1,8,0:0:0:0:
238,183,74510,1,0,0:0:0:0:
238,183,74568,1,0,0:0:0:0:
238,183,74626,1,8,0:0:0:0:
238,183,74741,1,8,0:0:0:0:
238,183,74857,1,0,0:0:0:0:
238,183,74914,1,0,0:0:0:0:
238,183,74972,1,8,0:0:0:0:
238,183,75030,1,0,0:0:0:0:
238,183,75087,1,8,0:0:0:0:
238,183,75203,1,0,0:0:0:0:
238,183,75318,1,8,0:0:0:0:
238,183,75376,1,8,0:0:0:0:
238,183,75434,1,0,0:0:0:0:
238,183,75491,1,8,0:0:0:0:
238,183,75549,1,0,0:0:0:0:
238,183,75664,1,8,0:0:0:0:
238,183,75780,1,0,0:0:0:0:
238,183,75837,1,0,0:0:0:0:
238,183,75895,1,8,0:0:0:0:
238,183,75953,1,0,0:0:0:0:
238,183,76010,1,8,0:0:0:0:
238,183,76068,1,8,0:0:0:0:
238,183,76126,1,0,0:0:0:0:
238,183,76164,1,0,0:0:0:0:
238,183,76203,1,0,0:0:0:0:
238,183,76241,1,8,0:0:0:0:
238,183,76357,1,0,0:0:0:0:
238,183,76414,1,0,0:0:0:0:
238,183,76472,1,8,0:0:0:0:
238,183,76587,1,8,0:0:0:0:
238,183,76703,1,0,0:0:0:0:
238,183,76760,1,8,0:0:0:0:
238,183,76818,1,0,0:0:0:0:
238,183,76876,1,0,0:0:0:0:
238,183,76934,1,8,0:0:0:0:
238,183,77049,1,0,0:0:0:0:
238,183,77164,1,8,0:0:0:0:
238,183,77222,1,0,0:0:0:0:
238,183,77280,1,8,0:0:0:0:
238,183,77337,1,0,0:0:0:0:
238,183,77395,1,8,0:0:0:0:
238,183,77510,1,0,0:0:0:0:
238,183,77626,1,8,0:0:0:0:
238,183,77684,1,0,0:0:0:0:
238,183,77741,1,0,0:0:0:0:
238,183,77799,1,0,0:0:0:0:
238,183,77857,1,8,0:0:0:0:
238,183,77914,1,8,0:0:0:0:
238,183,77972,1,0,0:0:0:0:
238,183,78010,1,0,0:0:0:0:
238,183,78049,1,0,0:0:0:0:
238,183,78087,1,8,0:0:0:0:
238,183,78203,1,0,0:0:0:0:
238,183,78260,1,0,0:0:0:0:
238,183,78318,1,8,0:0:0:0:
238,183,78434,1,8,0:0:0:0:
238,183,78549,1,0,0:0:0:0:
238,183,78607,1,8,0:0:0:0:
238,183,78664,1,0,0:0:0:0:
238,183,78722,1,0,0:0:0:0:
238,183,78780,1,8,0:0:0:0:
238,183,78895,1,0,0:0:0:0:
238,183,79010,1,8,0:0:0:0:
238,183,79068,1,8,0:0:0:0:
238,183,79126,1,0,0:0:0:0:
238,183,79184,1,8,0:0:0:0:
238,183,79241,1,8,0:0:0:0:
238,183,79357,1,0,0:0:0:0:
238,183,79472,1,0,0:0:0:0:
238,183,79530,1,0,0:0:0:0:
238,183,79587,1,8,0:0:0:0:
238,183,79645,1,0,0:0:0:0:
238,183,79703,1,8,0:0:0:0:
238,183,79760,1,8,0:0:0:0:
238,183,79818,1,0,0:0:0:0:
238,183,79857,1,0,0:0:0:0:
238,183,79895,1,0,0:0:0:0:
238,183,79934,1,8,0:0:0:0:
238,183,80049,1,0,0:0:0:0:
238,183,80107,1,0,0:0:0:0:
238,183,80164,1,0,0:0:0:0:
238,183,80222,1,0,0:0:0:0:
238,183,80280,1,8,0:0:0:0:
238,183,80395,1,8,0:0:0:0:
238,183,80510,1,0,0:0:0:0:
238,183,80568,1,0,0:0:0:0:
238,183,80626,1,0,0:0:0:0:
238,183,80684,1,0,0:0:0:0:
238,183,80741,1,8,0:0:0:0:
238,183,80799,1,8,0:0:0:0:
238,183,80857,1,0,0:0:0:0:
238,183,80914,1,8,0:0:0:0:
238,183,80972,1,0,0:0:0:0:
238,183,81030,1,0,0:0:0:0:
238,183,81087,1,8,0:0:0:0:
238,183,81203,1,8,0:0:0:0:
238,183,81318,1,0,0:0:0:0:
238,183,81376,1,0,0:0:0:0:
238,183,81434,1,8,0:0:0:0:
238,183,81549,1,8,0:0:0:0:
238,183,81664,1,4,0:0:0:0:
238,183,81895,1,0,0:0:0:0:
238,183,82010,1,0,0:0:0:0:
238,183,82068,1,0,0:0:0:0:
238,183,82126,1,12,0:0:0:0:
238,183,82357,1,8,0:0:0:0:
238,183,82587,1,4,0:0:0:0:
238,183,82818,1,12,0:0:0:0:
238,183,83049,1,4,0:0:0:0:
238,183,83280,1,8,0:0:0:0:
238,183,83395,1,0,0:0:0:0:
238,183,83453,1,8,0:0:0:0:
238,183,83510,1,4,0:0:0:0:
238,183,83741,1,8,0:0:0:0:
238,183,83857,1,0,0:0:0:0:
238,183,83914,1,0,0:0:0:0:
238,183,83972,1,12,0:0:0:0:
238,183,84203,1,0,0:0:0:0:
238,183,84434,1,4,0:0:0:0:
238,183,84664,1,12,0:0:0:0:
238,183,84895,1,4,0:0:0:0:
238,183,85010,1,8,0:0:0:0:
238,183,85049,1,0,0:0:0:0:
238,183,85087,1,0,0:0:0:0:
238,183,85126,1,8,0:0:0:0:
238,183,85241,1,0,0:0:0:0:
238,183,85299,1,8,0:0:0:0:
238,183,85357,1,4,0:0:0:0:
238,183,85587,1,8,0:0:0:0:
238,183,85703,1,0,0:0:0:0:
238,183,85760,1,0,0:0:0:0:
238,183,85818,1,12,0:0:0:0:
238,183,86049,1,0,0:0:0:0:
238,183,86280,1,4,0:0:0:0:
238,183,86510,1,12,0:0:0:0:
238,183,86741,1,4,0:0:0:0:
238,183,86972,1,8,0:0:0:0:
238,183,87087,1,8,0:0:0:0:
238,183,87145,1,8,0:0:0:0:
238,183,87203,1,4,0:0:0:0:
238,183,87318,1,0,0:0:0:0:
238,183,87434,1,8,0:0:0:0:
238,183,87549,1,0,0:0:0:0:
238,183,87664,1,0,0:0:0:0:
238,183,87722,1,0,0:0:0:0:
238,183,87780,1,0,0:0:0:0:
238,183,87837,1,0,0:0:0:0:
238,183,87895,1,0,0:0:0:0:
238,183,87953,1,0,0:0:0:0:
238,183,88010,1,0,0:0:0:0:
238,183,88068,1,0,0:0:0:0:
238,183,88126,1,8,0:0:0:0:
238,183,88241,1,0,0:0:0:0:
238,183,88357,1,8,0:0:0:0:
238,183,88472,1,0,0:0:0:0:
238,183,88587,1,8,0:0:0:0:
238,183,88645,1,0,0:0:0:0:
238,183,88703,1,8,0:0:0:0:
238,183,88760,1,8,0:0:0:0:
238,183,88818,1,0,0:0:0:0:
238,183,88934,1,8,0:0:0:0:
238,183,89049,1,0,0:0:0:0:
238,183,89107,1,8,0:0:0:0:
238,183,89164,1,0,0:0:0:0:
238,183,89222,1,8,0:0:0:0:
238,183,89280,1,0,0:0:0:0:
238,183,89395,1,8,0:0:0:0:
238,183,89510,1,0,0:0:0:0:
238,183,89568,1,0,0:0:0:0:
238,183,89626,1,8,0:0:0:0:
238,183,89741,1,8,0:0:0:0:
238,183,89799,1,0,0:0:0:0:
238,183,89857,1,8,0:0:0:0:
238,183,89972,1,0,0:0:0:0:
238,183,90030,1,8,0:0:0:0:
238,183,90087,1,0,0:0:0:0:
238,183,90145,1,0,0:0:0:0:
238,183,90203,1,8,0:0:0:0:
238,183,90318,1,0,0:0:0:0:
238,183,90434,1,8,0:0:0:0:
238,183,90491,1,0,0:0:0:0:
238,183,90549,1,8,0:0:0:0:
238,183,90664,1,8,0:0:0:0:
238,183,90722,1,0,0:0:0:0:
238,183,90780,1,0,0:0:0:0:
238,183,90895,1,8,0:0:0:0:
238,183,90953,1,8,0:0:0:0:
238,183,91010,1,0,0:0:0:0:
238,183,91068,1,0,0:0:0:0:
238,183,91126,1,8,0:0:0:0:
238,183,91241,1,0,0:0:0:0:
238,183,91357,1,8,0:0:0:0:
238,183,91414,1,8,0:0:0:0:
238,183,91472,1,0,0:0:0:0:
238,183,91587,1,0,0:0:0:0:
238,183,91645,1,0,0:0:0:0:
238,183,91703,1,8,0:0:0:0:
238,183,91818,1,0,0:0:0:0:
238,183,91876,1,8,0:0:0:0:
238,183,91934,1,0,0:0:0:0:
238,183,91991,1,0,0:0:0:0:
238,183,92049,1,8,0:0:0:0:
238,183,92164,1,0,0:0:0:0:
238,183,92280,1,8,0:0:0:0:
238,183,92337,1,8,0:0:0:0:
238,183,92395,1,0,0:0:0:0:
238,183,92453,1,8,0:0:0:0:
238,183,92510,1,8,0:0:0:0:
238,183,92568,1,0,0:0:0:0:
238,183,92626,1,0,0:0:0:0:
238,183,92741,1,8,0:0:0:0:
238,183,92799,1,0,0:0:0:0:
256,190,92857,1,8,0:0:0:0:
238,183,92914,1,0,0:0:0:0:
238,183,92972,1,8,0:0:0:0:
238,183,93087,1,0,0:0:0:0:
238,183,93203,1,8,0:0:0:0:
238,183,93260,1,0,0:0:0:0:
238,183,93318,1,8,0:0:0:0:
238,183,93434,1,8,0:0:0:0:
238,183,93491,1,0,0:0:0:0:
238,183,93549,1,0,0:0:0:0:
238,183,93664,1,8,0:0:0:0:
238,183,93722,1,0,0:0:0:0:
238,183,93780,1,0,0:0:0:0:
238,183,93837,1,8,0:0:0:0:
238,183,93895,1,0,0:0:0:0:
238,183,94010,1,0,0:0:0:0:
238,183,94126,1,8,0:0:0:0:
238,183,94184,1,8,0:0:0:0:
238,183,94241,1,0,0:0:0:0:
238,183,94357,1,0,0:0:0:0:
238,183,94414,1,0,0:0:0:0:
238,183,94472,1,8,0:0:0:0:
238,183,94587,1,0,0:0:0:0:
238,183,94645,1,8,0:0:0:0:
238,183,94703,1,8,0:0:0:0:
238,183,94760,1,0,0:0:0:0:
238,183,94818,1,8,0:0:0:0:
238,183,94934,1,0,0:0:0:0:
238,183,95049,1,8,0:0:0:0:
238,183,95107,1,8,0:0:0:0:
238,183,95164,1,0,0:0:0:0:
238,183,95280,1,8,0:0:0:0:
238,183,95337,1,0,0:0:0:0:
238,183,95395,1,8,0:0:0:0:
238,183,95510,1,0,0:0:0:0:
238,183,95626,1,8,0:0:0:0:
238,183,95684,1,8,0:0:0:0:
238,183,95741,1,0,0:0:0:0:
238,183,95857,1,8,0:0:0:0:
238,183,95972,1,0,0:0:0:0:
238,183,96030,1,8,0:0:0:0:
238,183,96087,1,8,0:0:0:0:
238,183,96145,1,8,0:0:0:0:
238,183,96203,1,0,0:0:0:0:
238,183,96318,1,8,0:0:0:0:
238,183,96434,1,0,0:0:0:0:
238,183,96895,1,8,0:0:0:0:
238,183,96953,1,8,0:0:0:0:
238,183,97010,1,0,0:0:0:0:
238,183,97126,1,8,0:0:0:0:
238,183,97184,1,8,0:0:0:0:
238,183,97241,1,8,0:0:0:0:
238,183,97357,1,0,0:0:0:0:
238,183,97414,1,0,0:0:0:0:
238,183,97472,1,8,0:0:0:0:
238,183,97587,1,0,0:0:0:0:
238,183,97645,1,0,0:0:0:0:
238,183,97703,1,0,0:0:0:0:
238,183,97818,1,8,0:0:0:0:
238,183,97876,1,8,0:0:0:0:
238,183,97934,1,0,0:0:0:0:
238,183,98049,1,8,0:0:0:0:
238,183,98107,1,8,0:0:0:0:
238,183,98164,1,8,0:0:0:0:
238,183,98222,1,0,0:0:0:0:
238,183,98280,1,0,0:0:0:0:
238,183,98337,1,0,0:0:0:0:
238,183,98395,1,8,0:0:0:0:
238,183,98510,1,0,0:0:0:0:
238,183,98568,1,0,0:0:0:0:
238,183,98626,1,0,0:0:0:0:
238,183,98741,1,8,0:0:0:0:
238,183,98799,1,8,0:0:0:0:
238,183,98857,1,0,0:0:0:0:
238,183,98972,1,8,0:0:0:0:
238,183,99030,1,8,0:0:0:0:
238,183,99087,1,8,0:0:0:0:
238,183,99203,1,0,0:0:0:0:
238,183,99260,1,0,0:0:0:0:
238,183,99318,1,8,0:0:0:0:
238,183,99434,1,0,0:0:0:0:
238,183,99491,1,0,0:0:0:0:
238,183,99549,1,0,0:0:0:0:
238,183,99664,1,0,0:0:0:0:
238,183,99722,1,0,0:0:0:0:
238,183,99780,1,8,0:0:0:0:
238,183,99837,1,8,0:0:0:0:
238,183,99895,1,0,0:0:0:0:
238,183,99953,1,0,0:0:0:0:
238,183,100010,1,8,0:0:0:0:
238,183,100587,1,8,0:0:0:0:
238,183,100645,1,8,0:0:0:0:
238,183,100703,1,0,0:0:0:0:
238,183,100818,1,8,0:0:0:0:
238,183,100876,1,0,0:0:0:0:
238,183,100934,1,8,0:0:0:0:
238,183,101049,1,0,0:0:0:0:
238,183,101107,1,0,0:0:0:0:
238,183,101164,1,8,0:0:0:0:
238,183,101280,1,8,0:0:0:0:
238,183,101337,1,0,0:0:0:0:
238,183,101395,1,0,0:0:0:0:
238,183,101510,1,8,0:0:0:0:
238,183,101568,1,8,0:0:0:0:
238,183,101626,1,0,0:0:0:0:
238,183,101741,1,8,0:0:0:0:
238,183,101799,1,0,0:0:0:0:
238,183,101857,1,8,0:0:0:0:
238,183,101914,1,8,0:0:0:0:
238,183,101972,1,0,0:0:0:0:
238,183,102030,1,0,0:0:0:0:
238,183,102087,1,8,0:0:0:0:
238,183,102203,1,8,0:0:0:0:
238,183,102260,1,0,0:0:0:0:
238,183,102318,1,0,0:0:0:0:
238,183,102434,1,8,0:0:0:0:
238,183,102491,1,8,0:0:0:0:
238,183,102549,1,0,0:0:0:0:
238,183,102664,1,8,0:0:0:0:
238,183,102722,1,0,0:0:0:0:
238,183,102780,1,8,0:0:0:0:
238,183,102895,1,0,0:0:0:0:
238,183,102953,1,0,0:0:0:0:
238,183,103010,1,8,0:0:0:0:
238,183,103126,1,8,0:0:0:0:
238,183,103184,1,0,0:0:0:0:
238,183,103241,1,0,0:0:0:0:
238,183,103357,1,8,0:0:0:0:
238,183,103414,1,0,0:0:0:0:
238,183,103472,1,8,0:0:0:0:
238,183,103530,1,0,0:0:0:0:
238,183,103587,1,8,0:0:0:0:
238,183,103645,1,0,0:0:0:0:
238,183,103703,1,8,0:0:0:0:
238,183,103760,1,0,0:0:0:0:
238,183,103818,1,8,0:0:0:0:
238,183,104280,1,0,0:0:0:0:
238,183,105203,1,0,0:0:0:0:
238,183,106126,1,0,0:0:0:0:
238,183,107049,1,0,0:0:0:0:
238,183,107510,1,0,0:0:0:0:
238,183,107741,1,0,0:0:0:0:
238,183,107972,1,0,0:0:0:0:
238,183,108203,1,0,0:0:0:0:
238,183,108434,1,0,0:0:0:0:
238,183,108664,1,0,0:0:0:0:
238,183,108895,1,0,0:0:0:0:
238,183,109126,1,0,0:0:0:0:
238,183,109357,1,0,0:0:0:0:
238,183,109472,1,8,0:0:0:0:
238,183,109587,1,0,0:0:0:0:
238,183,109703,1,8,0:0:0:0:
238,183,109818,1,0,0:0:0:0:
238,183,109876,1,0,0:0:0:0:
238,183,109934,1,8,0:0:0:0:
238,183,109991,1,0,0:0:0:0:
238,183,110049,1,8,0:0:0:0:
238,183,110107,1,8,0:0:0:0:
238,183,110164,1,8,0:0:0:0:
238,183,110222,1,8,0:0:0:0:
238,183,110280,5,4,0:0:0:0:
238,183,110510,1,4,0:0:0:0:
238,183,110741,1,4,0:0:0:0:
238,183,110972,1,12,0:0:0:0:
238,183,111203,5,4,0:0:0:0:
238,183,111434,1,8,0:0:0:0:
238,183,111549,1,0,0:0:0:0:
238,183,111664,1,8,0:0:0:0:
238,183,111722,1,0,0:0:0:0:
238,183,111837,1,8,0:0:0:0:
238,183,111895,1,0,0:0:0:0:
238,183,112010,1,8,0:0:0:0:
238,183,112126,1,0,0:0:0:0:
238,183,112164,1,8,0:0:0:0:
238,183,112203,1,8,0:0:0:0:
238,183,112241,1,0,0:0:0:0:
238,183,112299,1,0,0:0:0:0:
238,183,112357,1,8,0:0:0:0:
238,183,112472,1,0,0:0:0:0:
238,183,112587,1,8,0:0:0:0:
238,183,112645,1,8,0:0:0:0:
238,183,112703,1,0,0:0:0:0:
238,183,112760,1,0,0:0:0:0:
238,183,112818,1,8,0:0:0:0:
238,183,112876,1,0,0:0:0:0:
238,183,112934,1,0,0:0:0:0:
238,183,112991,1,0,0:0:0:0:
238,183,113049,1,8,0:0:0:0:
238,183,113164,1,0,0:0:0:0:
238,183,113280,1,0,0:0:0:0:
238,183,113395,1,8,0:0:0:0:
238,183,113510,1,0,0:0:0:0:
238,183,113568,1,0,0:0:0:0:
238,183,113626,1,8,0:0:0:0:
238,183,113684,1,0,0:0:0:0:
238,183,113741,1,8,0:0:0:0:
238,183,113799,1,8,0:0:0:0:
238,183,113857,1,0,0:0:0:0:
238,183,113914,1,0,0:0:0:0:
238,183,113972,1,8,0:0:0:0:
238,183,114030,1,0,0:0:0:0:
238,183,114087,1,8,0:0:0:0:
238,183,114145,1,8,0:0:0:0:
238,183,114203,1,0,0:0:0:0:
238,183,114318,1,0,0:0:0:0:
238,183,114434,1,8,0:0:0:0:
238,183,114491,1,0,0:0:0:0:
238,183,114549,1,0,0:0:0:0:
238,183,114607,1,0,0:0:0:0:
238,183,114664,1,8,0:0:0:0:
238,183,114722,1,8,0:0:0:0:
238,183,114780,1,8,0:0:0:0:
238,183,114837,1,8,0:0:0:0:
238,183,114895,1,4,0:0:0:0:
238,183,115126,1,8,0:0:0:0:
238,183,115241,1,0,0:0:0:0:
238,183,115357,1,8,0:0:0:0:
238,183,115414,1,0,0:0:0:0:
238,183,115472,1,8,0:0:0:0:
238,183,115530,1,8,0:0:0:0:
238,183,115587,1,0,0:0:0:0:
238,183,115645,1,0,0:0:0:0:
238,183,115703,1,8,0:0:0:0:
238,183,115818,1,0,0:0:0:0:
238,183,115876,1,0,0:0:0:0:
238,183,115991,1,8,0:0:0:0:
238,183,116049,1,0,0:0:0:0:
238,183,116164,1,8,0:0:0:0:
238,183,116222,1,0,0:0:0:0:
238,183,116280,1,0,0:0:0:0:
238,183,116337,1,8,0:0:0:0:
238,183,116395,1,0,0:0:0:0:
238,183,116453,1,0,0:0:0:0:
238,183,116510,1,8,0:0:0:0:
238,183,116568,1,8,0:0:0:0:
238,183,116626,1,0,0:0:0:0:
238,183,116741,1,8,0:0:0:0:
238,183,116799,1,0,0:0:0:0:
238,183,116857,1,8,0:0:0:0:
238,183,116914,1,8,0:0:0:0:
238,183,116972,1,0,0:0:0:0:
238,183,117030,1,0,0:0:0:0:
238,183,117087,1,8,0:0:0:0:
238,183,117145,1,8,0:0:0:0:
238,183,117203,1,8,0:0:0:0:
238,183,117260,1,0,0:0:0:0:
238,183,117318,1,8,0:0:0:0:
238,183,117376,1,8,0:0:0:0:
238,183,117434,1,0,0:0:0:0:
238,183,117491,1,0,0:0:0:0:
238,183,117549,1,0,0:0:0:0:
238,183,117607,1,0,0:0:0:0:
238,183,117664,1,8,0:0:0:0:
238,183,117722,1,8,0:0:0:0:
238,183,117780,1,8,0:0:0:0:
238,183,117837,1,0,0:0:0:0:
238,183,117895,1,8,0:0:0:0:
238,183,117953,1,8,0:0:0:0:
238,183,118010,1,0,0:0:0:0:
238,183,118068,1,0,0:0:0:0:
238,183,118126,1,8,0:0:0:0:
238,183,118184,1,8,0:0:0:0:
238,183,118241,1,0,0:0:0:0:
238,183,118299,1,0,0:0:0:0:
238,183,118357,1,8,0:0:0:0:
238,183,118414,1,0,0:0:0:0:
238,183,118472,1,8,0:0:0:0:
238,183,118530,1,8,0:0:0:0:
238,183,118587,1,0,0:0:0:0:
238,183,118703,1,8,0:0:0:0:
238,183,118760,1,8,0:0:0:0:
238,183,118818,1,8,0:0:0:0:
238,183,118876,1,8,0:0:0:0:
238,183,118934,1,8,0:0:0:0:
238,183,119049,1,4,0:0:0:0:
238,183,119164,1,0,0:0:0:0:
238,183,119280,1,8,0:0:0:0:
238,183,119337,1,8,0:0:0:0:
238,183,119395,1,0,0:0:0:0:
238,183,119510,1,8,0:0:0:0:
238,183,119568,1,8,0:0:0:0:
238,183,119626,1,0,0:0:0:0:
238,183,119684,1,8,0:0:0:0:
238,183,119741,1,8,0:0:0:0:
238,183,119799,1,0,0:0:0:0:
238,183,119857,1,8,0:0:0:0:
238,183,119972,1,0,0:0:0:0:
238,183,120030,1,8,0:0:0:0:
238,183,120087,1,0,0:0:0:0:
238,183,120145,1,8,0:0:0:0:
238,183,120203,1,0,0:0:0:0:
238,183,120318,1,8,0:0:0:0:
238,183,120434,1,0,0:0:0:0:
238,183,120549,1,8,0:0:0:0:
238,183,120607,1,8,0:0:0:0:
238,183,120722,1,0,0:0:0:0:
238,183,120780,1,8,0:0:0:0:
238,183,120895,1,0,0:0:0:0:
238,183,120953,1,0,0:0:0:0:
238,183,121010,1,8,0:0:0:0:
238,183,121068,1,8,0:0:0:0:
238,183,121126,1,0,0:0:0:0:
238,183,121184,1,8,0:0:0:0:
238,183,121241,1,0,0:0:0:0:
238,183,121357,1,8,0:0:0:0:
238,183,121472,1,0,0:0:0:0:
238,183,121530,1,8,0:0:0:0:
238,183,121587,1,8,0:0:0:0:
238,183,121703,1,0,0:0:0:0:
238,183,121760,1,0,0:0:0:0:
238,183,121818,1,8,0:0:0:0:
238,183,121876,1,8,0:0:0:0:
238,183,121934,1,0,0:0:0:0:
238,183,122049,1,8,0:0:0:0:
238,183,122107,1,8,0:0:0:0:
238,183,122164,1,8,0:0:0:0:
238,183,122222,1,8,0:0:0:0:
238,183,122280,1,0,0:0:0:0:
238,183,122510,1,0,0:0:0:0:
238,183,122626,1,8,0:0:0:0:
238,183,122741,1,0,0:0:0:0:
238,183,122799,1,8,0:0:0:0:
238,183,122857,1,0,0:0:0:0:
238,183,122914,1,8,0:0:0:0:
238,183,122972,1,8,0:0:0:0:
238,183,123030,1,0,0:0:0:0:
238,183,123087,1,8,0:0:0:0:
238,183,123203,1,0,0:0:0:0:
238,183,123260,1,0,0:0:0:0:
238,183,123318,1,8,0:0:0:0:
238,183,123376,1,8,0:0:0:0:
238,183,123434,1,8,0:0:0:0:
238,183,123549,1,0,0:0:0:0:
238,183,123607,1,0,0:0:0:0:
238,183,123664,1,8,0:0:0:0:
238,183,123722,1,8,0:0:0:0:
238,183,123780,1,8,0:0:0:0:
238,183,123837,1,8,0:0:0:0:
238,183,123895,1,0,0:0:0:0:
238,183,124010,1,0,0:0:0:0:
238,183,124126,1,8,0:0:0:0:
238,183,124184,1,0,0:0:0:0:
238,183,124241,1,8,0:0:0:0:
238,183,124299,1,8,0:0:0:0:
238,183,124357,1,0,0:0:0:0:
238,183,124414,1,0,0:0:0:0:
238,183,124472,1,0,0:0:0:0:
238,183,124530,1,0,0:0:0:0:
238,183,124587,1,8,0:0:0:0:
238,183,124645,1,0,0:0:0:0:
238,183,124703,1,8,0:0:0:0:
238,183,124760,1,8,0:0:0:0:
238,183,124818,1,0,0:0:0:0:
238,183,124876,1,8,0:0:0:0:
238,183,124934,1,0,0:0:0:0:
238,183,124991,1,0,0:0:0:0:
238,183,125049,1,8,0:0:0:0:
238,183,125164,1,0,0:0:0:0:
238,183,125280,1,8,0:0:0:0:
238,183,125395,1,0,0:0:0:0:
238,183,125510,1,8,0:0:0:0:
238,183,125568,1,0,0:0:0:0:
238,183,125626,1,8,0:0:0:0:
238,183,125684,1,8,0:0:0:0:
238,183,125741,1,0,0:0:0:0:
238,183,125799,1,0,0:0:0:0:
238,183,125857,1,0,0:0:0:0:
238,183,125914,1,0,0:0:0:0:
238,183,125972,1,8,0:0:0:0:
238,183,126203,1,8,0:0:0:0:
238,183,126318,1,0,0:0:0:0:
238,183,126434,1,8,0:0:0:0:
238,183,126491,1,0,0:0:0:0:
238,183,126549,1,0,0:0:0:0:
238,183,126664,1,8,0:0:0:0:
238,183,126780,1,0,0:0:0:0:
238,183,126895,1,8,0:0:0:0:
238,183,126953,1,8,0:0:0:0:
238,183,127010,1,0,0:0:0:0:
238,183,127126,1,8,0:0:0:0:
238,183,127241,1,0,0:0:0:0:
238,183,127357,1,8,0:0:0:0:
238,183,127414,1,8,0:0:0:0:
238,183,127472,1,8,0:0:0:0:
238,183,127587,1,0,0:0:0:0:
238,183,127703,1,8,0:0:0:0:
238,183,127818,1,4,0:0:0:0:
238,183,128049,1,8,0:0:0:0:
238,183,128164,1,0,0:0:0:0:
238,183,128280,1,8,0:0:0:0:
238,183,128337,1,8,0:0:0:0:
238,183,128395,1,0,0:0:0:0:
238,183,128510,1,8,0:0:0:0:
238,183,128626,1,0,0:0:0:0:
238,183,128741,1,8,0:0:0:0:
238,183,128799,1,8,0:0:0:0:
238,183,128857,1,8,0:0:0:0:
238,183,128914,1,0,0:0:0:0:
238,183,128972,1,8,0:0:0:0:
238,183,129030,1,8,0:0:0:0:
238,183,129087,1,0,0:0:0:0:
238,183,129145,1,0,0:0:0:0:
238,183,129203,1,8,0:0:0:0:
238,183,129260,1,8,0:0:0:0:
238,183,129318,1,8,0:0:0:0:
238,183,129376,1,0,0:0:0:0:
238,183,129434,1,0,0:0:0:0:
238,183,129491,1,0,0:0:0:0:
238,183,129549,1,8,0:0:0:0:
238,183,129607,1,8,0:0:0:0:
238,183,129664,1,4,0:0:0:0:
256,188,129895,1,8,0:0:0:0:
256,188,130010,1,0,0:0:0:0:
256,188,130126,1,8,0:0:0:0:
256,188,130184,1,8,0:0:0:0:
256,188,130241,1,0,0:0:0:0:
256,188,130299,1,0,0:0:0:0:
256,188,130357,1,8,0:0:0:0:
256,188,130472,1,0,0:0:0:0:
256,188,130587,1,8,0:0:0:0:
256,188,130645,1,0,0:0:0:0:
256,188,130703,1,8,0:0:0:0:
256,188,130760,1,8,0:0:0:0:
256,188,130818,1,0,0:0:0:0:
256,188,130876,1,0,0:0:0:0:
256,188,130934,1,8,0:0:0:0:
256,188,130991,1,8,0:0:0:0:
256,188,131049,1,0,0:0:0:0:
256,188,131107,1,8,0:0:0:0:
256,188,131164,1,0,0:0:0:0:
256,188,131222,1,0,0:0:0:0:
256,188,131280,1,8,0:0:0:0:
256,188,131337,1,8,0:0:0:0:
256,188,131395,1,0,0:0:0:0:
256,188,131510,1,8,0:0:0:0:
256,188,131549,1,8,0:0:0:0:
256,188,131587,1,8,0:0:0:0:
256,188,131626,1,0,0:0:0:0:
256,188,131741,1,0,0:0:0:0:
256,188,131857,1,8,0:0:0:0:
256,188,131972,1,0,0:0:0:0:
256,188,132030,1,8,0:0:0:0:
256,188,132087,1,0,0:0:0:0:
256,188,132145,1,0,0:0:0:0:
256,188,132203,1,8,0:0:0:0:
256,188,132318,1,0,0:0:0:0:
256,188,132434,1,8,0:0:0:0:
256,188,132491,1,0,0:0:0:0:
256,188,132549,1,8,0:0:0:0:
256,188,132607,1,8,0:0:0:0:
256,188,132664,1,0,0:0:0:0:
256,188,132722,1,0,0:0:0:0:
256,188,132780,1,8,0:0:0:0:
256,188,132818,1,0,0:0:0:0:
256,188,132857,1,0,0:0:0:0:
256,188,132895,1,8,0:0:0:0:
256,188,132953,1,8,0:0:0:0:
256,188,133010,1,0,0:0:0:0:
256,188,133068,1,0,0:0:0:0:
256,188,133126,1,8,0:0:0:0:
256,188,133184,1,8,0:0:0:0:
256,188,133241,1,0,0:0:0:0:
256,188,133280,1,0,0:0:0:0:
256,188,133318,1,0,0:0:0:0:
256,188,133357,1,8,0:0:0:0:
256,188,133587,1,8,0:0:0:0:
256,188,133703,1,0,0:0:0:0:
256,188,133741,1,0,0:0:0:0:
256,188,133780,1,0,0:0:0:0:
256,188,133818,1,8,0:0:0:0:
256,188,133934,1,0,0:0:0:0:
256,188,134049,1,8,0:0:0:0:
256,188,134107,1,8,0:0:0:0:
256,188,134164,1,0,0:0:0:0:
256,188,134222,1,0,0:0:0:0:
256,188,134280,1,8,0:0:0:0:
256,188,134337,1,0,0:0:0:0:
256,188,134395,1,8,0:0:0:0:
256,188,134453,1,8,0:0:0:0:
256,188,134510,1,8,0:0:0:0:
256,188,134568,1,0,0:0:0:0:
256,188,134626,1,0,0:0:0:0:
256,188,134684,1,8,0:0:0:0:
256,188,134741,1,8,0:0:0:0:
256,188,134799,1,0,0:0:0:0:
256,188,134857,1,8,0:0:0:0:
256,188,134914,1,0,0:0:0:0:
256,188,134972,1,8,0:0:0:0:
256,188,135030,1,8,0:0:0:0:
256,188,135087,1,0,0:0:0:0:
256,188,135126,1,0,0:0:0:0:
256,188,135164,1,0,0:0:0:0:
256,188,135203,1,8,0:0:0:0:
256,188,135260,1,8,0:0:0:0:
256,188,135318,1,0,0:0:0:0:
256,188,135376,1,0,0:0:0:0:
256,188,135434,1,8,0:0:0:0:
256,188,135491,1,8,0:0:0:0:
256,188,135549,1,0,0:0:0:0:
256,188,135607,1,0,0:0:0:0:
256,188,135664,1,8,0:0:0:0:
256,188,135722,1,8,0:0:0:0:
256,188,135780,1,8,0:0:0:0:
256,188,135837,1,8,0:0:0:0:
256,188,135895,1,0,0:0:0:0:
256,188,135953,1,8,0:0:0:0:
256,188,136010,1,0,0:0:0:0:
256,188,136068,1,0,0:0:0:0:
256,188,136126,1,8,0:0:0:0:
256,188,136184,1,8,0:0:0:0:
256,188,136241,1,0,0:0:0:0:
256,188,136299,1,0,0:0:0:0:
256,188,136357,1,8,0:0:0:0:
256,188,136472,1,8,0:0:0:0:
256,188,136530,1,0,0:0:0:0:
256,188,136587,1,0,0:0:0:0:
256,188,136645,1,0,0:0:0:0:
256,188,136703,1,8,0:0:0:0:
256,188,136818,1,8,0:0:0:0:
256,188,137049,1,4,0:0:0:0:
256,188,137280,1,8,0:0:0:0:
256,188,137337,1,0,0:0:0:0:
256,188,137395,1,0,0:0:0:0:
256,188,137453,1,0,0:0:0:0:
256,188,137510,1,8,0:0:0:0:
256,188,137587,1,8,0:0:0:0:
256,188,137664,1,8,0:0:0:0:
256,188,137741,1,0,0:0:0:0:
256,188,137857,1,8,0:0:0:0:
256,188,137972,1,0,0:0:0:0:
256,188,138030,1,0,0:0:0:0:
256,188,138087,1,8,0:0:0:0:
256,188,138145,1,8,0:0:0:0:
256,188,138203,1,0,0:0:0:0:
256,188,138318,1,8,0:0:0:0:
256,188,138434,1,0,0:0:0:0:
256,188,138549,1,8,0:0:0:0:
256,188,138607,1,0,0:0:0:0:
256,188,138664,1,0,0:0:0:0:
256,188,138780,1,0,0:0:0:0:
256,188,138895,1,8,0:0:0:0:
256,188,138934,1,8,0:0:0:0:
256,188,138972,1,8,0:0:0:0:
256,188,139010,1,0,0:0:0:0:
256,188,139126,1,8,0:0:0:0:
256,188,139184,1,8,0:0:0:0:
256,188,139241,1,0,0:0:0:0:
256,188,139299,1,0,0:0:0:0:
256,188,139357,1,8,0:0:0:0:
256,188,139434,1,0,0:0:0:0:
256,188,139510,1,0,0:0:0:0:
256,188,139587,1,8,0:0:0:0:
256,188,139703,1,0,0:0:0:0:
256,188,139818,1,8,0:0:0:0:
256,188,139876,1,8,0:0:0:0:
256,188,139934,1,0,0:0:0:0:
256,188,139991,1,8,0:0:0:0:
256,188,140049,1,0,0:0:0:0:
256,188,140107,1,0,0:0:0:0:
256,188,140164,1,8,0:0:0:0:
256,188,140222,1,0,0:0:0:0:
256,188,140280,1,8,0:0:0:0:
256,188,140357,1,0,0:0:0:0:
256,188,140434,1,0,0:0:0:0:
256,188,140510,1,8,0:0:0:0:
256,188,140626,1,0,0:0:0:0:
256,188,140741,1,8,0:0:0:0:
256,188,140780,1,8,0:0:0:0:
256,188,140818,1,8,0:0:0:0:
256,188,140857,1,0,0:0:0:0:
256,188,140972,1,8,0:0:0:0:
256,188,141087,1,0,0:0:0:0:
256,188,141145,1,8,0:0:0:0:
256,188,141203,1,0,0:0:0:0:
256,188,141260,1,0,0:0:0:0:
256,188,141318,1,8,0:0:0:0:
256,188,141376,1,0,0:0:0:0:
256,188,141434,1,8,0:0:0:0:
256,188,141549,1,0,0:0:0:0:
256,188,141664,1,8,0:0:0:0:
256,188,141722,1,8,0:0:0:0:
256,188,141780,1,8,0:0:0:0:
256,188,141837,1,8,0:0:0:0:
256,188,141895,1,0,0:0:0:0:
256,188,142010,1,8,0:0:0:0:
256,188,142126,1,0,0:0:0:0:
256,188,142184,1,8,0:0:0:0:
256,188,142241,1,8,0:0:0:0:
256,188,142299,1,8,0:0:0:0:
256,188,142357,1,0,0:0:0:0:
256,188,142472,1,0,0:0:0:0:
256,188,142587,1,8,0:0:0:0:
256,188,142645,1,8,0:0:0:0:
256,188,142703,1,0,0:0:0:0:
256,188,142760,1,8,0:0:0:0:
256,188,142818,1,0,0:0:0:0:
256,188,142876,1,0,0:0:0:0:
256,188,142934,1,8,0:0:0:0:
256,188,142991,1,0,0:0:0:0:
256,188,143049,1,8,0:0:0:0:
256,188,143107,1,8,0:0:0:0:
256,188,143164,1,0,0:0:0:0:
256,188,143222,1,0,0:0:0:0:
256,188,143280,1,8,0:0:0:0:
256,188,143337,1,0,0:0:0:0:
256,188,143395,1,8,0:0:0:0:
256,188,143510,1,0,0:0:0:0:
256,188,143626,1,8,0:0:0:0:
256,188,143684,1,0,0:0:0:0:
256,188,143741,1,0,0:0:0:0:
256,188,143799,1,0,0:0:0:0:
256,188,143857,1,8,0:0:0:0:
256,188,143914,1,8,0:0:0:0:
256,188,143972,1,0,0:0:0:0:
256,188,144087,1,8,0:0:0:0:
256,188,144145,1,0,0:0:0:0:
256,188,144203,1,8,0:0:0:0:
256,188,144434,1,8,0:0:0:0:
256,188,144472,1,8,0:0:0:0:
256,188,144510,1,8,0:0:0:0:
256,188,144549,1,0,0:0:0:0:
256,188,144664,1,8,0:0:0:0:
256,188,144780,1,0,0:0:0:0:
256,188,144895,1,8,0:0:0:0:
256,188,144953,1,8,0:0:0:0:
256,188,145010,1,0,0:0:0:0:
256,188,145068,1,0,0:0:0:0:
256,188,145126,1,8,0:0:0:0:
256,188,145184,1,0,0:0:0:0:
256,188,145241,1,8,0:0:0:0:
256,188,145299,1,8,0:0:0:0:
256,188,145357,1,0,0:0:0:0:
256,188,145414,1,0,0:0:0:0:
256,188,145472,1,8,0:0:0:0:
256,188,145530,1,0,0:0:0:0:
256,188,145587,1,8,0:0:0:0:
256,188,145645,1,8,0:0:0:0:
256,188,145703,1,0,0:0:0:0:
256,188,145760,1,0,0:0:0:0:
256,188,145818,1,8,0:0:0:0:
256,188,145876,1,8,0:0:0:0:
256,188,145934,1,0,0:0:0:0:
256,188,146049,1,8,0:0:0:0:
256,188,146107,1,0,0:0:0:0:
256,188,146164,1,8,0:0:0:0:
256,188,146280,1,8,0:0:0:0:
256,188,146337,1,8,0:0:0:0:
256,188,146395,1,0,0:0:0:0:
256,188,146453,1,0,0:0:0:0:
256,188,146510,1,8,0:0:0:0:
256,188,146568,1,0,0:0:0:0:
256,188,146626,1,8,0:0:0:0:
256,188,146684,1,8,0:0:0:0:
256,188,146741,1,0,0:0:0:0:
256,188,146799,1,0,0:0:0:0:
256,188,146857,1,8,0:0:0:0:
256,188,146914,1,0,0:0:0:0:
256,188,146972,1,8,0:0:0:0:
256,188,147030,1,8,0:0:0:0:
256,188,147087,1,0,0:0:0:0:
256,188,147145,1,8,0:0:0:0:
256,188,147203,1,0,0:0:0:0:
256,188,147260,1,0,0:0:0:0:
256,188,147318,1,8,0:0:0:0:
256,188,147376,1,8,0:0:0:0:
256,188,147434,1,0,0:0:0:0:
256,188,147472,1,8,0:0:0:0:
256,188,147510,1,8,0:0:0:0:
256,188,147549,1,0,0:0:0:0:
256,188,147664,1,8,0:0:0:0:
256,188,147722,1,8,0:0:0:0:
256,188,147780,1,0,0:0:0:0:
256,188,147895,1,8,0:0:0:0:
256,188,147953,1,0,0:0:0:0:
256,188,148010,1,0,0:0:0:0:
256,188,148126,1,8,0:0:0:0:
256,188,148184,1,8,0:0:0:0:
256,188,148241,1,0,0:0:0:0:
256,188,148299,1,8,0:0:0:0:
256,188,148357,1,8,0:0:0:0:
256,188,148414,1,8,0:0:0:0:
256,188,148472,1,0,0:0:0:0:
256,188,148530,1,0,0:0:0:0:
256,188,148587,1,8,0:0:0:0:
256,188,148645,1,0,0:0:0:0:
256,188,148703,1,8,0:0:0:0:
256,188,148760,1,0,0:0:0:0:
256,188,148818,1,8,0:0:0:0:
256,188,148876,1,0,0:0:0:0:
256,188,148934,1,8,0:0:0:0:
256,188,148991,1,0,0:0:0:0:
256,188,149049,1,8,0:0:0:0:
256,188,149107,1,8,0:0:0:0:
256,188,149164,1,0,0:0:0:0:
256,188,149222,1,0,0:0:0:0:
256,188,149280,1,8,0:0:0:0:
256,188,149337,1,8,0:0:0:0:
256,188,149395,1,0,0:0:0:0:
256,188,149453,1,0,0:0:0:0:
257,191,149510,1,8,0:0:0:0:
257,191,149549,1,8,0:0:0:0:
257,191,149587,1,8,0:0:0:0:
257,191,149626,1,0,0:0:0:0:
257,191,149684,1,0,0:0:0:0:
257,191,149741,1,8,0:0:0:0:
257,191,149799,1,8,0:0:0:0:
257,191,149857,1,0,0:0:0:0:
257,191,149972,1,8,0:0:0:0:
257,191,150030,1,0,0:0:0:0:
257,191,150087,1,8,0:0:0:0:
257,191,150145,1,8,0:0:0:0:
257,191,150203,1,0,0:0:0:0:
257,191,150260,1,0,0:0:0:0:
257,191,150318,1,8,0:0:0:0:
257,191,150376,1,0,0:0:0:0:
257,191,150434,1,8,0:0:0:0:
257,191,150491,1,8,0:0:0:0:
257,191,150549,1,0,0:0:0:0:
257,191,150607,1,0,0:0:0:0:
257,191,150664,1,8,0:0:0:0:
257,191,150722,1,8,0:0:0:0:
257,191,150780,1,0,0:0:0:0:
257,191,150837,1,0,0:0:0:0:
257,191,150895,1,8,0:0:0:0:
257,191,151010,1,0,0:0:0:0:
257,191,151068,1,0,0:0:0:0:
257,191,151126,1,8,0:0:0:0:
257,191,151241,1,0,0:0:0:0:
257,191,151357,1,8,0:0:0:0:
257,191,151414,1,0,0:0:0:0:
257,191,151472,1,0,0:0:0:0:
257,191,151530,1,0,0:0:0:0:
257,191,151587,1,8,0:0:0:0:
257,191,151703,1,0,0:0:0:0:
257,191,151818,1,8,0:0:0:0:
257,191,151857,1,0,0:0:0:0:
257,191,151895,1,0,0:0:0:0:
257,191,151934,1,8,0:0:0:0:
257,191,152049,1,0,0:0:0:0:
257,191,152107,1,0,0:0:0:0:
257,191,152164,1,8,0:0:0:0:
257,191,152222,1,0,0:0:0:0:
257,191,152280,1,0,0:0:0:0:
257,191,152337,1,0,0:0:0:0:
257,191,152395,1,8,0:0:0:0:
257,191,152453,1,8,0:0:0:0:
257,191,152510,1,0,0:0:0:0:
257,191,152568,1,0,0:0:0:0:
257,191,152626,1,8,0:0:0:0:
257,191,152741,1,0,0:0:0:0:
257,191,152799,1,0,0:0:0:0:
257,191,152857,1,8,0:0:0:0:
257,191,152914,1,0,0:0:0:0:
257,191,152972,1,8,0:0:0:0:
257,191,153030,1,8,0:0:0:0:
257,191,153087,1,0,0:0:0:0:
256,188,153203,1,8,0:0:0:0:
256,188,153260,1,8,0:0:0:0:
256,188,153318,1,0,0:0:0:0:
256,188,153434,1,8,0:0:0:0:
256,188,153549,1,0,0:0:0:0:
256,188,153664,1,8,0:0:0:0:
256,188,153703,1,0,0:0:0:0:
256,188,153741,1,0,0:0:0:0:
256,188,153780,1,8,0:0:0:0:
256,188,153895,1,0,0:0:0:0:
256,188,153953,1,0,0:0:0:0:
256,188,154010,1,8,0:0:0:0:
256,188,154068,1,0,0:0:0:0:
256,188,154126,1,8,0:0:0:0:
256,188,154184,1,0,0:0:0:0:
256,188,154241,1,0,0:0:0:0:
256,188,154299,1,8,0:0:0:0:
256,188,154357,1,0,0:0:0:0:
256,188,154414,1,0,0:0:0:0:
256,188,154472,1,8,0:0:0:0:
256,188,154587,1,8,0:0:0:0:
256,188,154645,1,0,0:0:0:0:
256,188,154703,1,8,0:0:0:0:
256,188,154760,1,8,0:0:0:0:
256,188,154818,1,0,0:0:0:0:
256,188,154876,1,0,0:0:0:0:
256,188,154934,1,8,0:0:0:0:
256,188,155049,1,8,0:0:0:0:
256,188,155107,1,8,0:0:0:0:
256,188,155164,1,0,0:0:0:0:
256,188,155280,1,8,0:0:0:0:
256,188,155395,1,0,0:0:0:0:
256,188,155510,1,8,0:0:0:0:
256,188,155549,1,0,0:0:0:0:
256,188,155587,1,0,0:0:0:0:
256,188,155626,1,8,0:0:0:0:
256,188,155741,1,8,0:0:0:0:
256,188,155799,1,8,0:0:0:0:
256,188,155857,1,0,0:0:0:0:
256,188,155914,1,0,0:0:0:0:
256,188,155972,1,8,0:0:0:0:
256,188,156030,1,0,0:0:0:0:
256,188,156087,1,0,0:0:0:0:
256,188,156145,1,8,0:0:0:0:
256,188,156203,1,8,0:0:0:0:
256,188,156260,1,0,0:0:0:0:
256,188,156318,1,8,0:0:0:0:
256,188,156434,1,0,0:0:0:0:
256,188,156491,1,0,0:0:0:0:
256,188,156549,1,8,0:0:0:0:
256,188,156607,1,8,0:0:0:0:
256,188,156664,1,8,0:0:0:0:
256,188,156722,1,0,0:0:0:0:
256,188,156780,1,0,0:0:0:0:
256,188,156895,1,8,0:0:0:0:
256,188,156953,1,8,0:0:0:0:
256,188,157010,1,0,0:0:0:0:
256,188,157126,1,8,0:0:0:0:
256,188,157241,1,0,0:0:0:0:
256,188,157357,1,8,0:0:0:0:
256,188,157395,1,8,0:0:0:0:
256,188,157434,1,0,0:0:0:0:
256,188,157472,1,0,0:0:0:0:
256,188,157587,1,8,0:0:0:0:
256,188,157703,1,0,0:0:0:0:
256,188,157818,1,8,0:0:0:0:
256,188,157876,1,0,0:0:0:0:
256,188,157934,1,8,0:0:0:0:
256,188,157991,1,0,0:0:0:0:
256,188,158049,1,8,0:0:0:0:
256,188,158107,1,8,0:0:0:0:
256,188,158164,1,0,0:0:0:0:
256,188,158222,1,0,0:0:0:0:
256,188,158280,1,8,0:0:0:0:
256,188,158337,1,0,0:0:0:0:
256,188,158395,1,8,0:0:0:0:
256,188,158453,1,0,0:0:0:0:
256,188,158510,1,8,0:0:0:0:
256,188,158568,1,8,0:0:0:0:
256,188,158626,1,8,0:0:0:0:
256,188,158684,1,0,0:0:0:0:
256,188,158741,1,8,0:0:0:0:
256,188,158799,1,8,0:0:0:0:
256,188,158857,1,0,0:0:0:0:
256,188,158914,1,0,0:0:0:0:
256,188,158972,1,8,0:0:0:0:
256,188,159087,1,0,0:0:0:0:
256,188,159203,1,8,0:0:0:0:
256,188,159241,1,0,0:0:0:0:
256,188,159280,1,0,0:0:0:0:
256,188,159318,1,8,0:0:0:0:
256,188,159376,1,8,0:0:0:0:
256,188,159434,1,0,0:0:0:0:
256,188,159549,1,0,0:0:0:0:
256,188,159664,1,8,0:0:0:0:
256,188,159780,1,0,0:0:0:0:
256,188,159894,1,8,0:0:0:0:
256,188,159934,1,8,0:0:0:0:
256,188,159972,1,8,0:0:0:0:
256,188,160010,1,0,0:0:0:0:
256,188,160068,1,0,0:0:0:0:
256,188,160126,1,8,0:0:0:0:
256,188,160241,1,0,0:0:0:0:
256,188,160357,1,8,0:0:0:0:
256,188,160414,1,0,0:0:0:0:
256,188,160472,1,8,0:0:0:0:
256,188,160587,1,0,0:0:0:0:
256,188,160703,1,8,0:0:0:0:
256,188,160760,1,0,0:0:0:0:
256,188,160818,1,8,0:0:0:0:
256,188,160934,1,0,0:0:0:0:
256,188,161049,1,8,0:0:0:0:
256,188,161087,1,0,0:0:0:0:
256,188,161126,1,0,0:0:0:0:
256,188,161164,1,8,0:0:0:0:
256,188,161222,1,8,0:0:0:0:
256,188,161280,1,0,0:0:0:0:
256,188,161395,1,0,0:0:0:0:
256,188,161510,1,8,0:0:0:0:
256,188,161568,1,0,0:0:0:0:
256,188,161626,1,0,0:0:0:0:
256,188,161857,1,0,0:0:0:0:
256,190,161972,1,8,0:0:0:0:
256,190,162030,1,0,0:0:0:0:
256,190,162087,1,0,0:0:0:0:
256,190,162145,1,0,0:0:0:0:
256,190,162203,1,8,0:0:0:0:
256,190,162260,1,0,0:0:0:0:
256,190,162318,1,8,0:0:0:0:
256,190,162376,1,8,0:0:0:0:
256,190,162434,1,0,0:0:0:0:
256,190,162491,1,0,0:0:0:0:
256,190,162549,1,8,0:0:0:0:
256,190,162607,1,0,0:0:0:0:
256,190,162664,1,0,0:0:0:0:
256,190,162780,1,8,0:0:0:0:
256,190,162895,1,0,0:0:0:0:
256,190,162934,1,8,0:0:0:0:
256,190,162972,1,8,0:0:0:0:
256,190,163010,1,0,0:0:0:0:
256,190,163068,1,0,0:0:0:0:
256,188,163126,1,8,0:0:0:0:
256,190,163241,1,8,0:0:0:0:
256,190,163357,1,0,0:0:0:0:
256,190,163414,1,8,0:0:0:0:
256,190,163472,1,8,0:0:0:0:
256,190,163530,1,0,0:0:0:0:
256,190,163587,1,8,0:0:0:0:
256,190,163645,1,8,0:0:0:0:
256,190,163703,1,0,0:0:0:0:
258,190,163818,1,8,0:0:0:0:
258,190,163857,1,0,0:0:0:0:
258,190,163895,1,0,0:0:0:0:
258,190,163934,1,8,0:0:0:0:
256,190,163991,1,8,0:0:0:0:
256,190,164049,1,0,0:0:0:0:
256,190,164164,1,0,0:0:0:0:
256,190,164280,1,8,0:0:0:0:
256,190,164337,1,0,0:0:0:0:
256,190,164395,1,8,0:0:0:0:
256,190,164453,1,0,0:0:0:0:
256,190,164510,1,8,0:0:0:0:
256,190,164626,1,8,0:0:0:0:
256,190,164684,1,8,0:0:0:0:
256,190,164741,1,0,0:0:0:0:
256,190,164780,1,0,0:0:0:0:
256,190,164818,1,0,0:0:0:0:
256,190,164857,1,0,0:0:0:0:
256,190,164972,1,8,0:0:0:0:
256,190,165087,1,0,0:0:0:0:
256,190,165145,1,0,0:0:0:0:
256,190,165203,1,8,0:0:0:0:
256,190,165260,1,8,0:0:0:0:
256,190,165318,1,8,0:0:0:0:
256,190,165376,1,0,0:0:0:0:
256,190,165434,1,8,0:0:0:0:
256,190,165491,1,0,0:0:0:0:
256,190,165549,1,0,0:0:0:0:
238,183,165895,1,8,0:0:0:0:
238,183,165972,1,0,0:0:0:0:
238,183,166049,1,0,0:0:0:0:
238,183,166126,1,8,0:0:0:0:
256,190,166587,5,8,0:0:0:0:
256,190,166818,1,0,0:0:0:0:
256,190,167049,1,8,0:0:0:0:
256,190,167280,1,8,0:0:0:0:
256,190,167510,1,0,0:0:0:0:
256,190,167741,1,8,0:0:0:0:
256,190,167972,1,8,0:0:0:0:
256,190,168087,1,8,0:0:0:0:
256,190,168203,1,0,0:0:0:0:
256,190,168434,1,8,0:0:0:0:
256,190,168664,1,0,0:0:0:0:
256,190,168895,1,8,0:0:0:0:
256,190,169010,1,0,0:0:0:0:
256,190,169126,1,0,0:0:0:0:
256,190,169357,1,0,0:0:0:0:
256,190,169587,1,8,0:0:0:0:
256,190,169818,1,8,0:0:0:0:
256,190,169934,1,0,0:0:0:0:
256,190,170049,1,8,0:0:0:0:
256,190,170280,1,8,0:0:0:0:
256,190,170510,1,0,0:0:0:0:
256,190,170741,1,8,0:0:0:0:
256,190,170857,1,8,0:0:0:0:
256,190,170972,1,0,0:0:0:0:
256,190,171203,1,0,0:0:0:0:
256,190,171434,1,8,0:0:0:0:
256,190,171664,1,8,0:0:0:0:
256,190,171780,1,8,0:0:0:0:
256,190,171895,1,8,0:0:0:0:
256,190,172126,1,8,0:0:0:0:
256,190,172357,1,0,0:0:0:0:
256,190,172587,1,0,0:0:0:0:
256,190,172703,1,0,0:0:0:0:
256,190,172818,1,8,0:0:0:0:
256,190,173049,1,0,0:0:0:0:
256,190,173280,1,8,0:0:0:0:
256,190,173510,1,0,0:0:0:0:
256,190,173972,5,8,0:0:0:0:
256,190,174203,1,8,0:0:0:0:
256,190,174434,1,0,0:0:0:0:
256,190,174664,1,8,0:0:0:0:
256,190,174895,1,0,0:0:0:0:
256,190,175126,1,8,0:0:0:0:
256,190,175357,1,8,0:0:0:0:
256,190,175472,1,8,0:0:0:0:
256,190,175587,1,0,0:0:0:0:
256,190,175818,1,8,0:0:0:0:
256,190,176049,1,0,0:0:0:0:
256,190,176280,1,0,0:0:0:0:
256,190,176395,1,8,0:0:0:0:
256,190,176510,1,0,0:0:0:0:
256,190,176741,1,0,0:0:0:0:
256,190,176972,1,8,0:0:0:0:
256,190,177203,1,0,0:0:0:0:
256,190,177318,1,8,0:0:0:0:
256,190,177434,1,8,0:0:0:0:
256,190,177664,1,8,0:0:0:0:
256,190,177895,1,0,0:0:0:0:
256,190,178126,1,8,0:0:0:0:
256,190,178241,1,8,0:0:0:0:
256,190,178357,1,0,0:0:0:0:
256,190,178587,1,0,0:0:0:0:
256,190,178818,1,8,0:0:0:0:
256,190,179049,1,8,0:0:0:0:
256,190,179164,1,8,0:0:0:0:
256,190,179280,1,8,0:0:0:0:
256,190,179510,1,8,0:0:0:0:
256,190,179587,1,0,0:0:0:0:
256,190,179664,1,0,0:0:0:0:
256,190,179741,1,8,0:0:0:0:
256,190,179857,1,0,0:0:0:0:
256,190,179972,1,8,0:0:0:0:
256,190,180087,1,8,0:0:0:0:
256,190,180203,1,0,0:0:0:0:
256,190,180318,1,8,0:0:0:0:
256,190,180434,1,0,0:0:0:0:
256,190,180664,1,8,0:0:0:0:
256,190,180895,1,0,0:0:0:0:
277,49,181357,5,12,0:0:0:0:
277,49,181472,1,0,0:0:0:0:
277,49,181530,1,0,0:0:0:0:
218,34,181587,1,8,0:0:0:0:
218,34,181645,1,0,0:0:0:0:
218,34,181703,1,8,0:0:0:0:
218,34,181760,1,8,0:0:0:0:
218,34,181818,1,0,0:0:0:0:
218,34,181932,1,0,0:0:0:0:
218,34,182049,1,8,0:0:0:0:
218,34,182107,1,8,0:0:0:0:
218,34,182164,1,0,0:0:0:0:
192,64,182280,1,8,0:0:0:0:
192,64,182318,1,8,0:0:0:0:
100,136,182357,1,8,0:0:0:0:
369,72,182395,1,0,0:0:0:0:
369,72,182453,1,0,0:0:0:0:
360,70,182510,1,8,0:0:0:0:
360,70,182549,1,8,0:0:0:0:
360,66,182587,1,0,0:0:0:0:
354,91,182626,1,0,0:0:0:0:
259,76,182741,1,8,0:0:0:0:
259,76,182799,1,8,0:0:0:0:
259,76,182857,1,0,0:0:0:0:
259,76,182914,1,0,0:0:0:0:
279,67,182972,1,8,0:0:0:0:
226,112,183030,1,8,0:0:0:0:
279,67,183087,1,0,0:0:0:0:
279,67,183126,1,0,0:0:0:0:
234,78,183164,1,0,0:0:0:0:
234,78,183203,1,8,0:0:0:0:
281,66,183260,1,8,0:0:0:0:
281,66,183318,1,0,0:0:0:0:
184,85,183357,1,0,0:0:0:0:
184,85,183395,1,0,0:0:0:0:
228,66,183432,1,8,0:0:0:0:
245,94,183491,1,8,0:0:0:0:
281,66,183549,1,0,0:0:0:0:
352,41,183587,1,0,0:0:0:0:
170,127,183626,1,8,0:0:0:0:
170,127,183664,1,8,0:0:0:0:
286,51,183780,1,0,0:0:0:0:
286,51,183837,1,0,0:0:0:0:
265,96,183895,1,8,0:0:0:0:
174,109,183932,1,8,0:0:0:0:
172,107,183972,1,8,0:0:0:0:
235,107,184010,1,0,0:0:0:0:
184,85,184126,1,8,0:0:0:0:
119,42,184164,1,0,0:0:0:0:
119,42,184203,1,0,0:0:0:0:
119,42,184241,1,8,0:0:0:0:
329,58,184280,1,0,0:0:0:0:
331,57,184318,1,0,0:0:0:0:
332,57,184357,1,8,0:0:0:0:
411,31,184414,1,8,0:0:0:0:
411,31,184472,1,0,0:0:0:0:
411,31,184587,1,8,0:0:0:0:
394,29,184645,1,0,0:0:0:0:
394,29,184703,1,8,0:0:0:0:
231,46,184818,1,0,0:0:0:0:
231,46,184876,1,0,0:0:0:0:
231,46,184932,1,8,0:0:0:0:
231,46,184991,1,0,0:0:0:0:
378,41,185049,1,8,0:0:0:0:
376,216,185107,1,8,0:0:0:0:
378,41,185164,1,0,0:0:0:0:
305,46,185203,1,0,0:0:0:0:
305,46,185241,1,0,0:0:0:0:
305,46,185280,1,8,0:0:0:0:
241,53,185395,1,0,0:0:0:0:
379,103,185453,1,0,0:0:0:0:
271,44,185510,1,8,0:0:0:0:
271,44,185568,1,8,0:0:0:0:
271,44,185626,1,0,0:0:0:0:
244,41,185741,1,8,0:0:0:0:
244,41,185799,1,8,0:0:0:0:
244,41,185857,1,0,0:0:0:0:
244,41,185972,1,8,0:0:0:0:
176,111,186030,1,8,0:0:0:0:
224,77,186087,1,0,0:0:0:0:
224,77,186126,1,0,0:0:0:0:
224,77,186164,1,0,0:0:0:0:
224,77,186203,1,8,0:0:0:0:
305,107,186318,1,8,0:0:0:0:
346,58,186432,1,0,0:0:0:0:
334,134,186491,5,0,0:0:0:0:
312,84,186549,1,8,0:0:0:0:
312,84,186607,1,0,0:0:0:0:
312,84,186664,1,8,0:0:0:0:
312,84,186722,1,8,0:0:0:0:
312,84,186780,1,0,0:0:0:0:
339,100,186837,1,0,0:0:0:0:
203,38,186895,1,8,0:0:0:0:
356,55,187010,1,8,0:0:0:0:
363,48,187126,1,0,0:0:0:0:
363,48,187182,1,0,0:0:0:0:
362,49,187241,1,0,0:0:0:0:
362,49,187299,1,0,0:0:0:0:
419,19,187357,1,8,0:0:0:0:
190,35,187395,1,8,0:0:0:0:
190,34,187432,1,8,0:0:0:0:
419,19,187472,1,0,0:0:0:0:
345,47,187587,1,8,0:0:0:0:
345,47,187626,1,8,0:0:0:0:
345,47,187664,1,0,0:0:0:0:
345,47,187703,1,0,0:0:0:0:
409,34,187818,1,8,0:0:0:0:
279,40,187857,1,8,0:0:0:0:
279,40,187895,1,8,0:0:0:0:
217,52,187932,1,0,0:0:0:0:
217,52,187991,1,0,0:0:0:0:
270,63,188049,1,8,0:0:0:0:
270,63,188164,1,0,0:0:0:0:
270,63,188222,1,0,0:0:0:0:
370,36,188280,1,8,0:0:0:0:
370,36,188318,1,0,0:0:0:0:
370,36,188357,1,0,0:0:0:0:
364,78,188395,1,8,0:0:0:0:
292,100,188453,1,8,0:0:0:0:
364,78,188510,1,0,0:0:0:0:
364,78,188626,1,8,0:0:0:0:
364,78,188682,1,8,0:0:0:0:
364,78,188741,1,0,0:0:0:0:
197,48,188780,1,0,0:0:0:0:
197,48,188818,1,0,0:0:0:0:
223,82,188857,1,8,0:0:0:0:
223,82,188914,1,8,0:0:0:0:
223,82,188972,1,0,0:0:0:0:
220,45,189087,1,8,0:0:0:0:
237,62,189145,1,0,0:0:0:0:
237,62,189203,1,8,0:0:0:0:
237,62,189260,1,8,0:0:0:0:
364,78,189318,1,0,0:0:0:0:
281,136,189376,1,0,0:0:0:0:
219,64,189432,1,8,0:0:0:0:
364,78,189491,1,0,0:0:0:0:
364,78,189549,1,0,0:0:0:0:
364,78,189607,1,0,0:0:0:0:
219,64,189664,1,8,0:0:0:0:
302,52,189780,1,0,0:0:0:0:
316,49,189895,1,8,0:0:0:0:
226,81,189953,1,8,0:0:0:0:
369,29,190010,1,0,0:0:0:0:
369,29,190068,1,0,0:0:0:0:
369,29,190126,1,8,0:0:0:0:
290,87,190241,1,0,0:0:0:0:
359,64,190299,1,0,0:0:0:0:
359,64,190357,1,8,0:0:0:0:
364,60,190395,1,0,0:0:0:0:
364,60,190432,1,0,0:0:0:0:
364,60,190472,1,8,0:0:0:0:
364,60,190510,1,0,0:0:0:0:
364,60,190549,1,0,0:0:0:0:
364,60,190587,1,8,0:0:0:0:
376,57,190703,1,0,0:0:0:0:
376,57,190760,1,0,0:0:0:0:
325,58,190818,1,8,0:0:0:0:
325,58,190876,1,8,0:0:0:0:
325,58,190932,1,0,0:0:0:0:
149,108,190972,1,8,0:0:0:0:
209,74,191010,1,8,0:0:0:0:
226,64,191049,1,0,0:0:0:0:
226,64,191164,1,0,0:0:0:0:
334,71,191280,1,8,0:0:0:0:
306,179,191337,1,8,0:0:0:0:
338,70,191395,1,0,0:0:0:0:
424,17,191510,1,8,0:0:0:0:
419,26,191568,1,8,0:0:0:0:
418,26,191626,1,8,0:0:0:0:
416,27,191682,1,0,0:0:0:0:
414,27,191741,1,8,0:0:0:0:
413,28,191857,1,0,0:0:0:0:
411,28,191914,1,0,0:0:0:0:
280,68,191972,1,8,0:0:0:0:
280,68,192087,1,0,0:0:0:0:
411,28,192145,1,0,0:0:0:0:
280,68,192203,1,8,0:0:0:0:
280,68,192260,1,8,0:0:0:0:
191,79,192318,1,8,0:0:0:0:
411,28,192432,1,0,0:0:0:0:
245,91,192549,1,8,0:0:0:0:
245,91,192607,1,8,0:0:0:0:
411,28,192664,1,0,0:0:0:0:
245,91,192780,1,8,0:0:0:0:
411,28,192837,1,0,0:0:0:0:
367,30,192895,1,8,0:0:0:0:
97,47,192953,1,8,0:0:0:0:
367,30,193010,1,0,0:0:0:0:
411,28,193126,1,8,0:0:0:0:
411,28,193182,1,8,0:0:0:0:
406,27,193241,1,0,0:0:0:0:
194,41,193357,1,8,0:0:0:0:
368,40,193395,1,8,0:0:0:0:
123,99,193432,1,8,0:0:0:0:
368,40,193472,1,0,0:0:0:0:
368,40,193530,1,0,0:0:0:0:
368,40,193587,1,8,0:0:0:0:
163,123,193703,1,8,0:0:0:0:
335,115,193818,1,0,0:0:0:0:
335,115,193876,1,0,0:0:0:0:
335,115,193932,1,8,0:0:0:0:
335,115,193991,1,8,0:0:0:0:
335,115,194049,1,0,0:0:0:0:
335,115,194107,1,8,0:0:0:0:
335,115,194164,1,8,0:0:0:0:
335,115,194222,1,8,0:0:0:0:
335,115,194280,1,0,0:0:0:0:
385,38,194318,1,0,0:0:0:0:
191,58,194357,1,0,0:0:0:0:
351,51,194395,1,8,0:0:0:0:
351,51,194453,1,8,0:0:0:0:
286,46,194510,1,0,0:0:0:0:
286,46,194568,1,8,0:0:0:0:
286,46,194626,1,0,0:0:0:0:
286,46,194682,1,0,0:0:0:0:
356,27,194741,1,8,0:0:0:0:
356,27,194780,1,8,0:0:0:0:
97,151,194818,1,8,0:0:0:0:
362,30,194857,1,0,0:0:0:0:
359,55,194972,1,8,0:0:0:0:
359,55,195010,1,8,0:0:0:0:
359,55,195049,1,0,0:0:0:0:
360,54,195087,1,0,0:0:0:0:
394,59,195203,1,8,0:0:0:0:
204,129,195260,1,0,0:0:0:0:
394,59,195318,1,0,0:0:0:0:
394,59,195376,1,0,0:0:0:0:
394,59,195432,1,8,0:0:0:0:
204,129,195549,1,0,0:0:0:0:
394,59,195607,1,0,0:0:0:0:
394,59,195664,1,8,0:0:0:0:
394,59,195780,1,0,0:0:0:0:
394,59,195895,1,8,0:0:0:0:
366,51,195953,1,0,0:0:0:0:
366,51,196010,1,8,0:0:0:0:
366,51,196068,1,8,0:0:0:0:
366,51,196126,1,4,0:0:0:0:
178,137,196587,1,8,0:0:0:0:
385,181,196703,1,0,0:0:0:0:
385,181,196760,1,0,0:0:0:0:
385,181,196818,1,8,0:0:0:0:
385,181,196932,1,8,0:0:0:0:
385,181,197049,1,4,0:0:0:0:
277,159,197280,1,8,0:0:0:0:
277,159,197395,1,0,0:0:0:0:
277,159,197510,1,8,0:0:0:0:
277,159,197626,1,8,0:0:0:0:
277,159,197741,1,0,0:0:0:0:
224,107,197972,1,12,0:0:0:0:
230,78,198203,1,0,0:0:0:0:
230,78,198260,1,0,0:0:0:0:
190,29,198318,1,0,0:0:0:0:
190,29,198376,1,0,0:0:0:0:
190,29,198432,1,8,0:0:0:0:
224,51,198549,1,8,0:0:0:0:
224,51,198664,1,0,0:0:0:0:
282,98,198780,1,8,0:0:0:0:
282,98,198837,1,8,0:0:0:0:
282,98,198895,1,4,0:0:0:0:
282,98,199126,1,4,0:0:0:0:
282,98,199241,1,4,0:0:0:0:
369,84,199357,1,12,0:0:0:0:
369,84,199472,1,12,0:0:0:0:
282,98,199587,1,4,0:0:0:0:
339,188,199703,1,8,0:0:0:0:
411,246,199760,1,8,0:0:0:0:
339,188,199818,1,0,0:0:0:0:
239,148,200049,1,0,0:0:0:0:
239,148,200164,1,0,0:0:0:0:
239,148,200222,1,0,0:0:0:0:
239,148,200280,1,8,0:0:0:0:
266,38,200337,1,0,0:0:0:0:
182,44,200395,1,8,0:0:0:0:
313,96,200510,1,0,0:0:0:0:
299,93,200568,1,0,0:0:0:0:
299,93,200626,1,8,0:0:0:0:
299,93,200682,1,8,0:0:0:0:
299,93,200741,1,8,0:0:0:0:
299,93,200857,1,0,0:0:0:0:
235,83,200972,1,8,0:0:0:0:
235,83,201030,1,0,0:0:0:0:
235,83,201087,1,8,0:0:0:0:
235,83,201145,1,8,0:0:0:0:
235,83,201203,1,0,0:0:0:0:
248,68,201260,1,0,0:0:0:0:
248,68,201318,1,8,0:0:0:0:
327,86,201432,1,0,0:0:0:0:
265,40,201549,1,8,0:0:0:0:
265,40,201587,1,8,0:0:0:0:
265,40,201626,1,8,0:0:0:0:
265,40,201664,1,0,0:0:0:0:
233,64,201780,1,8,0:0:0:0:
233,64,201895,1,0,0:0:0:0:
233,64,202010,1,0,0:0:0:0:
216,135,202126,1,8,0:0:0:0:
379,138,202241,1,0,0:0:0:0:
379,138,202357,1,0,0:0:0:0:
228,98,202472,1,0,0:0:0:0:
306,155,202587,1,8,0:0:0:0:
352,167,202818,1,8,0:0:0:0:
352,167,203049,1,8,0:0:0:0:
352,167,203280,1,8,0:0:0:0:
352,167,203337,1,8,0:0:0:0:
272,115,203395,1,8,0:0:0:0:
272,115,203453,1,8,0:0:0:0:
352,167,203510,1,4,0:0:0:0:
256,198,203741,1,0,0:0:0:0:
182,101,203972,1,8,0:0:0:0:
182,101,204087,1,0,0:0:0:0:
182,101,204145,1,0,0:0:0:0:
182,101,204203,1,8,0:0:0:0:
182,101,204318,1,0,0:0:0:0:
270,122,204376,1,8,0:0:0:0:
261,114,204432,1,4,0:0:0:0:
208,77,204664,1,0,0:0:0:0:
195,71,204780,1,8,0:0:0:0:
195,71,204837,1,8,0:0:0:0:
245,37,204895,1,0,0:0:0:0:
245,37,204953,1,0,0:0:0:0:
232,111,205010,1,8,0:0:0:0:
247,41,205126,1,0,0:0:0:0:
423,181,205241,1,8,0:0:0:0:
401,121,205357,1,4,0:0:0:0:
401,121,205587,1,4,0:0:0:0:
295,96,205818,1,8,0:0:0:0:
282,91,205932,1,0,0:0:0:0:
282,91,206049,1,8,0:0:0:0:
282,91,206164,1,8,0:0:0:0:
282,91,206222,1,8,0:0:0:0:
212,65,206280,1,4,0:0:0:0:
165,141,206510,1,8,0:0:0:0:
304,169,206626,1,0,0:0:0:0:
304,169,206741,1,8,0:0:0:0:
381,85,206799,1,0,0:0:0:0:
313,165,206857,1,8,0:0:0:0:
232,45,206972,1,0,0:0:0:0:
232,45,207087,1,8,0:0:0:0:
232,45,207145,1,8,0:0:0:0:
417,134,207203,1,4,0:0:0:0:
319,138,207432,1,8,0:0:0:0:
319,138,207549,1,0,0:0:0:0:
319,138,207607,1,0,0:0:0:0:
319,138,207664,1,8,0:0:0:0:
243,65,207722,1,0,0:0:0:0:
243,65,207780,1,8,0:0:0:0:
243,65,207895,1,0,0:0:0:0:
243,65,207953,1,0,0:0:0:0:
243,65,208010,1,8,0:0:0:0:
243,65,208068,1,8,0:0:0:0:
243,65,208126,1,0,0:0:0:0:
243,65,208357,1,8,0:0:0:0:
243,65,208472,1,0,0:0:0:0:
243,65,208530,1,0,0:0:0:0:
243,65,208587,1,0,0:0:0:0:
228,60,208645,1,8,0:0:0:0:
228,60,208703,1,0,0:0:0:0:
200,47,208818,1,8,0:0:0:0:
351,198,208932,1,0,0:0:0:0:
351,198,209049,1,8,0:0:0:0:
351,198,209164,1,0,0:0:0:0:
351,198,209222,1,0,0:0:0:0:
351,198,209280,1,8,0:0:0:0:
351,198,209337,1,8,0:0:0:0:
351,198,209395,1,8,0:0:0:0:
351,198,209510,1,0,0:0:0:0:
351,198,209626,1,0,0:0:0:0:
351,198,209682,1,0,0:0:0:0:
351,198,209741,1,8,0:0:0:0:
351,198,209799,1,0,0:0:0:0:
351,198,209857,1,8,0:0:0:0:
282,154,209972,1,4,0:0:0:0:
282,154,210087,1,8,0:0:0:0:
282,154,210145,1,8,0:0:0:0:
282,154,210203,1,4,0:0:0:0:
282,154,210318,1,8,0:0:0:0:
282,154,210432,1,4,0:0:0:0:
282,154,210549,1,8,0:0:0:0:
282,154,210607,1,8,0:0:0:0:
174,93,210664,1,0,0:0:0:0:
174,93,210780,1,0,0:0:0:0:
347,85,210895,1,12,0:0:0:0:
400,123,211818,1,0,0:0:0:0:
400,123,212049,1,8,0:0:0:0:
239,85,212280,1,0,0:0:0:0:
347,85,212741,1,12,0:0:0:0:
438,109,213664,1,0,0:0:0:0:
256,115,213895,1,8,0:0:0:0:
256,115,214010,1,0,0:0:0:0:
256,115,214068,1,0,0:0:0:0:
256,115,214126,1,0,0:0:0:0:
182,35,214241,1,0,0:0:0:0:
167,118,214357,1,8,0:0:0:0:
167,118,214472,1,0,0:0:0:0:
369,84,214587,1,12,0:0:0:0:
388,177,215510,1,0,0:0:0:0:
388,177,215741,1,8,0:0:0:0:
388,177,215972,1,0,0:0:0:0:
388,177,216203,1,0,0:0:0:0:
359,124,216432,1,12,0:0:0:0:
263,208,217357,1,0,0:0:0:0:
265,139,217587,1,8,0:0:0:0:
265,139,217703,1,0,0:0:0:0:
265,139,217760,1,0,0:0:0:0:
265,139,217818,1,8,0:0:0:0:
265,139,217932,1,0,0:0:0:0:
265,139,218049,1,8,0:0:0:0:
265,139,218164,1,8,0:0:0:0:
457,150,218280,1,4,0:0:0:0:
280,200,218510,1,8,0:0:0:0:
280,200,218626,1,8,0:0:0:0:
280,200,218741,1,0,0:0:0:0:
280,200,218972,1,8,0:0:0:0:
293,199,219087,1,0,0:0:0:0:
293,199,219203,1,8,0:0:0:0:
293,199,219432,1,0,0:0:0:0:
293,199,219549,1,0,0:0:0:0:
293,199,219664,1,8,0:0:0:0:
293,199,219895,1,0,0:0:0:0:
293,199,220010,1,0,0:0:0:0:
278,195,220126,1,0,0:0:0:0:
278,195,220357,1,8,0:0:0:0:
278,195,220472,1,8,0:0:0:0:
278,195,220587,1,0,0:0:0:0:
278,195,220818,1,8,0:0:0:0:
183,97,220932,1,0,0:0:0:0:
278,195,221049,1,0,0:0:0:0:
278,195,221280,1,8,0:0:0:0:
278,195,221395,1,8,0:0:0:0:
278,195,221510,1,0,0:0:0:0:
196,58,221741,1,8,0:0:0:0:
213,24,221857,1,8,0:0:0:0:
213,24,221914,1,8,0:0:0:0:
213,24,221972,1,0,0:0:0:0:
214,118,222087,1,0,0:0:0:0:
214,118,222203,1,0,0:0:0:0:
214,118,222318,1,0,0:0:0:0:
214,118,222432,1,8,0:0:0:0:
214,118,222549,1,0,0:0:0:0:
214,118,222664,1,0,0:0:0:0:
214,118,222780,1,0,0:0:0:0:
214,118,222895,1,8,0:0:0:0:
214,118,223010,1,8,0:0:0:0:
214,118,223126,1,0,0:0:0:0:
214,118,223241,1,0,0:0:0:0:
214,118,223357,1,8,0:0:0:0:
203,110,223472,1,0,0:0:0:0:
214,118,223587,1,8,0:0:0:0:
202,110,223703,1,0,0:0:0:0:
202,110,223818,1,8,0:0:0:0:
264,97,224049,1,0,0:0:0:0:
264,97,224280,1,8,0:0:0:0:
264,97,224510,5,8,0:0:0:0:
264,97,224626,1,0,0:0:0:0:
240,87,224741,1,8,0:0:0:0:
240,87,224857,1,8,0:0:0:0:
240,87,224972,1,0,0:0:0:0:
240,87,225030,1,0,0:0:0:0:
240,87,225087,1,0,0:0:0:0:
240,87,225145,1,0,0:0:0:0:
186,77,225203,1,8,0:0:0:0:
186,77,225318,1,8,0:0:0:0:
186,77,225432,1,0,0:0:0:0:
186,77,225549,1,8,0:0:0:0:
449,294,225664,5,0,0:0:0:0:
295,148,226124,1,8,0:0:0:0:
257,117,226355,1,0,0:0:0:0:
257,117,226470,1,8,0:0:0:0:
257,117,226587,1,0,0:0:0:0:
257,117,226701,1,0,0:0:0:0:
257,117,226816,1,8,0:0:0:0:
257,117,226932,1,8,0:0:0:0:
257,117,227047,1,0,0:0:0:0:
230,100,227164,1,0,0:0:0:0:
230,100,227278,1,8,0:0:0:0:
230,100,227510,1,0,0:0:0:0:
317,129,227739,1,8,0:0:0:0:
317,129,227855,1,8,0:0:0:0:
317,129,227970,1,0,0:0:0:0:
317,129,228087,1,8,0:0:0:0:
317,129,228201,1,0,0:0:0:0:
317,129,228260,1,0,0:0:0:0:
317,129,228316,1,0,0:0:0:0:
280,97,228432,1,8,0:0:0:0:
280,97,228547,1,0,0:0:0:0:
280,97,228664,1,8,0:0:0:0:
268,89,228778,1,0,0:0:0:0:
269,89,228837,1,0,0:0:0:0:
270,88,228893,1,8,0:0:0:0:
270,88,229010,1,8,0:0:0:0:
267,86,229124,1,0,0:0:0:0:
267,86,229182,1,8,0:0:0:0:
267,85,229239,1,0,0:0:0:0:
268,84,229297,1,8,0:0:0:0:
271,80,229355,1,0,0:0:0:0:
272,80,229587,1,8,0:0:0:0:
271,83,229701,1,8,0:0:0:0:
271,83,229816,1,0,0:0:0:0:
176,89,229932,1,0,0:0:0:0:
176,89,230047,5,8,0:0:0:0:
230,104,230278,1,0,0:0:0:0:
259,87,230510,1,0,0:0:0:0:
259,87,230624,1,0,0:0:0:0:
242,110,230739,1,8,0:0:0:0:
259,87,230970,1,8,0:0:0:0:
259,87,231087,1,8,0:0:0:0:
259,87,231201,1,0,0:0:0:0:
194,77,231374,5,8,0:0:0:0:
194,77,231432,1,0,0:0:0:0:
194,77,231547,1,0,0:0:0:0:
425,153,231664,1,8,0:0:0:0:
425,153,231778,1,0,0:0:0:0:
425,153,231837,1,0,0:0:0:0:
320,108,231893,1,8,0:0:0:0:
320,108,232010,1,8,0:0:0:0:
181,115,232124,1,0,0:0:0:0:
181,115,232182,1,0,0:0:0:0:
181,115,232239,1,8,0:0:0:0:
181,115,232297,1,8,0:0:0:0:
181,115,232355,1,0,0:0:0:0:
181,115,232414,1,8,0:0:0:0:
196,29,232470,1,8,0:0:0:0:
196,29,232528,1,8,0:0:0:0:
196,29,232587,1,0,0:0:0:0:
182,96,232643,1,0,0:0:0:0:
246,28,232701,1,8,0:0:0:0:
196,29,232760,1,8,0:0:0:0:
196,29,232816,1,0,0:0:0:0:
196,29,232874,1,8,0:0:0:0:
205,101,232932,1,8,0:0:0:0:
205,101,232989,1,8,0:0:0:0:
205,101,233047,1,0,0:0:0:0:
240,71,233277,1,8,0:0:0:0:
240,71,233394,1,0,0:0:0:0:
240,71,233509,1,8,0:0:0:0:
240,71,233739,1,0,0:0:0:0:
240,71,233855,1,8,0:0:0:0:
240,71,233970,1,0,0:0:0:0:
230,66,234085,1,0,0:0:0:0:
230,66,234201,1,8,0:0:0:0:
203,36,234316,1,0,0:0:0:0:
189,47,234432,1,8,0:0:0:0:
227,63,234547,1,8,0:0:0:0:
227,63,234662,1,8,0:0:0:0:
230,66,234893,1,8,0:0:0:0:
139,120,235124,1,0,0:0:0:0:
139,120,235239,1,8,0:0:0:0:
148,132,235355,1,0,0:0:0:0:
148,132,235470,1,0,0:0:0:0:
199,76,235585,1,8,0:0:0:0:
209,27,235816,1,0,0:0:0:0:
247,91,235932,1,8,0:0:0:0:
209,27,236047,1,0,0:0:0:0:
209,27,236162,1,0,0:0:0:0:
268,45,236278,1,8,0:0:0:0:
268,45,236355,1,8,0:0:0:0:
268,45,236432,1,8,0:0:0:0:
268,45,236508,1,0,0:0:0:0:
240,43,236624,1,8,0:0:0:0:
247,42,236739,1,0,0:0:0:0:
390,221,236970,1,0,0:0:0:0:
390,221,237085,1,0,0:0:0:0:
390,221,237201,1,8,0:0:0:0:
163,130,237432,1,0,0:0:0:0:
163,130,237547,1,8,0:0:0:0:
163,130,237662,1,0,0:0:0:0:
207,164,237778,1,0,0:0:0:0:
207,164,237893,1,8,0:0:0:0:
209,159,238008,1,8,0:0:0:0:
209,158,238124,1,0,0:0:0:0:
203,141,238239,1,0,0:0:0:0:
200,142,238355,1,8,0:0:0:0:
200,142,238470,1,8,0:0:0:0:
200,142,238585,1,0,0:0:0:0:
294,167,238816,1,8,0:0:0:0:
294,167,238932,1,0,0:0:0:0:
294,167,239047,1,8,0:0:0:0:
294,167,239162,1,0,0:0:0:0:
256,66,239278,1,8,0:0:0:0:
256,66,239307,1,8,0:0:0:0:
256,66,239393,1,0,0:0:0:0:
256,66,239421,1,0,0:0:0:0:
369,188,239508,1,8,0:0:0:0:
154,142,239547,1,8,0:0:0:0:
159,141,239585,1,8,0:0:0:0:
369,188,239624,1,0,0:0:0:0:
194,121,239682,1,0,0:0:0:0:
194,121,239739,1,8,0:0:0:0:
236,97,239855,1,0,0:0:0:0:
299,79,239970,1,8,0:0:0:0:
413,212,240201,1,0,0:0:0:0:
413,212,240316,1,0,0:0:0:0:
196,30,240432,1,0,0:0:0:0:
285,171,240893,1,8,0:0:0:0:
229,138,241124,1,0,0:0:0:0:
229,138,241239,1,8,0:0:0:0:
229,138,241470,1,8,0:0:0:0:
229,138,241585,1,0,0:0:0:0:
229,138,241701,1,0,0:0:0:0:
229,138,241816,1,8,0:0:0:0:
224,132,242047,1,0,0:0:0:0:
224,132,242162,1,8,0:0:0:0:
224,132,242278,1,0,0:0:0:0:
222,131,242508,1,0,0:0:0:0:
224,132,242739,1,8,0:0:0:0:
179,45,242970,1,0,0:0:0:0:
179,45,243085,1,8,0:0:0:0:
234,60,243316,1,8,0:0:0:0:
234,60,243432,1,0,0:0:0:0:
228,57,243547,1,0,0:0:0:0:
228,57,243662,1,8,0:0:0:0:
228,57,243893,1,0,0:0:0:0:
228,57,244008,1,8,0:0:0:0:
228,57,244124,1,0,0:0:0:0:
349,218,244355,1,0,0:0:0:0:
349,218,244585,1,8,0:0:0:0:
349,218,244816,1,0,0:0:0:0:
349,218,244932,1,8,0:0:0:0:
274,168,245162,1,8,0:0:0:0:
144,134,245278,1,0,0:0:0:0:
144,134,245393,1,0,0:0:0:0:
144,134,245508,1,8,0:0:0:0:
144,134,245739,1,8,0:0:0:0:
144,161,245970,1,0,0:0:0:0:
340,198,246316,1,8,0:0:0:0:
144,161,246662,1,0,0:0:0:0:
342,231,246893,1,8,0:0:0:0:
342,231,247124,1,0,0:0:0:0:
342,231,247239,1,0,0:0:0:0:
342,231,247355,1,8,0:0:0:0:
342,231,247470,1,0,0:0:0:0:
342,231,247585,1,8,0:0:0:0:
342,231,247701,1,8,0:0:0:0:
342,231,247816,1,0,0:0:0:0:
273,149,248047,1,8,0:0:0:0:
158,127,248162,1,0,0:0:0:0:
158,127,248278,1,8,0:0:0:0:
158,127,248508,1,0,0:0:0:0:
158,127,248624,1,0,0:0:0:0:
158,127,248739,1,8,0:0:0:0:
158,127,248855,1,0,0:0:0:0:
158,127,248970,1,0,0:0:0:0:
158,127,249085,1,0,0:0:0:0:
158,127,249201,1,8,0:0:0:0:
158,127,249432,1,8,0:0:0:0:
158,127,249662,1,0,0:0:0:0:
220,152,249893,1,8,0:0:0:0:
220,152,250008,1,0,0:0:0:0:
220,152,250124,1,8,0:0:0:0:
220,152,250355,1,0,0:0:0:0:
220,152,250470,1,0,0:0:0:0:
220,152,250585,1,8,0:0:0:0:
220,152,250701,1,8,0:0:0:0:
220,152,250816,1,0,0:0:0:0:
396,265,250932,1,0,0:0:0:0:
396,265,250989,1,0,0:0:0:0:
250,122,251047,1,8,0:0:0:0:
396,265,251162,1,0,0:0:0:0:
250,122,251278,1,8,0:0:0:0:
396,265,251393,1,8,0:0:0:0:
250,122,251508,1,0,0:0:0:0:
246,299,251739,1,8,0:0:0:0:
246,299,251855,1,0,0:0:0:0:
246,299,251970,1,8,0:0:0:0:
208,258,252201,1,0,0:0:0:0:
208,258,252316,1,8,0:0:0:0:
208,258,252432,1,0,0:0:0:0:
208,258,252547,1,8,0:0:0:0:
204,243,252662,1,0,0:0:0:0:
204,243,252778,1,0,0:0:0:0:
204,243,252893,1,8,0:0:0:0:
204,243,253124,1,8,0:0:0:0:
204,243,253355,1,0,0:0:0:0:
245,141,253585,1,8,0:0:0:0:
245,141,253701,1,0,0:0:0:0:
245,141,253816,1,0,0:0:0:0:
222,115,254047,1,8,0:0:0:0:
222,115,254162,1,0,0:0:0:0:
222,115,254278,1,8,0:0:0:0:
222,115,254393,1,8,0:0:0:0:
222,115,254508,1,0,0:0:0:0:
246,154,254624,1,8,0:0:0:0:
246,154,254682,1,0,0:0:0:0:
246,154,254739,1,8,0:0:0:0:
348,103,254970,1,8,0:0:0:0:
348,103,255085,1,8,0:0:0:0:
362,157,255201,1,4,0:0:0:0:
277,194,255432,1,8,0:0:0:0:
277,194,255547,1,8,0:0:0:0:
277,194,255662,1,0,0:0:0:0:
277,194,255893,1,8,0:0:0:0:
277,194,256008,1,0,0:0:0:0:
277,194,256124,1,8,0:0:0:0:
277,194,256239,1,8,0:0:0:0:
277,194,256355,1,0,0:0:0:0:
277,194,256470,1,0,0:0:0:0:
277,194,256585,1,8,0:0:0:0:
277,194,256816,1,8,0:0:0:0:
287,189,256932,1,8,0:0:0:0:
277,194,257047,1,4,0:0:0:0:
345,184,257278,1,0,0:0:0:0:
253,178,257393,1,0,0:0:0:0:
253,178,257508,1,8,0:0:0:0:
300,106,257739,1,0,0:0:0:0:
300,106,257855,1,8,0:0:0:0:
300,106,257970,1,0,0:0:0:0:
300,106,258085,1,0,0:0:0:0:
300,106,258201,1,8,0:0:0:0:
383,163,258316,1,0,0:0:0:0:
383,163,258374,1,0,0:0:0:0:
340,154,258432,1,8,0:0:0:0:
340,154,258547,1,0,0:0:0:0:
340,154,258662,1,8,0:0:0:0:
340,154,258778,1,8,0:0:0:0:
354,135,258893,1,4,0:0:0:0:
321,205,259124,1,8,0:0:0:0:
321,205,259239,1,0,0:0:0:0:
321,205,259355,1,8,0:0:0:0:
274,159,259585,1,0,0:0:0:0:
274,159,259701,1,0,0:0:0:0:
274,159,259816,1,8,0:0:0:0:
274,159,259932,1,8,0:0:0:0:
274,159,260047,1,0,0:0:0:0:
149,70,260162,1,0,0:0:0:0:
149,70,260278,1,8,0:0:0:0:
240,161,260508,1,8,0:0:0:0:
240,161,260624,1,8,0:0:0:0:
443,140,260739,1,4,0:0:0:0:
238,166,260970,1,8,0:0:0:0:
238,166,261085,1,0,0:0:0:0:
238,166,261201,1,8,0:0:0:0:
238,166,261316,1,8,0:0:0:0:
238,166,261432,5,0,0:0:0:0:
238,166,261547,1,0,0:0:0:0:
322,185,261662,1,8,0:0:0:0:
322,185,261778,1,8,0:0:0:0:
322,185,261893,1,8,0:0:0:0:
322,185,262010,1,0,0:0:0:0:
318,180,262066,1,0,0:0:0:0:
318,180,262124,1,0,0:0:0:0:
312,172,262239,1,0,0:0:0:0:
312,172,262355,1,8,0:0:0:0:
312,172,262470,1,8,0:0:0:0:
337,167,262587,1,4,0:0:0:0:
330,163,262701,1,8,0:0:0:0:
330,163,262816,1,0,0:0:0:0:
330,163,262932,1,0,0:0:0:0:
330,163,263047,1,8,0:0:0:0:
330,163,263164,1,0,0:0:0:0:
330,163,263278,1,0,0:0:0:0:
330,163,263393,1,0,0:0:0:0:
330,163,263510,1,8,0:0:0:0:
330,163,263624,1,8,0:0:0:0:
257,107,263739,1,0,0:0:0:0:
257,107,263855,1,0,0:0:0:0:
257,107,263970,1,8,0:0:0:0:
257,107,264087,1,0,0:0:0:0:
257,107,264201,1,8,0:0:0:0:
257,107,264316,1,8,0:0:0:0:
257,107,264432,1,4,0:0:0:0:
257,107,264547,1,8,0:0:0:0:
257,107,264664,1,8,0:0:0:0:
257,107,264778,1,8,0:0:0:0:
257,107,264893,1,0,0:0:0:0:
257,107,265010,1,0,0:0:0:0:
257,107,265124,1,8,0:0:0:0:
257,107,265239,1,0,0:0:0:0:
257,107,265355,1,8,0:0:0:0:
257,107,265470,1,8,0:0:0:0:
257,107,265587,1,0,0:0:0:0:
257,107,265701,1,0,0:0:0:0:
257,107,265816,1,8,0:0:0:0:
257,107,265932,1,0,0:0:0:0:
257,107,266047,1,8,0:0:0:0:
257,107,266164,1,8,0:0:0:0:
257,107,266278,1,4,0:0:0:0:
257,107,266393,1,8,0:0:0:0:
257,107,266510,1,0,0:0:0:0:
257,107,266624,1,0,0:0:0:0:
257,107,266739,1,8,0:0:0:0:
257,107,266855,1,0,0:0:0:0:
257,107,266970,1,8,0:0:0:0:
257,107,267087,5,8,0:0:0:0:
257,107,267201,1,0,0:0:0:0:
257,107,267316,1,0,0:0:0:0:
257,107,267432,1,8,0:0:0:0:
257,107,267547,1,0,0:0:0:0:
257,107,267664,1,8,0:0:0:0:
257,107,267778,1,8,0:0:0:0:
257,107,267893,1,0,0:0:0:0:
257,107,268010,1,0,0:0:0:0:
257,107,268124,1,12,0:0:0:0:
294,81,268239,5,0,0:0:0:0:
201,22,268355,1,8,0:0:0:0:
64,138,268414,1,8,0:0:0:0:
68,135,268470,1,8,0:0:0:0:
68,135,268587,1,0,0:0:0:0:
64,138,268701,1,8,0:0:0:0:
64,138,268759,1,8,0:0:0:0:
64,138,268816,1,0,0:0:0:0:
64,138,268874,1,0,0:0:0:0:
64,138,268932,1,0,0:0:0:0:
64,138,269047,1,8,0:0:0:0:
64,138,269105,1,8,0:0:0:0:
64,138,269164,1,0,0:0:0:0:
68,135,269220,1,0,0:0:0:0:
146,140,269278,1,8,0:0:0:0:
146,140,269337,1,0,0:0:0:0:
182,83,269393,1,8,0:0:0:0:
146,140,269451,1,8,0:0:0:0:
182,83,269510,1,0,0:0:0:0:
146,140,269566,1,0,0:0:0:0:
146,140,269624,1,0,0:0:0:0:
146,140,269682,1,0,0:0:0:0:
146,140,269739,1,8,0:0:0:0:
115,143,269797,1,8,0:0:0:0:
180,43,269855,1,8,0:0:0:0:
124,76,269914,1,8,0:0:0:0:
300,86,269972,1,0,0:0:0:0:
87,75,270010,1,0,0:0:0:0:
230,52,270049,1,8,0:0:0:0:
87,75,270087,1,8,0:0:0:0:
404,99,270203,1,0,0:0:0:0:
404,99,270260,1,0,0:0:0:0:
404,99,270318,1,8,0:0:0:0:
404,99,270357,1,8,0:0:0:0:
252,130,270395,1,8,0:0:0:0:
252,130,270434,1,0,0:0:0:0:
243,89,270491,1,0,0:0:0:0:
433,55,270549,1,8,0:0:0:0:
385,69,270664,1,0,0:0:0:0:
385,69,270722,1,0,0:0:0:0:
314,78,270780,1,8,0:0:0:0:
350,60,270837,1,8,0:0:0:0:
350,60,270895,1,0,0:0:0:0:
379,88,270953,1,8,0:0:0:0:
379,88,271010,1,0,0:0:0:0:
379,88,271068,1,0,0:0:0:0:
353,69,271126,1,8,0:0:0:0:
304,49,271184,1,8,0:0:0:0:
304,49,271241,1,8,0:0:0:0:
186,17,271357,1,0,0:0:0:0:
174,213,271414,1,0,0:0:0:0:
228,118,271472,1,8,0:0:0:0:
313,58,271587,1,0,0:0:0:0:
313,58,271645,1,0,0:0:0:0:
313,58,271703,1,8,0:0:0:0:
313,58,271760,1,8,0:0:0:0:
377,60,271818,1,0,0:0:0:0:
377,60,271857,1,8,0:0:0:0:
377,60,271895,1,8,0:0:0:0:
377,60,271934,1,0,0:0:0:0:
278,82,272049,1,8,0:0:0:0:
278,82,272087,1,8,0:0:0:0:
278,82,272126,1,8,0:0:0:0:
278,82,272164,1,0,0:0:0:0:
220,100,272280,1,8,0:0:0:0:
220,100,272318,1,0,0:0:0:0:
220,100,272357,1,0,0:0:0:0:
220,100,272395,1,8,0:0:0:0:
76,161,272510,1,0,0:0:0:0:
76,161,272568,1,0,0:0:0:0:
300,57,272626,1,8,0:0:0:0:
300,57,272664,1,8,0:0:0:0:
300,57,272703,1,8,0:0:0:0:
327,75,272741,1,0,0:0:0:0:
236,80,272799,5,0,0:0:0:0:
312,61,272857,1,8,0:0:0:0:
112,119,272972,1,0,0:0:0:0:
184,110,273030,1,0,0:0:0:0:
184,110,273087,1,0,0:0:0:0:
143,127,273145,1,0,0:0:0:0:
428,61,273203,1,8,0:0:0:0:
428,61,273241,1,0,0:0:0:0:
428,61,273280,1,0,0:0:0:0:
428,61,273318,1,8,0:0:0:0:
349,100,273434,1,0,0:0:0:0:
349,100,273472,1,0,0:0:0:0:
349,100,273510,1,0,0:0:0:0:
349,100,273549,1,8,0:0:0:0:
349,100,273607,1,8,0:0:0:0:
349,100,273664,1,0,0:0:0:0:
268,40,273703,1,0,0:0:0:0:
50,166,273741,1,8,0:0:0:0:
50,166,273780,1,8,0:0:0:0:
314,78,273895,1,0,0:0:0:0:
314,78,273953,1,0,0:0:0:0:
314,78,274010,1,0,0:0:0:0:
88,135,274126,1,8,0:0:0:0:
88,135,274184,1,8,0:0:0:0:
245,74,274241,1,8,0:0:0:0:
245,74,274357,1,0,0:0:0:0:
267,75,274472,1,8,0:0:0:0:
387,62,274530,1,8,0:0:0:0:
208,73,274587,1,0,0:0:0:0:
285,136,274645,1,8,0:0:0:0:
85,163,274703,1,8,0:0:0:0:
86,163,274760,1,8,0:0:0:0:
231,58,274818,1,0,0:0:0:0:
231,57,274876,1,0,0:0:0:0:
231,57,274934,1,8,0:0:0:0:
220,37,275049,1,0,0:0:0:0:
267,75,275107,1,0,0:0:0:0:
344,91,275164,1,8,0:0:0:0:
344,91,275222,1,8,0:0:0:0:
110,100,275280,1,0,0:0:0:0:
400,31,275318,1,0,0:0:0:0:
400,31,275357,1,0,0:0:0:0:
400,31,275395,1,8,0:0:0:0:
400,31,275453,1,8,0:0:0:0:
393,26,275510,1,0,0:0:0:0:
402,41,275568,1,0,0:0:0:0:
402,41,275626,1,8,0:0:0:0:
294,73,275741,1,8,0:0:0:0:
294,73,275799,1,8,0:0:0:0:
294,73,275857,1,0,0:0:0:0:
294,73,275914,1,0,0:0:0:0:
206,50,275972,1,8,0:0:0:0:
206,50,276030,1,0,0:0:0:0:
208,44,276087,1,8,0:0:0:0:
332,151,276203,1,0,0:0:0:0:
332,151,276241,1,0,0:0:0:0:
332,151,276280,1,0,0:0:0:0:
288,136,276318,1,8,0:0:0:0:
406,40,276434,1,0,0:0:0:0:
202,63,276491,1,0,0:0:0:0:
228,54,276549,1,8,0:0:0:0:
202,63,276607,1,8,0:0:0:0:
202,63,276664,1,0,0:0:0:0:
202,63,276722,1,8,0:0:0:0:
202,63,276780,1,0,0:0:0:0:
202,63,276837,1,0,0:0:0:0:
138,128,276895,1,0,0:0:0:0:
138,128,276953,1,0,0:0:0:0:
259,47,277010,1,8,0:0:0:0:
236,47,277126,1,0,0:0:0:0:
236,47,277241,1,0,0:0:0:0:
236,47,277357,1,8,0:0:0:0:
198,36,277395,1,8,0:0:0:0:
332,61,277434,1,0,0:0:0:0:
198,36,277472,1,0,0:0:0:0:
358,66,277587,1,8,0:0:0:0:
358,66,277645,1,8,0:0:0:0:
358,66,277703,1,0,0:0:0:0:
358,66,277741,1,0,0:0:0:0:
127,138,277780,1,0,0:0:0:0:
199,51,277818,1,8,0:0:0:0:
199,51,277876,1,8,0:0:0:0:
199,51,277934,1,8,0:0:0:0:
199,51,277991,1,8,0:0:0:0:
299,63,278049,1,0,0:0:0:0:
267,74,278078,1,0,0:0:0:0:
299,63,278164,1,8,0:0:0:0:
267,74,278193,1,8,0:0:0:0:
306,63,278280,1,0,0:0:0:0:
222,38,278309,1,0,0:0:0:0:
207,67,278395,1,8,0:0:0:0:
222,38,278424,1,8,0:0:0:0:
207,67,278510,1,0,0:0:0:0:
161,92,278539,1,0,0:0:0:0:
161,92,278626,1,0,0:0:0:0:
109,169,278655,1,0,0:0:0:0:
266,123,278741,1,8,0:0:0:0:
266,123,278799,1,8,0:0:0:0:
352,104,278857,1,8,0:0:0:0:
352,104,278914,1,8,0:0:0:0:
402,70,278972,1,0,0:0:0:0:
402,70,279010,1,0,0:0:0:0:
402,70,279049,1,0,0:0:0:0:
402,70,279087,1,8,0:0:0:0:
402,70,279126,1,8,0:0:0:0:
406,66,279164,1,8,0:0:0:0:
390,63,279203,1,0,0:0:0:0:
390,63,279260,1,0,0:0:0:0:
390,63,279318,1,8,0:0:0:0:
241,107,279357,1,0,0:0:0:0:
258,104,279395,5,0,0:0:0:0:
390,63,279434,1,8,0:0:0:0:
334,76,279491,1,8,0:0:0:0:
182,38,279549,1,0,0:0:0:0:
207,48,279664,1,8,0:0:0:0:
182,90,279722,1,0,0:0:0:0:
390,44,279780,1,8,0:0:0:0:
245,55,279837,1,8,0:0:0:0:
245,55,279895,1,0,0:0:0:0:
363,94,279924,1,0,0:0:0:0:
363,94,280010,1,8,0:0:0:0:
363,94,280039,1,8,0:0:0:0:
363,94,280126,1,0,0:0:0:0:
363,94,280155,1,0,0:0:0:0:
233,58,280241,1,8,0:0:0:0:
228,49,280357,1,0,0:0:0:0:
228,49,280414,1,0,0:0:0:0:
228,49,280472,1,8,0:0:0:0:
320,109,280530,1,8,0:0:0:0:
320,109,280587,1,0,0:0:0:0:
377,69,280703,1,8,0:0:0:0:
377,69,280760,1,8,0:0:0:0:
377,69,280818,1,0,0:0:0:0:
319,64,280876,1,8,0:0:0:0:
319,64,280934,1,0,0:0:0:0:
319,64,280991,1,0,0:0:0:0:
319,64,281049,1,8,0:0:0:0:
271,34,281087,1,8,0:0:0:0:
271,34,281126,1,0,0:0:0:0:
92,22,281164,1,0,0:0:0:0:
249,121,281280,1,8,0:0:0:0:
249,121,281337,1,8,0:0:0:0:
249,121,281395,1,8,0:0:0:0:
249,121,281453,1,8,0:0:0:0:
374,64,281510,1,0,0:0:0:0:
374,64,281568,1,0,0:0:0:0:
374,64,281626,1,8,0:0:0:0:
209,50,281655,1,8,0:0:0:0:
106,111,281741,1,0,0:0:0:0:
173,172,281770,1,0,0:0:0:0:
106,111,281857,1,8,0:0:0:0:
208,128,281914,1,8,0:0:0:0:
231,106,281972,1,0,0:0:0:0:
231,106,282030,1,8,0:0:0:0:
231,106,282087,1,0,0:0:0:0:
109,136,282126,1,0,0:0:0:0:
112,134,282164,1,0,0:0:0:0:
266,58,282203,1,8,0:0:0:0:
266,58,282260,1,8,0:0:0:0:
266,58,282318,1,0,0:0:0:0:
339,75,282376,1,8,0:0:0:0:
281,80,282434,1,0,0:0:0:0:
255,54,282491,1,0,0:0:0:0:
219,67,282549,1,8,0:0:0:0:
219,67,282664,1,0,0:0:0:0:
398,58,282722,1,0,0:0:0:0:
398,58,282780,1,0,0:0:0:0:
398,58,282837,1,0,0:0:0:0:
398,58,282895,1,8,0:0:0:0:
287,80,282934,1,0,0:0:0:0:
287,80,282972,1,0,0:0:0:0:
287,80,283010,1,8,0:0:0:0:
200,30,283126,1,0,0:0:0:0:
200,30,283164,1,0,0:0:0:0:
200,30,283203,1,0,0:0:0:0:
200,30,283241,1,8,0:0:0:0:
362,83,283299,1,8,0:0:0:0:
207,35,283357,1,0,0:0:0:0:
207,35,283395,1,0,0:0:0:0:
209,34,283434,1,8,0:0:0:0:
209,34,283472,1,8,0:0:0:0:
372,27,283587,1,0,0:0:0:0:
182,80,283616,1,0,0:0:0:0:
197,120,283703,1,8,0:0:0:0:
197,120,283732,1,8,0:0:0:0:
357,71,283818,1,4,0:0:0:0:
277,133,284049,1,8,0:0:0:0:
238,48,284107,1,8,0:0:0:0:
238,48,284164,1,0,0:0:0:0:
238,48,284222,1,0,0:0:0:0:
238,48,284280,1,8,0:0:0:0:
238,48,284337,1,0,0:0:0:0:
238,48,284395,1,8,0:0:0:0:
238,48,284453,1,8,0:0:0:0:
260,52,284510,1,0,0:0:0:0:
260,52,284626,1,0,0:0:0:0:
359,167,284741,1,12,0:0:0:0:
358,143,284857,1,0,0:0:0:0:
358,143,284914,1,8,0:0:0:0:
358,143,284972,1,8,0:0:0:0:
358,143,285087,1,0,0:0:0:0:
165,181,285145,1,0,0:0:0:0:
295,109,285203,1,8,0:0:0:0:
339,97,285318,1,0,0:0:0:0:
348,94,285376,1,0,0:0:0:0:
375,44,285434,1,8,0:0:0:0:
375,44,285472,1,8,0:0:0:0:
375,44,285510,1,8,0:0:0:0:
375,44,285549,1,0,0:0:0:0:
306,71,285664,1,8,0:0:0:0:
298,74,285780,1,0,0:0:0:0:
298,74,285895,1,0,0:0:0:0:
194,40,285953,1,0,0:0:0:0:
420,246,286010,1,8,0:0:0:0:
237,77,286068,1,8,0:0:0:0:
220,87,286126,1,0,0:0:0:0:
223,69,286184,1,8,0:0:0:0:
377,132,286241,1,0,0:0:0:0:
276,174,286357,1,8,0:0:0:0:
276,174,286472,1,0,0:0:0:0:
276,174,286530,1,0,0:0:0:0:
256,172,286587,1,8,0:0:0:0:
256,172,286703,1,8,0:0:0:0:
223,137,286760,1,0,0:0:0:0:
246,150,286818,1,8,0:0:0:0:
246,150,286876,1,8,0:0:0:0:
160,109,286934,1,0,0:0:0:0:
160,109,286972,1,0,0:0:0:0:
160,109,287010,1,0,0:0:0:0:
160,109,287049,1,8,0:0:0:0:
358,64,287107,1,8,0:0:0:0:
358,64,287164,1,0,0:0:0:0:
169,47,287222,1,0,0:0:0:0:
358,64,287280,1,8,0:0:0:0:
416,101,287337,1,0,0:0:0:0:
416,101,287395,1,8,0:0:0:0:
179,138,287510,1,8,0:0:0:0:
179,138,287626,1,0,0:0:0:0:
216,31,287684,1,0,0:0:0:0:
216,31,287741,1,8,0:0:0:0:
216,31,287799,1,8,0:0:0:0:
234,122,287857,1,0,0:0:0:0:
234,122,287914,1,0,0:0:0:0:
234,122,287972,1,8,0:0:0:0:
280,185,288087,1,0,0:0:0:0:
280,185,288145,1,0,0:0:0:0:
280,185,288203,1,8,0:0:0:0:
241,100,288260,1,8,0:0:0:0:
241,100,288318,1,0,0:0:0:0:
241,100,288376,1,8,0:0:0:0:
241,100,288434,1,0,0:0:0:0:
241,100,288549,1,8,0:0:0:0:
241,100,288664,1,0,0:0:0:0:
370,59,288693,1,0,0:0:0:0:
241,100,288780,1,0,0:0:0:0:
370,59,288809,1,0,0:0:0:0:
303,148,288895,1,8,0:0:0:0:
312,137,288953,1,8,0:0:0:0:
312,137,289010,1,8,0:0:0:0:
243,90,289126,1,0,0:0:0:0:
243,90,289184,1,0,0:0:0:0:
243,90,289241,1,8,0:0:0:0:
288,92,289299,1,8,0:0:0:0:
344,71,289357,1,0,0:0:0:0:
331,45,289395,1,0,0:0:0:0:
263,123,289434,1,0,0:0:0:0:
153,132,289472,1,8,0:0:0:0:
153,132,289530,1,0,0:0:0:0:
153,132,289587,1,8,0:0:0:0:
250,109,289703,1,0,0:0:0:0:
250,109,289760,1,0,0:0:0:0:
250,109,289818,1,0,0:0:0:0:
199,33,289876,1,8,0:0:0:0:
199,33,289934,1,0,0:0:0:0:
199,33,290049,1,8,0:0:0:0:
365,72,290087,1,8,0:0:0:0:
91,144,290126,1,8,0:0:0:0:
365,72,290164,1,0,0:0:0:0:
185,28,290280,1,0,0:0:0:0:
271,74,290395,1,8,0:0:0:0:
225,34,290510,1,0,0:0:0:0:
225,34,290568,1,0,0:0:0:0:
225,34,290626,1,8,0:0:0:0:
353,55,290664,1,0,0:0:0:0:
353,55,290703,1,0,0:0:0:0:
353,54,290741,1,8,0:0:0:0:
308,80,290857,1,0,0:0:0:0:
329,97,290972,1,8,0:0:0:0:
249,81,291030,1,8,0:0:0:0:
329,97,291087,1,0,0:0:0:0:
285,72,291203,1,0,0:0:0:0:
285,72,291318,1,8,0:0:0:0:
162,24,291376,1,0,0:0:0:0:
259,64,291434,1,0,0:0:0:0:
146,34,291549,1,8,0:0:0:0:
120,29,291664,1,0,0:0:0:0:
221,46,291780,1,8,0:0:0:0:
368,110,291837,1,8,0:0:0:0:
368,110,291895,1,0,0:0:0:0:
368,110,291953,1,0,0:0:0:0:
368,110,292010,1,0,0:0:0:0:
343,168,292126,1,12,0:0:0:0:
287,132,292357,1,0,0:0:0:0:
287,132,292414,1,0,0:0:0:0:
287,132,292472,1,8,0:0:0:0:
249,53,292510,1,8,0:0:0:0:
249,53,292549,1,8,0:0:0:0:
194,71,292587,1,0,0:0:0:0:
194,71,292645,1,0,0:0:0:0:
194,71,292703,1,0,0:0:0:0:
194,71,292760,1,0,0:0:0:0:
128,71,292818,1,8,0:0:0:0:
128,71,292857,1,8,0:0:0:0:
128,71,292895,1,8,0:0:0:0:
128,71,292934,1,0,0:0:0:0:
183,96,293049,1,8,0:0:0:0:
183,96,293107,1,0,0:0:0:0:
183,96,293164,1,8,0:0:0:0:
183,96,293222,1,8,0:0:0:0:
183,96,293280,1,0,0:0:0:0:
290,40,293318,1,0,0:0:0:0:
290,40,293357,1,0,0:0:0:0:
198,43,293395,1,8,0:0:0:0:
125,144,293453,1,8,0:0:0:0:
125,144,293510,1,0,0:0:0:0:
196,131,293626,1,0,0:0:0:0:
187,135,293741,1,8,0:0:0:0:
265,103,293780,1,8,0:0:0:0:
265,103,293818,1,8,0:0:0:0:
265,103,293857,1,0,0:0:0:0:
425,25,293972,1,8,0:0:0:0:
198,43,294030,1,8,0:0:0:0:
198,43,294087,1,0,0:0:0:0:
198,42,294145,1,8,0:0:0:0:
281,61,294203,1,0,0:0:0:0:
324,69,294318,1,8,0:0:0:0:
357,62,294434,1,0,0:0:0:0:
357,62,294491,1,0,0:0:0:0:
357,62,294549,1,8,0:0:0:0:
357,62,294587,1,8,0:0:0:0:
357,62,294626,1,8,0:0:0:0:
302,62,294664,1,0,0:0:0:0:
233,55,294722,1,0,0:0:0:0:
302,62,294780,1,8,0:0:0:0:
233,55,294895,1,0,0:0:0:0:
254,55,295010,1,8,0:0:0:0:
254,55,295068,1,8,0:0:0:0:
275,214,295126,1,0,0:0:0:0:
254,55,295241,1,0,0:0:0:0:
408,36,295357,1,8,0:0:0:0:
408,36,295395,1,0,0:0:0:0:
408,36,295434,1,0,0:0:0:0:
408,36,295472,1,8,0:0:0:0:
297,97,295587,1,0,0:0:0:0:
291,74,295703,1,8,0:0:0:0:
291,74,295741,1,8,0:0:0:0:
294,69,295780,1,8,0:0:0:0:
294,69,295818,1,0,0:0:0:0:
235,89,295934,1,8,0:0:0:0:
112,132,295991,1,8,0:0:0:0:
432,159,296049,1,0,0:0:0:0:
216,114,296078,1,0,0:0:0:0:
177,44,296164,1,8,0:0:0:0:
177,44,296193,1,8,0:0:0:0:
257,95,296280,1,0,0:0:0:0:
257,95,296337,1,0,0:0:0:0:
307,86,296395,1,8,0:0:0:0:
307,86,296434,1,8,0:0:0:0:
307,86,296472,1,8,0:0:0:0:
204,98,296510,1,0,0:0:0:0:
204,98,296568,1,0,0:0:0:0:
204,98,296626,1,8,0:0:0:0:
292,84,296741,1,0,0:0:0:0:
340,72,296780,1,0,0:0:0:0:
340,72,296818,1,0,0:0:0:0:
340,72,296857,1,0,0:0:0:0:
211,46,296972,1,8,0:0:0:0:
211,46,297030,1,8,0:0:0:0:
211,46,297087,1,0,0:0:0:0:
211,46,297145,1,8,0:0:0:0:
266,56,297203,1,0,0:0:0:0:
266,56,297260,1,0,0:0:0:0:
266,56,297318,1,8,0:0:0:0:
266,56,297376,1,8,0:0:0:0:
266,56,297434,1,0,0:0:0:0:
266,56,297549,1,8,0:0:0:0:
252,61,297664,1,0,0:0:0:0:
252,61,297703,1,0,0:0:0:0:
252,61,297741,1,8,0:0:0:0:
252,61,297780,1,8,0:0:0:0:
268,75,297895,5,0,0:0:0:0:
266,75,298010,1,8,0:0:0:0:
265,74,298049,1,8,0:0:0:0:
263,72,298087,1,8,0:0:0:0:
286,72,298126,1,8,0:0:0:0:
286,72,298241,1,0,0:0:0:0:
144,155,298357,1,8,0:0:0:0:
144,155,298414,1,0,0:0:0:0:
214,87,298472,1,8,0:0:0:0:
214,87,298530,1,8,0:0:0:0:
214,87,298587,1,0,0:0:0:0:
214,87,298703,1,8,0:0:0:0:
214,87,298760,1,8,0:0:0:0:
214,87,298818,1,0,0:0:0:0:
67,33,298934,1,0,0:0:0:0:
327,97,299049,5,8,0:0:0:0:
327,97,299107,1,8,0:0:0:0:
327,97,299164,1,8,0:0:0:0:
221,69,299222,1,0,0:0:0:0:
221,69,299280,1,8,0:0:0:0:
403,151,299510,1,4,0:0:0:0:
293,197,299741,1,8,0:0:0:0:
293,197,299972,1,8,0:0:0:0:
306,192,300203,1,0,0:0:0:0:
306,192,300318,1,0,0:0:0:0:
268,111,300434,1,8,0:0:0:0:
268,111,300549,1,0,0:0:0:0:
318,121,300664,1,8,0:0:0:0:
268,111,300780,1,8,0:0:0:0:
219,95,301010,1,8,0:0:0:0:
219,95,301126,1,0,0:0:0:0:
318,121,301357,1,8,0:0:0:0:
285,127,301472,1,0,0:0:0:0:
285,127,301587,1,8,0:0:0:0:
285,127,301703,1,8,0:0:0:0:
285,127,302049,1,8,0:0:0:0:
150,54,302164,1,0,0:0:0:0:
150,54,302280,1,8,0:0:0:0:
150,54,302395,1,0,0:0:0:0:
361,119,302741,1,8,0:0:0:0:
365,63,302780,1,8,0:0:0:0:
370,61,302818,1,8,0:0:0:0:
370,61,302857,1,0,0:0:0:0:
275,92,302895,1,0,0:0:0:0:
275,92,302934,1,0,0:0:0:0:
370,61,302972,1,8,0:0:0:0:
403,151,303203,1,4,0:0:0:0:
372,135,303434,1,8,0:0:0:0:
372,135,303664,1,8,0:0:0:0:
380,132,303895,1,0,0:0:0:0:
380,132,304010,1,0,0:0:0:0:
380,132,304126,1,8,0:0:0:0:
343,55,304241,5,0,0:0:0:0:
343,55,304357,1,8,0:0:0:0:
343,55,304472,1,8,0:0:0:0:
286,49,304703,5,8,0:0:0:0:
281,46,304818,1,0,0:0:0:0:
281,46,305049,1,8,0:0:0:0:
280,46,305164,1,8,0:0:0:0:
280,46,305280,1,8,0:0:0:0:
281,46,305626,1,8,0:0:0:0:
281,46,305741,1,0,0:0:0:0:
227,39,305857,1,0,0:0:0:0:
182,34,306087,1,8,0:0:0:0:
182,34,306318,1,8,0:0:0:0:
182,34,306434,1,0,0:0:0:0:
363,94,306664,1,8,0:0:0:0:
363,94,306703,1,8,0:0:0:0:
363,94,306741,1,8,0:0:0:0:
363,94,306780,1,0,0:0:0:0:
379,86,306837,1,0,0:0:0:0:
379,86,306895,1,8,0:0:0:0:
410,231,307126,1,0,0:0:0:0:
410,231,307357,1,0,0:0:0:0:
410,231,307587,1,0,0:0:0:0:
410,231,307818,1,0,0:0:0:0:
410,231,308049,1,0,0:0:0:0:
410,231,308280,1,0,0:0:0:0:
410,231,308510,1,0,0:0:0:0:
359,191,308741,1,8,0:0:0:0:
359,191,308972,1,0,0:0:0:0:
223,163,309203,1,0,0:0:0:0:
223,163,309434,1,0,0:0:0:0:
223,163,309664,1,0,0:0:0:0:
223,163,309895,1,0,0:0:0:0:
223,163,310126,1,0,0:0:0:0:
340,222,310241,1,8,0:0:0:0:
285,134,310472,1,8,0:0:0:0:
285,134,310587,1,8,0:0:0:0:
191,94,310701,1,0,0:0:0:0:
191,94,310816,1,8,0:0:0:0:
191,94,310932,1,8,0:0:0:0:
191,94,311047,1,0,0:0:0:0:
191,94,311162,1,8,0:0:0:0:
191,94,311278,1,0,0:0:0:0:
191,94,311393,1,0,0:0:0:0:
191,94,311510,1,8,0:0:0:0:
191,94,311624,1,8,0:0:0:0:
191,94,311739,1,0,0:0:0:0:
191,94,311855,1,0,0:0:0:0:
191,94,311970,1,0,0:0:0:0:
191,94,312087,1,0,0:0:0:0:
191,94,312201,1,8,0:0:0:0:
191,94,312316,1,8,0:0:0:0:
191,94,312432,1,0,0:0:0:0:
223,123,312489,1,0,0:0:0:0:
223,123,312547,1,8,0:0:0:0:
223,123,312605,1,8,0:0:0:0:
223,123,312662,1,0,0:0:0:0:
223,123,312720,1,8,0:0:0:0:
223,123,312778,1,8,0:0:0:0:
223,123,312837,1,8,0:0:0:0:
223,123,312893,1,0,0:0:0:0:
223,123,312951,1,0,0:0:0:0:
223,123,313010,1,8,0:0:0:0:
223,123,313066,1,0,0:0:0:0:
223,123,313124,1,0,0:0:0:0:
223,123,313182,1,0,0:0:0:0:
223,123,313239,1,8,0:0:0:0:
223,123,313297,1,8,0:0:0:0:
223,123,313355,1,0,0:0:0:0:
380,78,313701,1,8,0:0:0:0:
380,78,313730,1,8,0:0:0:0:
380,78,313816,1,8,0:0:0:0:
380,78,313845,1,8,0:0:0:0:
380,78,313932,1,8,0:0:0:0:
380,78,313961,1,8,0:0:0:0:
380,78,314047,1,0,0:0:0:0:
380,78,314076,1,0,0:0:0:0:
