osu file format v14

[General]
AudioFilename: audio.ogg
AudioLeadIn: 0
PreviewTime: 43983
Countdown: 0
SampleSet: Soft
StackLeniency: 0.7
Mode: 2
LetterboxInBreaks: 0
WidescreenStoryboard: 1

[Editor]
Bookmarks: 39983
DistanceSpacing: 1.3
BeatDivisor: 4
GridSize: 4
TimelineZoom: 1

[Metadata]
Title:CHU-BURA (TV Size)
TitleUnicode:CHU-BURA (TV Size)
Artist:KELUN
ArtistUnicode:KELUN
Creator:Secre
Version:Salad
Source:BLEACH
Tags:chickenbible opening 8 op eight anime japanese rock jrock j-rock chubura γƒ–γƒͺーチ
BeatmapID:3838306
BeatmapSetID:1836859

[Difficulty]
HPDrainRate:3
CircleSize:3
OverallDifficulty:7
ApproachRate:7
SliderMultiplier:1.4
SliderTickRate:1

[Events]
//Background and Video events
0,0,"me and the boys waiting for faunas next stream.jpg",0,0
Video,-925,"Bleach-Op8.m4v"
//Break Periods
//Storyboard Layer 0 (Background)
//Storyboard Layer 1 (Fail)
//Storyboard Layer 2 (Pass)
//Storyboard Layer 3 (Foreground)
//Storyboard Layer 4 (Overlay)
//Storyboard Sound Samples

[TimingPoints]
650,333.333333333333,4,2,1,70,1,0
11316,-100,4,2,1,65,0,0
32649,-100,4,2,1,75,0,0
43316,-100,4,2,1,90,0,1
64483,-100,4,2,1,65,0,0
75316,-100,4,2,1,90,0,1
88649,-100,4,2,1,90,0,0
88733,-100,4,2,1,65,0,0
89483,-100,4,2,1,40,0,0

[Colours]
Combo1 : 204,60,60
Combo2 : 60,232,251
Combo3 : 153,10,207
Combo4 : 222,163,39

[HitObjects]
336,224,650,6,0,L|338:78,1,140,6|2,0:0|0:0,0:0:0:0:
200,64,1316,2,0,L|126:63,1,70,2|2,0:0|0:0,0:0:0:0:
271,126,1816,6,0,L|424:126,1,140,2|2,0:0|0:0,0:0:0:0:
271,126,2483,2,0,L|118:126,1,140,2|2,0:0|0:0,0:0:0:0:
201,56,2983,1,2,0:0:0:0:
343,73,3316,6,0,L|345:227,1,140,6|2,0:0|0:0,0:0:0:0:
210,252,3983,2,0,L|127:253,1,70,2|2,0:0|0:0,0:0:0:0:
280,183,4483,6,0,L|281:25,1,140,2|2,0:0|0:0,0:0:0:0:
144,39,5149,1,10,0:0:0:0:
286,39,5483,1,10,0:0:0:0:
144,39,5816,1,8,0:0:0:0:
286,39,5983,6,0,L|441:38,1,140,8|10,0:0|0:0,0:0:0:0:
288,37,6649,2,0,L|193:40,1,70,10|2,0:0|1:2,0:0:0:0:
473,56,7149,6,0,L|473:218,1,140,10|2,0:0|1:2,0:0:0:0:
336,248,7816,2,0,L|489:248,1,140,2|2,0:0|1:2,0:0:0:0:
405,183,8316,1,10,0:0:0:0:
133,212,8649,6,0,P|96:196|153:135,1,140,2|10,1:2|0:0,0:0:0:0:
276,137,9316,2,0,L|369:132,1,70,10|2,0:0|1:2,0:0:0:0:
203,73,9816,6,0,L|45:72,1,140,10|2,0:0|1:2,0:0:0:0:
325,87,10483,2,0,L|325:250,1,140,10|10,0:0|0:0,0:0:0:0:
173,253,11149,1,10,0:0:0:0:
322,190,11316,6,0,L|400:192,1,70,2|2,1:2|1:2,0:0:0:0:
255,114,11816,2,0,L|172:112,1,70,2|2,1:2|1:2,0:0:0:0:
320,80,12316,2,0,L|320:175,1,70,8|0,0:0|1:2,0:0:0:0:
185,203,12816,6,0,L|112:202,1,70,8|0,0:0|1:2,0:0:0:0:
253,199,13316,1,0,1:2:0:0:
314,174,13482,1,0,1:2:0:0:
313,108,13649,1,8,0:0:0:0:
251,85,13815,1,0,0:0:0:0:
181,87,13983,6,0,L|179:177,1,70,2|2,1:2|1:2,0:0:0:0:
317,192,14483,2,0,L|483:195,1,140,2|0,1:2|0:0,0:0:0:0:
317,122,15149,6,0,L|159:123,1,140,0|8,1:2|0:0,0:0:0:0:
318,122,15816,2,0,P|316:202|240:212,1,140,0|0,0:0|1:2,0:0:0:0:
199,227,16316,1,8,0:0:0:0:
472,180,16649,6,0,L|476:95,1,70,2|2,1:2|1:2,0:0:0:0:
338,115,17149,2,0,L|242:104,1,70,2|2,1:2|1:2,0:0:0:0:
401,50,17649,2,0,L|400:129,1,70,8|0,0:0|1:2,0:0:0:0:
259,167,18149,6,0,L|188:166,1,70,8|0,0:0|1:2,0:0:0:0:
334,183,18649,1,0,1:2:0:0:
396,162,18815,1,0,1:2:0:0:
401,96,18982,1,8,0:0:0:0:
342,67,19149,1,0,0:0:0:0:
268,68,19316,6,0,L|188:68,1,70,2|2,1:2|1:2,0:0:0:0:
328,152,19816,2,0,L|475:151,2,140,2|0|0,1:2|0:0|1:2,0:0:0:0:
192,168,20816,6,0,L|187:336,1,140,8|0,0:0|0:0,0:0:0:0:
326,311,21483,1,0,1:2:0:0:
400,263,21649,2,0,L|401:184,1,70,8|8,0:0|0:0,0:0:0:0:
240,171,21983,6,0,L|151:172,2,70,12|2|8,0:0|0:0|0:0,0:0:0:0:
314,177,22483,2,0,P|364:150|306:113,1,140,2|2,0:0|0:0,0:0:0:0:
246,99,22983,1,8,0:0:0:0:
175,103,23149,6,0,L|17:104,1,140,2|2,0:0|0:0,0:0:0:0:
106,173,23649,1,8,0:0:0:0:
177,174,23816,1,2,0:0:0:0:
44,111,24149,2,0,L|42:212,1,70,2|8,0:0|0:0,0:0:0:0:
294,213,24649,6,0,L|373:212,1,70,8|2,0:0|0:0,0:0:0:0:
232,145,25149,2,0,L|87:143,1,140,2|2,0:0|0:0,0:0:0:0:
235,91,25816,6,0,L|380:89,2,140,2|2|2,0:0|0:0|0:0,0:0:0:0:
375,83,26816,2,0,L|376:239,1,140,2|2,0:0|0:0,0:0:0:0:
224,263,27316,6,0,L|65:264,1,140,8|8,0:0|0:0,0:0:0:0:
156,196,27816,1,2,0:0:0:0:
306,173,28149,2,0,L|309:92,1,70,2|8,0:0|0:0,0:0:0:0:
238,83,28483,1,2,0:0:0:0:
166,76,28649,5,0,1:2:0:0:
35,117,28983,2,0,L|39:28,1,70,8|2,0:0|0:0,0:0:0:0:
171,48,29483,2,0,L|78:47,1,70,2|8,0:0|0:0,0:0:0:0:
341,88,29983,6,0,L|489:88,1,140,8|8,0:0|0:0,0:0:0:0:
407,149,30483,2,0,L|258:148,1,140,2|2,0:0|0:0,0:0:0:0:
338,79,30983,1,8,0:0:0:0:
407,149,31149,1,2,0:0:0:0:
159,173,31483,6,0,L|-4:172,2,140,2|2|8,0:0|0:0|0:0,0:0:0:0:
77,122,32316,2,0,L|71:32,1,70,8|8,0:0|0:0,0:0:0:0:
229,65,32649,6,0,L|399:66,2,140,4|0|0,0:0|1:2|1:2,0:0:0:0:
69,201,33483,2,0,P|21:191|66:136,1,140,2|2,0:0|0:0,0:0:0:0:
213,134,33983,6,0,L|360:133,1,140,4|0,0:0|1:2,0:0:0:0:
213,134,34649,1,0,1:2:0:0:
150,113,34815,1,2,0:0:0:0:
149,47,34982,1,0,1:2:0:0:
211,24,35148,1,2,0:0:0:0:
368,45,35316,6,0,L|507:46,2,140,4|0|0,0:0|1:2|1:2,0:0:0:0:
206,145,36149,2,0,L|203:62,1,70,2|0,0:0|1:2,0:0:0:0:
280,42,36483,1,2,0:0:0:0:
436,53,36649,6,0,L|440:212,1,140,4|0,0:0|1:2,0:0:0:0:
299,250,37316,2,0,L|445:240,1,140,0|8,1:2|0:0,0:0:0:0:
184,202,37983,6,0,P|149:190|193:121,1,140,4|0,0:0|1:2,0:0:0:0:
326,135,38649,2,0,L|326:42,1,70,0|0,1:2|1:2,0:0:0:0:
260,153,38983,2,0,L|177:154,1,70,0|0,1:2|1:2,0:0:0:0:
330,173,39316,6,0,L|474:172,1,140,4|0,0:0|1:2,0:0:0:0:
330,173,39983,2,0,L|474:172,1,140,0|0,1:2|1:2,0:0:0:0:
398,110,40483,1,0,1:2:0:0:
239,105,40649,6,0,L|96:104,1,140,4|8,0:0|0:0,0:0:0:0:
173,173,41149,2,0,L|326:175,1,140,8|8,0:0|0:0,0:0:0:0:
57,228,41816,6,0,L|56:78,1,140,0|8,1:2|0:0,0:0:0:0:
202,81,42483,2,0,L|44:80,1,140,8|8,0:0|0:0,0:0:0:0:
132,142,42983,1,0,1:2:0:0:
401,148,43316,6,0,L|402:312,1,140,4|8,0:0|0:0,0:0:0:0:
151,285,43983,2,0,L|322:287,1,140,0|8,1:2|0:0,0:0:0:0:
143,240,44649,6,0,L|141:70,1,140,0|8,1:2|0:0,0:0:0:0:
285,91,45316,2,0,P|360:102|371:184,1,140,0|8,1:2|0:0,0:0:0:0:
208,232,45816,6,0,L|52:230,1,140,4|0,0:0|1:2,0:0:0:0:
68,230,46316,1,8,0:0:0:0:
206,192,46649,2,0,L|38:188,1,140,0|8,1:2|0:0,0:0:0:0:
306,132,47316,6,0,P|372:137|389:206,1,140,0|8,1:2|0:0,0:0:0:0:
255,231,47983,2,0,P|215:217|261:151,1,140,0|0,1:2|1:2,0:0:0:0:
406,185,48483,6,0,L|404:44,1,140,4|0,0:0|1:2,0:0:0:0:
336,29,48983,1,8,0:0:0:0:
194,135,49316,2,0,L|102:133,2,70,0|0|8,1:2|1:2|0:0,0:0:0:0:
347,136,49816,6,0,L|348:286,1,140,4|0,0:0|1:2,0:0:0:0:
275,285,50316,1,0,1:2:0:0:
135,181,50649,2,0,L|51:180,2,70,0|0|8,1:2|1:2|0:0,0:0:0:0:
289,199,51149,6,0,P|331:184|281:129,1,140,4|0,0:0|1:2,0:0:0:0:
220,140,51649,2,0,L|219:59,1,70,8|0,0:0|0:0,0:0:0:0:
296,44,51983,2,0,L|382:43,2,70,0|0|8,1:2|1:2|0:0,0:0:0:0:
143,148,52483,6,0,L|4:147,1,140,4|0,0:0|1:2,0:0:0:0:
256,98,53149,2,0,L|418:98,2,140,0|8|8,0:0|0:0|0:0,0:0:0:0:
96,225,53983,6,0,L|93:75,1,140,4|8,0:0|0:0,0:0:0:0:
361,285,54649,2,0,L|190:287,1,140,0|8,1:2|0:0,0:0:0:0:
369,240,55315,6,0,L|371:70,1,140,0|8,1:2|0:0,0:0:0:0:
227,91,55982,2,0,P|161:107|131:182,1,140,0|8,1:2|0:0,0:0:0:0:
304,232,56482,6,0,L|460:230,1,140,4|0,0:0|1:2,0:0:0:0:
443,230,56982,1,8,0:0:0:0:
306,192,57315,2,0,L|474:188,1,140,0|8,1:2|0:0,0:0:0:0:
206,132,57982,6,0,P|140:137|109:202,1,140,0|8,1:2|0:0,0:0:0:0:
257,233,58649,2,0,P|297:219|251:153,1,140,0|0,1:2|1:2,0:0:0:0:
106,185,59149,6,0,L|108:44,1,140,4|0,0:0|1:2,0:0:0:0:
176,29,59649,1,8,0:0:0:0:
318,135,59982,2,0,L|410:133,2,70,0|0|8,1:2|1:2|0:0,0:0:0:0:
165,136,60482,6,0,L|164:286,1,140,4|0,0:0|1:2,0:0:0:0:
237,285,60982,1,0,1:2:0:0:
377,181,61315,2,0,L|461:180,2,70,0|0|8,1:2|1:2|0:0,0:0:0:0:
223,199,61815,6,0,P|181:184|231:129,1,140,4|0,0:0|1:2,0:0:0:0:
292,140,62315,2,0,L|293:59,1,70,8|0,0:0|0:0,0:0:0:0:
214,90,62649,2,0,L|212:12,1,70,0|0,1:2|1:2,0:0:0:0:
282,17,62983,2,0,L|361:16,1,70,8|2,0:0|1:2,0:0:0:0:
206,161,63316,6,0,L|126:158,1,70,0|0,0:0|1:2,0:0:0:0:
402,138,63816,2,0,L|483:137,2,70,0|8|0,0:0|0:0|1:2,0:0:0:0:
324,143,64316,1,8,0:0:0:0:
162,192,64483,6,0,P|125:174|164:98,1,140,4|0,0:0|0:0,0:0:0:0:
228,83,64983,1,0,1:2:0:0:
368,87,65316,2,0,L|375:251,1,140,2|0,1:2|1:2,0:0:0:0:
242,259,65983,6,0,L|78:260,1,140,2|0,1:2|1:2,0:0:0:0:
242,260,66649,2,0,P|280:205|226:145,1,140,2|0,1:2|1:2,0:0:0:0:
82,174,67149,6,0,L|78:17,1,140,10|0,0:0|0:0,0:0:0:0:
155,9,67649,1,0,1:2:0:0:
299,118,67983,2,0,L|458:118,1,140,2|0,1:2|1:2,0:0:0:0:
299,115,68649,6,0,L|140:116,1,140,2|0,1:2|1:2,0:0:0:0:
301,117,69316,2,0,L|378:116,2,70,2|0|0,1:2|0:0|0:0,0:0:0:0:
144,203,69816,6,0,L|144:44,1,140,4|0,0:0|0:0,0:0:0:0:
144,63,70316,1,10,0:0:0:0:
384,72,70649,1,10,0:0:0:0:
384,212,71149,6,0,L|384:53,1,140,4|0,0:0|0:0,0:0:0:0:
384,72,71649,1,10,0:0:0:0:
144,63,71982,1,10,0:0:0:0:
144,63,72483,6,0,L|310:65,1,140,4|0,0:0|0:0,0:0:0:0:
215,141,72983,2,0,L|137:140,1,70,10|0,0:0|0:0,0:0:0:0:
300,69,73316,2,0,L|375:71,2,70,2|2|10,1:2|1:2|0:0,0:0:0:0:
151,140,73816,6,0,L|149:51,1,70,0|10,0:0|0:0,0:0:0:0:
222,47,74149,2,0,L|305:46,1,70,2|2,1:2|1:2,0:0:0:0:
139,207,74483,1,2,1:2:0:0:
76,189,74649,1,10,0:0:0:0:
75,124,74816,1,10,0:0:0:0:
138,105,74983,1,2,1:2:0:0:
416,102,75316,6,0,L|418:261,1,140,4|8,0:0|0:0,0:0:0:0:
157,199,75983,2,0,L|319:195,1,140,0|8,1:2|0:0,0:0:0:0:
164,176,76649,6,0,L|1:179,1,140,0|8,1:2|0:0,0:0:0:0:
163,101,77316,2,0,L|15:100,1,140,0|8,1:2|0:0,0:0:0:0:
177,107,77816,6,0,L|332:104,1,140,4|0,0:0|1:2,0:0:0:0:
245,179,78316,1,8,0:0:0:0:
484,195,78649,2,0,L|490:38,1,140,0|8,1:2|0:0,0:0:0:0:
352,70,79316,6,0,L|185:66,1,140,0|8,1:2|0:0,0:0:0:0:
352,70,79983,2,0,L|441:72,2,70,0|0|0,1:2|1:2|1:2,0:0:0:0:
199,188,80483,6,0,L|42:185,1,140,4|0,0:0|1:2,0:0:0:0:
130,117,80983,1,8,0:0:0:0:
265,110,81316,2,0,L|345:111,2,70,0|0|8,1:2|1:2|0:0,0:0:0:0:
105,225,81816,6,0,L|103:71,1,140,4|0,0:0|1:2,0:0:0:0:
173,49,82316,1,0,1:2:0:0:
304,55,82649,2,0,L|378:57,2,70,0|0|8,1:2|1:2|0:0,0:0:0:0:
153,200,83149,6,0,P|111:181|161:128,1,140,4|0,0:0|1:2,0:0:0:0:
231,119,83649,2,0,L|305:118,1,70,8|0,0:0|0:0,0:0:0:0:
231,119,83983,2,0,L|134:112,2,70,0|0|8,1:2|1:2|0:0,0:0:0:0:
383,121,84483,6,0,L|388:273,1,140,4|0,0:0|1:2,0:0:0:0:
117,270,85149,2,0,L|264:264,2,140,0|8|8,0:0|0:0|0:0,0:0:0:0:
272,266,85983,6,0,L|436:261,1,140,4|8,0:0|0:0,0:0:0:0:
274,174,86649,2,0,L|196:179,1,70,8|0,0:0|1:2,0:0:0:0:
461,215,87149,6,0,L|461:67,1,140,4|0,0:0|1:2,0:0:0:0:
208,101,87816,2,0,L|367:103,1,140,8|8,0:0|0:0,0:0:0:0:
347,102,88483,1,8,0:0:0:0:
193,137,88649,5,12,0:0:0:0:
256,192,88983,12,0,89483,0:0:0:0:
