osu file format v14

[General]
AudioFilename: audio.ogg
AudioLeadIn: 0
PreviewTime: 43983
Countdown: 0
SampleSet: Soft
StackLeniency: 0.7
Mode: 2
LetterboxInBreaks: 0
WidescreenStoryboard: 1

[Editor]
DistanceSpacing: 1.3
BeatDivisor: 4
GridSize: 4
TimelineZoom: 1

[Metadata]
Title:CHU-BURA (TV Size)
TitleUnicode:CHU-BURA (TV Size)
Artist:KELUN
ArtistUnicode:KELUN
Creator:Secre
Version:Rain
Source:BLEACH
Tags:chickenbible opening 8 op eight anime japanese rock jrock j-rock chubura γƒ–γƒͺーチ
BeatmapID:3799302
BeatmapSetID:1836859

[Difficulty]
HPDrainRate:5
CircleSize:4
OverallDifficulty:9
ApproachRate:9
SliderMultiplier:1.74
SliderTickRate:2

[Events]
//Background and Video events
0,0,"me and the boys waiting for faunas next stream.jpg",0,0
Video,-925,"Bleach-Op8.m4v"
//Break Periods
//Storyboard Layer 0 (Background)
//Storyboard Layer 1 (Fail)
//Storyboard Layer 2 (Pass)
//Storyboard Layer 3 (Foreground)
//Storyboard Layer 4 (Overlay)
//Storyboard Sound Samples

[TimingPoints]
650,333.333333333333,4,2,1,70,1,0
11316,-100,4,2,1,65,0,0
32649,-100,4,2,1,75,0,0
43316,-100,4,2,1,90,0,1
64483,-100,4,2,1,65,0,0
75316,-100,4,2,1,90,0,1
88649,-100,4,2,1,90,0,0
88733,-100,4,2,1,65,0,0
89483,-100,4,2,1,40,0,0

[Colours]
Combo1 : 204,60,60
Combo2 : 60,232,251
Combo3 : 153,10,207
Combo4 : 222,163,39

[HitObjects]
339,199,650,6,0,L|129:203,1,174,6|2,0:0|0:0,0:0:0:0:
251,131,1149,1,0,0:0:0:0:
382,118,1316,2,0,L|295:124,2,87,2|2|0,0:0|0:0|0:0,0:0:0:0:
243,147,1816,6,0,P|178:148|128:251,1,174,2|2,0:0|0:0,0:0:0:0:
211,239,2316,1,0,0:0:0:0:
346,238,2483,2,0,L|345:52,1,174,2|2,0:0|0:0,0:0:0:0:
259,61,2983,2,0,L|367:58,1,87,2|2,0:0|0:0,0:0:0:0:
199,189,3316,6,0,L|196:90,1,87,6|0,0:0|0:0,0:0:0:0:
283,80,3649,2,0,L|194:88,1,87,2|2,0:0|0:0,0:0:0:0:
331,133,3983,2,0,L|441:128,2,87,2|2|0,0:0|0:0|0:0,0:0:0:0:
188,206,4483,6,0,P|136:178|197:109,1,174,2|2,0:0|0:0,0:0:0:0:
461,95,5149,1,10,0:0:0:0:
183,98,5483,1,10,0:0:0:0:
338,83,5816,1,8,0:0:0:0:
292,83,5899,1,8,0:0:0:0:
119,181,5983,6,0,L|26:183,1,87,8|0,0:0|1:2,0:0:0:0:
175,121,6316,2,0,L|292:119,1,87,10|0,0:0|1:2,0:0:0:0:
121,42,6649,2,0,L|11:44,2,87,10|2|0,0:0|1:2|1:2,0:0:0:0:
266,52,7149,6,0,P|317:53|372:162,1,174,10|2,0:0|1:2,0:0:0:0:
99,250,7816,2,0,P|49:234|107:166,1,174,2|2,0:0|1:2,0:0:0:0:
239,157,8316,2,0,L|136:159,1,87,10|2,0:0|0:0,0:0:0:0:
293,103,8649,6,0,L|479:102,1,174,2|10,1:2|0:0,0:0:0:0:
377,166,9149,1,0,1:2:0:0:
235,104,9316,2,0,L|332:102,2,87,10|2|0,0:0|1:2|1:2,0:0:0:0:
382,217,9816,6,0,P|442:173|377:126,1,174,10|2,0:0|1:2,0:0:0:0:
116,187,10483,2,0,L|116:79,1,87,10|8,0:0|0:0,0:0:0:0:
254,68,10816,6,0,L|324:68,1,43.5,10|0,0:0|1:2,0:0:0:0:
110,231,10983,1,8,0:0:0:0:
63,227,11066,1,0,1:2:0:0:
64,185,11149,1,10,0:0:0:0:
110,174,11233,1,8,0:0:0:0:
289,157,11316,6,0,L|401:156,1,87,2|2,1:2|1:2,0:0:0:0:
225,193,11816,2,0,L|224:92,1,87,2|2,1:2|1:2,0:0:0:0:
375,53,12316,1,8,0:0:0:0:
224,91,12483,1,0,1:2:0:0:
372,191,12816,6,0,L|467:189,1,87,8|0,0:0|1:2,0:0:0:0:
211,139,13316,1,0,1:2:0:0:
350,86,13483,2,0,L|458:86,2,87,0|8|0,1:2|0:0|0:0,0:0:0:0:
208,169,13983,5,2,1:2:0:0:
120,128,14149,2,0,P|71:162|151:234,1,174,2|2,1:2|1:2,0:0:0:0:
299,232,14649,1,2,1:2:0:0:
386,187,14816,2,0,L|386:90,1,87,0|8,0:0|0:0,0:0:0:0:
228,78,15149,6,0,L|129:76,1,87,0|0,1:2|0:0,0:0:0:0:
298,131,15483,2,0,L|394:128,1,87,8|0,0:0|1:2,0:0:0:0:
224,196,15816,2,0,L|127:193,1,87,0|0,0:0|1:2,0:0:0:0:
300,110,16149,2,0,L|421:112,2,87,0|8|0,1:2|0:0|0:0,0:0:0:0:
43,191,16649,6,0,L|43:81,1,87,2|2,1:2|1:2,0:0:0:0:
201,79,17149,2,0,L|106:79,1,87,2|2,1:2|1:2,0:0:0:0:
282,153,17649,2,0,L|377:151,1,87,8|0,0:0|1:2,0:0:0:0:
217,165,18149,6,0,L|217:73,1,87,8|0,0:0|1:2,0:0:0:0:
371,42,18649,1,0,1:2:0:0:
217,78,18816,2,0,L|109:81,2,87,0|8|0,1:2|0:0|0:0,0:0:0:0:
382,79,19316,5,2,1:2:0:0:
462,74,19483,2,0,L|469:173,1,87,2|8,1:2|0:0,0:0:0:0:
311,186,19816,2,0,L|205:188,1,87,2|2,1:2|1:2,0:0:0:0:
380,110,20149,2,0,L|475:112,1,87,0|8,0:0|0:0,0:0:0:0:
306,79,20483,6,0,L|119:86,1,174,0|8,1:2|0:0,0:0:0:0:
266,157,20983,2,0,L|366:154,1,87,0|0,1:2|0:0,0:0:0:0:
211,198,21316,1,0,1:2:0:0:
69,129,21483,6,0,L|20:132,1,43.5,0|8,1:2|0:0,0:0:0:0:
219,71,21649,1,8,0:0:0:0:
261,72,21732,1,8,0:0:0:0:
303,97,21815,1,8,0:0:0:0:
303,141,21898,1,8,0:0:0:0:
122,183,21983,6,0,L|20:188,2,87,12|2|8,0:0|0:0|0:0,0:0:0:0:
266,189,22483,2,0,L|271:68,1,87,2|0,0:0|1:2,0:0:0:0:
189,73,22816,1,2,0:0:0:0:
326,68,22983,1,8,0:0:0:0:
189,73,23149,6,0,P|132:76|110:186,1,174,2|2,0:0|0:0,0:0:0:0:
248,179,23649,1,8,0:0:0:0:
399,182,23816,2,0,L|400:70,1,87,2|0,0:0|1:2,0:0:0:0:
256,72,24149,1,2,0:0:0:0:
400,70,24316,2,0,L|493:72,1,87,8|2,0:0|0:0,0:0:0:0:
226,167,24649,5,8,0:0:0:0:
144,124,24816,2,0,L|142:15,1,87,2|8,0:0|0:0,0:0:0:0:
284,34,25149,2,0,L|383:30,1,87,2|0,0:0|1:2,0:0:0:0:
218,141,25483,2,0,L|119:148,1,87,2|8,0:0|0:0,0:0:0:0:
295,67,25816,6,0,P|370:72|416:180,1,174,2|2,0:0|0:0,0:0:0:0:
292,162,26316,1,8,0:0:0:0:
151,117,26483,2,0,L|148:8,1,87,2|0,0:0|1:2,0:0:0:0:
295,22,26816,1,2,0:0:0:0:
151,117,26983,2,0,L|31:121,1,87,8|2,0:0|0:0,0:0:0:0:
343,107,27316,6,0,L|439:107,2,87,8|2|8,0:0|0:0|0:0,0:0:0:0:
198,195,27816,2,0,L|196:92,1,87,2|0,0:0|1:2,0:0:0:0:
289,74,28149,1,2,0:0:0:0:
138,64,28316,1,8,0:0:0:0:
289,74,28483,6,0,P|348:76|395:187,1,174,2|2,0:0|0:0,0:0:0:0:
261,173,28983,1,8,0:0:0:0:
118,126,29149,2,0,L|117:34,1,87,2|0,0:0|1:2,0:0:0:0:
263,42,29483,2,0,L|59:54,1,174,2|2,0:0|0:0,0:0:0:0:
328,57,29983,6,0,P|374:67|313:150,1,174,8|8,0:0|0:0,0:0:0:0:
180,173,30483,2,0,L|280:169,3,87,2|0|2|8,0:0|1:2|0:0|0:0,0:0:0:0:
111,122,31149,6,0,L|103:11,1,87,2|0,0:0|1:2,0:0:0:0:
262,29,31483,2,0,L|387:29,1,87,2|8,0:0|0:0,0:0:0:0:
116,184,31816,2,0,L|25:181,1,87,2|0,0:0|1:2,0:0:0:0:
281,108,32149,6,0,L|331:107,1,43.5,8|8,0:0|0:0,0:0:0:0:
177,142,32316,1,8,0:0:0:0:
131,128,32399,1,8,0:0:0:0:
131,87,32482,1,8,0:0:0:0:
179,75,32565,1,8,0:0:0:0:
337,72,32649,6,0,L|511:68,2,174,4|0|0,0:0|1:2|1:2,0:0:0:0:
178,193,33483,2,0,L|175:92,1,87,2|0,0:0|1:2,0:0:0:0:
320,75,33816,1,2,0:0:0:0:
65,84,33983,5,4,0:0:0:0:
201,78,34149,2,0,L|202:180,1,87,2|0,0:0|1:2,0:0:0:0:
41,163,34483,2,0,L|34:63,1,87,2|0,0:0|1:2,0:0:0:0:
199,65,34816,2,0,L|76:66,1,87,2|0,0:0|1:2,0:0:0:0:
274,90,35149,1,2,0:0:0:0:
502,137,35316,6,0,L|505:44,1,87,4|0,0:0|0:0,0:0:0:0:
422,31,35649,1,0,1:2:0:0:
258,64,35816,2,0,L|263:176,1,87,0|0,0:0|1:2,0:0:0:0:
407,155,36149,2,0,L|505:150,1,87,2|0,0:0|1:2,0:0:0:0:
336,87,36483,1,2,0:0:0:0:
102,95,36649,5,4,0:0:0:0:
238,93,36816,2,0,L|341:91,1,87,2|0,0:0|1:2,0:0:0:0:
182,175,37149,2,0,L|84:173,1,87,2|0,0:0|1:2,0:0:0:0:
241,114,37483,1,2,0:0:0:0:
96,108,37649,1,8,0:0:0:0:
241,114,37816,1,2,0:0:0:0:
483,116,37983,6,0,L|485:245,1,87,4|0,0:0|1:2,0:0:0:0:
341,238,38316,2,0,L|249:237,1,87,0|0,1:2|1:2,0:0:0:0:
298,179,38566,1,0,1:2:0:0:
341,238,38649,1,0,1:2:0:0:
192,114,38816,2,0,L|103:116,1,87,0|0,1:2|1:2,0:0:0:0:
150,64,39066,1,0,1:2:0:0:
314,74,39149,6,0,L|420:74,1,87,0|4,1:2|0:0,0:0:0:0:
263,133,39483,2,0,L|150:135,1,87,0|0,1:2|1:2,0:0:0:0:
323,135,39816,2,0,L|323:22,1,87,0|0,1:2|1:2,0:0:0:0:
184,39,40149,2,0,L|78:41,1,87,0|0,1:2|1:2,0:0:0:0:
258,116,40483,2,0,L|316:116,1,43.5,0|0,1:2|1:2,0:0:0:0:
116,196,40649,6,0,P|67:180|130:108,1,174,4|8,0:0|0:0,0:0:0:0:
344,96,41149,2,0,L|466:96,1,87,8|0,0:0|1:2,0:0:0:0:
206,173,41483,2,0,L|101:173,1,87,8|8,0:0|0:0,0:0:0:0:
347,167,41816,1,0,1:2:0:0:
119,173,41983,6,0,L|117:48,1,87,4|8,0:0|0:0,0:0:0:0:
264,54,42316,1,8,0:0:0:0:
117,86,42483,1,8,0:0:0:0:
351,58,42649,1,8,0:0:0:0:
491,53,42816,1,8,0:0:0:0:
491,53,42983,1,0,1:2:0:0:
88,227,43316,6,0,P|28:204|100:158,1,174,4|8,0:0|0:0,0:0:0:0:
360,157,43983,2,0,L|162:162,1,174,0|8,1:2|0:0,0:0:0:0:
320,91,44483,1,0,0:0:0:0:
80,129,44649,5,0,1:2:0:0:
216,117,44816,1,0,1:2:0:0:
80,129,44983,1,8,0:0:0:0:
216,117,45149,1,0,0:0:0:0:
455,103,45316,1,0,1:2:0:0:
321,58,45483,1,0,1:2:0:0:
186,36,45649,1,8,0:0:0:0:
455,103,45816,6,0,P|456:159|349:200,1,174,4|0,0:0|1:2,0:0:0:0:
218,185,46316,2,0,L|214:74,1,87,8|0,0:0|0:0,0:0:0:0:
455,68,46649,2,0,L|339:72,2,87,0|0|8,1:2|1:2|0:0,0:0:0:0:
173,189,47316,6,0,L|376:175,1,174,0|8,1:2|0:0,0:0:0:0:
216,111,47816,1,0,0:0:0:0:
440,97,47983,1,0,1:2:0:0:
305,86,48149,1,0,1:2:0:0:
440,97,48316,1,0,1:2:0:0:
167,226,48483,6,0,P|125:211|190:133,1,174,4|0,0:0|1:2,0:0:0:0:
316,127,48983,2,0,L|224:127,1,87,8|0,0:0|0:0,0:0:0:0:
376,60,49316,2,0,L|487:60,2,87,0|0|8,1:2|1:2|0:0,0:0:0:0:
64,213,49816,6,0,L|260:212,1,174,4|0,0:0|1:2,0:0:0:0:
92,115,50316,2,0,L|203:114,1,87,0|0,1:2|0:0,0:0:0:0:
339,116,50649,2,0,L|237:114,2,87,0|0|8,1:2|1:2|0:0,0:0:0:0:
96,244,51149,6,0,P|45:209|117:143,1,174,4|0,0:0|1:2,0:0:0:0:
252,130,51649,2,0,L|368:130,1,87,8|0,0:0|0:0,0:0:0:0:
191,198,51983,1,0,1:2:0:0:
339,130,52149,2,0,L|337:27,1,87,0|8,1:2|0:0,0:0:0:0:
57,147,52483,6,0,L|259:147,1,174,4|0,0:0|1:2,0:0:0:0:
106,80,52983,1,8,0:0:0:0:
363,76,53149,1,0,0:0:0:0:
409,84,53232,1,0,0:0:0:0:
411,129,53315,1,0,1:2:0:0:
363,135,53399,1,0,1:2:0:0:
206,199,53483,5,8,0:0:0:0:
157,193,53566,1,8,0:0:0:0:
157,150,53649,1,8,0:0:0:0:
201,139,53733,1,0,0:0:0:0:
377,174,53816,2,0,L|428:174,1,43.5,8|8,0:0|0:0,0:0:0:0:
238,93,53983,5,4,0:0:0:0:
110,69,54149,2,0,L|204:62,2,87,0|8|0,0:0|0:0|0:0,0:0:0:0:
359,135,54649,1,0,1:2:0:0:
227,118,54816,2,0,L|326:117,2,87,0|8|0,1:2|0:0|0:0,0:0:0:0:
458,173,55316,5,0,1:2:0:0:
323,170,55483,1,0,1:2:0:0:
458,173,55649,1,8,0:0:0:0:
323,170,55816,1,0,0:0:0:0:
81,113,55983,1,0,1:2:0:0:
216,90,56149,1,0,1:2:0:0:
353,78,56316,1,8,0:0:0:0:
81,113,56483,6,0,P|33:131|91:205,1,174,4|0,0:0|1:2,0:0:0:0:
229,187,56983,2,0,L|352:186,1,87,8|0,0:0|0:0,0:0:0:0:
68,109,57316,2,0,L|181:110,2,87,0|0|8,1:2|1:2|0:0,0:0:0:0:
327,192,57983,6,0,L|120:195,1,174,0|8,1:2|0:0,0:0:0:0:
430,85,58649,1,0,1:2:0:0:
472,84,58732,1,0,0:0:0:0:
502,114,58815,1,0,1:2:0:0:
501,156,58899,1,0,1:2:0:0:
471,185,58982,1,0,1:2:0:0:
428,184,59065,1,0,0:0:0:0:
246,170,59149,6,0,P|180:170|146:278,1,174,4|0,0:0|1:2,0:0:0:0:
279,257,59649,2,0,L|278:142,1,87,8|0,0:0|0:0,0:0:0:0:
129,136,59983,2,0,L|235:134,2,87,0|0|8,1:2|1:2|0:0,0:0:0:0:
371,193,60483,6,0,L|184:192,1,174,4|0,0:0|1:2,0:0:0:0:
349,114,60983,2,0,L|252:110,1,87,0|0,1:2|0:0,0:0:0:0:
418,60,61316,2,0,L|293:58,2,87,0|0|8,1:2|1:2|0:0,0:0:0:0:
136,196,61816,6,0,L|337:193,1,174,4|0,0:0|1:2,0:0:0:0:
71,133,62316,2,0,L|64:22,1,87,8|0,0:0|0:0,0:0:0:0:
222,51,62649,2,0,L|315:51,1,87,0|0,1:2|1:2,0:0:0:0:
158,144,62983,1,8,0:0:0:0:
314,148,63149,1,2,1:2:0:0:
48,146,63316,5,0,0:0:0:0:
192,78,63483,2,0,L|106:78,1,87,0|8,1:2|0:0,0:0:0:0:
347,68,63816,1,0,0:0:0:0:
209,129,63983,2,0,L|146:128,2,43.5,8|0|0,0:0|1:2|1:2,0:0:0:0:
347,68,64316,1,8,0:0:0:0:
121,192,64483,6,0,P|61:192|129:305,1,261,4|0,0:0|1:2,0:0:0:0:
375,223,65316,2,0,L|181:218,1,174,2|0,1:2|1:2,0:0:0:0:
462,250,65983,6,0,L|470:52,1,174,2|0,1:2|1:2,0:0:0:0:
207,100,66649,1,2,1:2:0:0:
358,83,66816,2,0,L|358:191,1,87,0|0,0:0|1:2,0:0:0:0:
79,222,67149,6,0,L|262:217,1,174,10|0,0:0|0:0,0:0:0:0:
119,153,67649,2,0,L|114:42,1,87,0|0,1:2|0:0,0:0:0:0:
374,84,67983,2,0,P|428:102|366:172,1,174,2|0,1:2|1:2,0:0:0:0:
103,227,68649,6,0,L|105:32,1,174,2|0,1:2|1:2,0:0:0:0:
347,69,69316,2,0,L|151:68,1,174,2|0,1:2|0:0,0:0:0:0:
403,188,69816,6,0,P|455:176|393:108,1,174,4|0,0:0|0:0,0:0:0:0:
180,138,70316,2,0,L|176:49,1,87,10|0,0:0|0:0,0:0:0:0:
401,34,70649,1,10,0:0:0:0:
109,188,71149,6,0,P|57:176|119:108,1,174,4|0,0:0|0:0,0:0:0:0:
332,138,71649,2,0,L|336:49,1,87,10|0,0:0|0:0,0:0:0:0:
111,34,71982,1,10,0:0:0:0:
403,188,72483,6,0,P|455:176|393:108,1,174,4|0,0:0|0:0,0:0:0:0:
180,138,72983,2,0,L|176:49,1,87,10|0,0:0|0:0,0:0:0:0:
320,39,73316,1,2,1:2:0:0:
180,138,73483,2,0,L|177:35,1,87,2|10,1:2|0:0,0:0:0:0:
320,39,73816,1,0,0:0:0:0:
94,177,73983,6,0,L|49:177,1,43.5,10|2,0:0|1:2,0:0:0:0:
259,130,74149,1,2,1:2:0:0:
298,140,74232,1,2,1:2:0:0:
300,181,74315,1,2,1:2:0:0:
262,195,74398,1,2,1:2:0:0:
120,192,74483,6,0,L|65:197,1,43.5,2|2,1:2|1:2,0:0:0:0:
245,136,74649,1,10,0:0:0:0:
354,132,74815,1,10,0:0:0:0:
184,74,74983,2,0,L|80:75,1,87,2|0,1:2|0:0,0:0:0:0:
374,66,75316,6,0,P|429:75|467:191,1,174,4|8,0:0|0:0,0:0:0:0:
343,174,75816,1,0,0:0:0:0:
81,111,75983,1,0,1:2:0:0:
217,102,76149,1,0,1:2:0:0:
81,117,76316,2,0,L|77:218,1,87,8|0,0:0|0:0,0:0:0:0:
332,203,76649,5,0,1:2:0:0:
198,193,76816,1,0,1:2:0:0:
332,203,76983,1,8,0:0:0:0:
198,193,77149,1,0,0:0:0:0:
447,131,77316,1,0,1:2:0:0:
317,115,77483,1,0,1:2:0:0:
447,131,77649,1,8,0:0:0:0:
163,261,77816,6,0,L|370:260,1,174,4|0,0:0|1:2,0:0:0:0:
193,173,78316,2,0,L|72:172,1,87,8|0,0:0|0:0,0:0:0:0:
361,101,78649,2,0,L|465:100,2,87,0|0|8,1:2|1:2|0:0,0:0:0:0:
69,172,79316,6,0,L|257:170,1,174,0|8,1:2|0:0,0:0:0:0:
119,98,79816,1,0,0:0:0:0:
347,99,79983,2,0,L|401:100,1,43.5,0|0,1:2|0:0,0:0:0:0:
205,97,80149,2,0,L|148:98,2,43.5,0|0|0,1:2|1:2|1:2,0:0:0:0:
468,123,80483,6,0,L|469:307,1,174,4|0,0:0|1:2,0:0:0:0:
315,227,80983,2,0,L|423:225,1,87,8|0,0:0|0:0,0:0:0:0:
249,144,81316,2,0,L|163:143,2,87,0|0|8,1:2|1:2|0:0,0:0:0:0:
17,95,81816,6,0,L|16:279,1,174,4|0,0:0|1:2,0:0:0:0:
170,199,82316,2,0,L|62:197,1,87,0|0,1:2|0:0,0:0:0:0:
236,116,82649,2,0,L|322:115,2,87,0|0|8,1:2|1:2|0:0,0:0:0:0:
460,210,83149,6,0,L|254:211,1,174,4|0,0:0|1:2,0:0:0:0:
421,153,83649,2,0,L|424:48,1,87,8|0,0:0|0:0,0:0:0:0:
196,81,83983,1,0,1:2:0:0:
329,83,84149,2,0,L|383:85,2,43.5,0|8|8,1:2|0:0|0:0,0:0:0:0:
89,201,84483,6,0,L|88:94,1,87,4|0,0:0|0:0,0:0:0:0:
240,98,84816,2,0,L|338:98,1,87,0|8,1:2|0:0,0:0:0:0:
52,224,85149,2,0,L|52:109,1,87,0|0,0:0|1:2,0:0:0:0:
105,110,85399,1,0,1:2:0:0:
290,124,85483,5,8,0:0:0:0:
332,126,85566,1,8,0:0:0:0:
375,148,85649,1,8,0:0:0:0:
377,194,85732,1,0,1:2:0:0:
213,205,85816,2,0,L|158:204,1,43.5,8|8,0:0|0:0,0:0:0:0:
345,100,85983,6,0,L|449:103,1,87,4|0,0:0|1:2,0:0:0:0:
272,55,86316,2,0,L|176:56,1,87,8|0,0:0|1:2,0:0:0:0:
338,56,86649,1,8,0:0:0:0:
185,55,86816,2,0,L|182:176,1,87,0|0,1:2|1:2,0:0:0:0:
424,239,87149,6,0,P|482:219|407:169,1,174,4|0,0:0|1:2,0:0:0:0:
147,122,87816,1,8,0:0:0:0:
404,113,88149,1,8,0:0:0:0:
147,122,88483,2,0,L|223:122,1,43.5,8|8,0:0|0:0,0:0:0:0:
404,113,88649,5,12,0:0:0:0:
256,192,88816,12,0,89483,0:0:0:0:
