osu file format v14

[General]
AudioFilename: audio.ogg
AudioLeadIn: 0
PreviewTime: 43983
Countdown: 0
SampleSet: Soft
StackLeniency: 0.7
Mode: 2
LetterboxInBreaks: 0
WidescreenStoryboard: 1

[Editor]
DistanceSpacing: 1.3
BeatDivisor: 4
GridSize: 4
TimelineZoom: 1

[Metadata]
Title:CHU-BURA (TV Size)
TitleUnicode:CHU-BURA (TV Size)
Artist:KELUN
ArtistUnicode:KELUN
Creator:Secre
Version:Platter
Source:BLEACH
Tags:chickenbible opening 8 op eight anime japanese rock jrock j-rock chubura γƒ–γƒͺーチ
BeatmapID:3801990
BeatmapSetID:1836859

[Difficulty]
HPDrainRate:4
CircleSize:3.5
OverallDifficulty:8
ApproachRate:8
SliderMultiplier:1.52
SliderTickRate:2

[Events]
//Background and Video events
0,0,"me and the boys waiting for faunas next stream.jpg",0,0
Video,-925,"Bleach-Op8.m4v"
//Break Periods
//Storyboard Layer 0 (Background)
//Storyboard Layer 1 (Fail)
//Storyboard Layer 2 (Pass)
//Storyboard Layer 3 (Foreground)
//Storyboard Layer 4 (Overlay)
//Storyboard Sound Samples

[TimingPoints]
650,333.333333333333,4,2,1,70,1,0
11316,-100,4,2,1,65,0,0
32649,-100,4,2,1,75,0,0
43316,-100,4,2,1,90,0,1
64483,-100,4,2,1,65,0,0
75316,-100,4,2,1,90,0,1
88649,-100,4,2,1,90,0,0
88733,-100,4,2,1,65,0,0
89483,-100,4,2,1,40,0,0

[Colours]
Combo1 : 204,60,60
Combo2 : 60,232,251
Combo3 : 153,10,207
Combo4 : 222,163,39

[HitObjects]
322,133,650,6,0,P|371:146|311:195,1,152,6|2,0:0|0:0,0:0:0:0:
181,144,1316,2,0,L|93:146,2,76,2|2|0,0:0|0:0|0:0,0:0:0:0:
334,137,1816,6,0,L|333:316,1,152,2|2,0:0|0:0,0:0:0:0:
76,274,2483,2,0,L|255:273,1,152,2|2,0:0|0:0,0:0:0:0:
150,214,2983,2,0,L|150:129,1,76,2|2,0:0|0:0,0:0:0:0:
303,98,3316,6,0,P|345:97|397:203,1,152,6|2,0:0|0:0,0:0:0:0:
261,238,3983,2,0,L|349:237,2,76,2|2|0,0:0|0:0|0:0,0:0:0:0:
106,187,4483,6,0,L|103:27,1,152,2|2,0:0|0:0,0:0:0:0:
354,27,5149,1,10,0:0:0:0:
103,35,5483,1,10,0:0:0:0:
103,35,5816,1,8,0:0:0:0:
339,53,5983,5,8,0:0:0:0:
415,65,6149,1,0,1:2:0:0:
415,135,6316,1,10,0:0:0:0:
339,153,6482,1,0,1:2:0:0:
263,163,6649,2,0,L|174:165,2,76,10|2|0,0:0|1:2|1:2,0:0:0:0:
420,167,7149,6,0,L|424:338,1,152,10|2,0:0|1:2,0:0:0:0:
168,280,7816,2,0,L|353:278,1,152,2|2,0:0|1:2,0:0:0:0:
243,214,8316,2,0,L|151:213,1,76,10|2,0:0|0:0,0:0:0:0:
321,132,8649,6,0,L|321:234,1,76,2|0,1:2|1:2,0:0:0:0:
244,222,8983,2,0,L|242:129,1,76,10|0,0:0|1:2,0:0:0:0:
318,99,9316,2,0,L|409:100,2,76,10|2|0,0:0|1:2|1:2,0:0:0:0:
162,221,9816,6,0,P|116:201|177:143,1,152,10|2,0:0|1:2,0:0:0:0:
416,102,10483,2,0,L|496:100,1,76,10|8,0:0|0:0,0:0:0:0:
335,135,10816,2,0,L|239:136,2,76,10|8|10,0:0|0:0|0:0,0:0:0:0:
492,160,11316,6,0,L|494:73,1,76,2|2,1:2|1:2,0:0:0:0:
343,50,11816,2,0,L|259:50,1,76,2|2,1:2|1:2,0:0:0:0:
403,69,12316,2,0,L|404:175,1,76,8|0,0:0|1:2,0:0:0:0:
269,189,12816,6,0,L|179:188,1,76,8|0,0:0|1:2,0:0:0:0:
346,89,13316,1,0,1:2:0:0:
422,84,13483,2,0,L|513:84,2,76,0|8|0,1:2|0:0|0:0,0:0:0:0:
256,169,13983,6,0,L|161:169,1,76,2|2,1:2|1:2,0:0:0:0:
311,79,14483,2,0,L|392:79,2,76,2|2|0,1:2|1:2|0:0,0:0:0:0:
146,93,15149,6,0,L|141:263,1,152,0|8,1:2|0:0,0:0:0:0:
285,253,15816,2,0,L|112:249,1,152,0|0,0:0|1:2,0:0:0:0:
210,204,16316,1,8,0:0:0:0:
472,210,16649,6,0,L|473:110,1,76,2|2,1:2|1:2,0:0:0:0:
333,92,17149,2,0,L|415:91,1,76,2|2,1:2|1:2,0:0:0:0:
264,153,17649,2,0,L|173:155,1,76,8|0,0:0|1:2,0:0:0:0:
324,183,18149,6,0,L|323:288,1,76,8|0,0:0|1:2,0:0:0:0:
186,247,18649,1,0,1:2:0:0:
110,195,18816,2,0,L|30:195,2,76,0|8|0,1:2|0:0|0:0,0:0:0:0:
267,165,19316,6,0,L|364:164,1,76,2|2,1:2|1:2,0:0:0:0:
204,95,19816,2,0,L|32:95,1,152,2|0,1:2|0:0,0:0:0:0:
289,72,20483,6,0,P|329:75|386:166,1,152,0|8,1:2|0:0,0:0:0:0:
307,169,20983,1,0,1:2:0:0:
233,172,21149,2,0,L|234:86,1,76,0|0,0:0|1:2,0:0:0:0:
310,70,21483,2,0,L|407:71,2,76,0|8|8,1:2|0:0|0:0,0:0:0:0:
76,223,21983,6,0,L|75:118,1,76,12|2,0:0|0:0,0:0:0:0:
150,114,22316,1,8,0:0:0:0:
224,108,22483,2,0,L|390:107,1,152,2|2,0:0|0:0,0:0:0:0:
299,169,22983,1,8,0:0:0:0:
149,219,23149,6,0,P|97:200|151:149,1,152,2|2,0:0|0:0,0:0:0:0:
222,138,23649,1,8,0:0:0:0:
296,139,23816,2,0,L|296:242,1,76,2|0,0:0|1:2,0:0:0:0:
218,237,24149,2,0,L|123:235,1,76,2|8,0:0|0:0,0:0:0:0:
380,216,24649,6,0,L|381:125,1,76,8|2,0:0|0:0,0:0:0:0:
234,106,25149,2,0,L|386:104,1,152,2|2,0:0|0:0,0:0:0:0:
152,187,25816,6,0,L|152:27,1,152,2|2,0:0|0:0,0:0:0:0:
307,31,26483,2,0,L|471:32,1,152,2|2,0:0|0:0,0:0:0:0:
458,31,26983,1,8,0:0:0:0:
176,203,27316,6,0,P|131:184|192:126,1,152,8|8,0:0|0:0,0:0:0:0:
252,115,27816,1,2,0:0:0:0:
325,114,27983,2,0,L|325:203,1,76,0|2,1:2|0:0,0:0:0:0:
252,115,28316,1,8,0:0:0:0:
95,209,28483,6,0,L|98:44,1,152,2|2,0:0|0:0,0:0:0:0:
172,30,28983,1,8,0:0:0:0:
326,31,29149,2,0,L|326:116,1,76,2|0,0:0|1:2,0:0:0:0:
256,138,29483,2,0,L|89:140,1,152,2|2,0:0|0:0,0:0:0:0:
256,138,29983,6,0,P|304:142|340:235,1,152,8|8,0:0|0:0,0:0:0:0:
261,256,30483,2,0,P|220:240|270:176,1,152,2|2,0:0|0:0,0:0:0:0:
341,174,30983,1,8,0:0:0:0:
494,187,31149,6,0,L|496:98,1,76,2|0,0:0|1:2,0:0:0:0:
342,100,31483,2,0,L|251:100,1,76,2|8,0:0|0:0,0:0:0:0:
495,177,31816,2,0,L|496:82,1,76,2|0,0:0|1:2,0:0:0:0:
342,100,32149,2,0,L|437:105,2,76,8|8|8,0:0|0:0|0:0,0:0:0:0:
110,234,32649,6,0,P|64:216|128:165,1,152,4|0,0:0|1:2,0:0:0:0:
187,157,33149,1,0,0:0:0:0:
430,167,33483,2,0,L|430:331,1,152,2|2,0:0|0:0,0:0:0:0:
277,329,33983,5,4,0:0:0:0:
199,255,34149,2,0,L|195:173,1,76,2|0,0:0|1:2,0:0:0:0:
274,156,34483,2,0,L|277:64,1,76,2|0,0:0|1:2,0:0:0:0:
201,73,34816,2,0,L|200:-11,1,76,2|0,0:0|1:2,0:0:0:0:
278,6,35149,1,2,0:0:0:0:
123,228,35316,6,0,P|71:202|135:157,1,152,4|0,0:0|1:2,0:0:0:0:
200,145,35816,1,0,0:0:0:0:
461,144,36149,2,0,L|462:256,1,76,2|0,0:0|1:2,0:0:0:0:
300,244,36483,6,0,L|212:244,1,76,2|4,0:0|0:0,0:0:0:0:
298,184,36816,2,0,L|302:88,1,76,2|0,0:0|1:2,0:0:0:0:
226,97,37149,2,0,L|220:-6,1,76,2|0,0:0|1:2,0:0:0:0:
297,15,37483,2,0,L|400:19,2,76,2|8|2,0:0|0:0|0:0,0:0:0:0:
63,201,37983,6,0,L|58:44,1,152,4|0,0:0|1:2,0:0:0:0:
321,70,38649,1,0,1:2:0:0:
70,62,38983,2,0,L|66:144,1,76,0|0,1:2|1:2,0:0:0:0:
225,165,39316,6,0,L|315:167,2,76,4|0|0,0:0|1:2|1:2,0:0:0:0:
144,122,39816,2,0,L|142:27,1,76,0|0,1:2|1:2,0:0:0:0:
222,30,40149,2,0,L|311:31,2,76,0|0|0,1:2|1:2|1:2,0:0:0:0:
456,62,40649,6,0,L|454:244,1,152,4|8,0:0|0:0,0:0:0:0:
280,248,41149,2,0,L|182:246,1,76,8|0,0:0|1:2,0:0:0:0:
280,248,41483,2,0,L|281:150,1,76,8|8,0:0|0:0,0:0:0:0:
107,192,41816,6,0,L|30:194,2,76,0|4|8,1:2|0:0|0:0,0:0:0:0:
196,182,42316,1,8,0:0:0:0:
348,185,42483,2,0,L|351:94,1,76,8|8,0:0|0:0,0:0:0:0:
179,87,42816,2,0,L|70:86,1,76,8|0,0:0|1:2,0:0:0:0:
501,226,43316,6,0,L|503:60,1,152,4|8,0:0|0:0,0:0:0:0:
213,86,43983,2,0,L|384:87,1,152,0|8,1:2|0:0,0:0:0:0:
91,187,44649,6,0,L|193:190,2,76,0|0|8,1:2|1:2|0:0,0:0:0:0:
343,121,45316,1,0,1:2:0:0:
184,108,45483,2,0,L|184:192,1,76,0|8,1:2|0:0,0:0:0:0:
416,223,45816,6,0,P|463:199|411:132,1,152,4|0,0:0|1:2,0:0:0:0:
346,128,46316,1,8,0:0:0:0:
197,223,46649,2,0,L|25:221,1,152,0|8,1:2|0:0,0:0:0:0:
321,222,47316,6,0,L|326:67,1,152,0|8,1:2|0:0,0:0:0:0:
179,69,47983,2,0,L|87:67,2,76,0|0|0,1:2|1:2|1:2,0:0:0:0:
411,79,48483,6,0,P|450:87|402:153,1,152,4|0,0:0|1:2,0:0:0:0:
258,165,48983,1,8,0:0:0:0:
120,90,49316,2,0,L|201:65,2,76,0|0|8,1:2|1:2|0:0,0:0:0:0:
355,75,49816,6,0,L|351:241,1,152,4|0,0:0|1:2,0:0:0:0:
195,245,50316,1,0,1:2:0:0:
65,125,50649,2,0,L|148:74,2,76,0|0|8,1:2|1:2|0:0,0:0:0:0:
305,77,51149,6,0,P|353:79|396:183,1,152,4|0,0:0|1:2,0:0:0:0:
250,204,51649,2,0,L|249:118,1,76,8|0,0:0|0:0,0:0:0:0:
325,107,51983,1,0,1:2:0:0:
396,102,52149,2,0,L|393:188,1,76,0|8,1:2|0:0,0:0:0:0:
236,233,52483,6,0,L|68:229,1,152,4|0,0:0|1:2,0:0:0:0:
360,227,53149,2,0,L|360:137,1,76,0|0,0:0|1:2,0:0:0:0:
284,142,53483,2,0,L|199:146,2,76,8|8|8,0:0|0:0|0:0,0:0:0:0:
47,217,53983,6,0,L|46:62,1,152,4|8,0:0|0:0,0:0:0:0:
299,86,54649,2,0,L|128:87,1,152,0|8,1:2|0:0,0:0:0:0:
421,187,55315,6,0,L|319:190,2,76,0|0|8,1:2|1:2|0:0,0:0:0:0:
169,121,55982,1,0,1:2:0:0:
328,108,56149,2,0,L|328:192,1,76,0|8,1:2|0:0,0:0:0:0:
96,223,56482,6,0,P|49:199|101:132,1,152,4|0,0:0|1:2,0:0:0:0:
166,128,56982,1,8,0:0:0:0:
315,223,57315,2,0,L|487:221,1,152,0|8,1:2|0:0,0:0:0:0:
191,222,57982,6,0,L|186:67,1,152,0|8,1:2|0:0,0:0:0:0:
333,72,58649,2,0,L|425:70,2,76,0|0|0,1:2|1:2|1:2,0:0:0:0:
101,79,59149,6,0,P|62:87|110:153,1,152,4|0,0:0|1:2,0:0:0:0:
254,165,59649,1,8,0:0:0:0:
392,90,59982,2,0,L|311:65,2,76,0|0|8,1:2|1:2|0:0,0:0:0:0:
157,75,60482,6,0,L|161:241,1,152,4|0,0:0|1:2,0:0:0:0:
317,245,60982,1,0,1:2:0:0:
447,125,61315,2,0,L|364:74,2,76,0|0|8,1:2|1:2|0:0,0:0:0:0:
207,77,61815,6,0,P|159:79|116:183,1,152,4|0,0:0|1:2,0:0:0:0:
262,204,62315,2,0,L|263:118,1,76,8|0,0:0|0:0,0:0:0:0:
187,107,62649,2,0,L|96:104,1,76,0|0,1:2|1:2,0:0:0:0:
187,107,62983,2,0,L|277:107,1,76,8|2,0:0|1:2,0:0:0:0:
108,235,63316,6,0,L|106:154,1,76,0|0,0:0|1:2,0:0:0:0:
363,120,63816,2,0,L|191:121,1,152,0|0,0:0|1:2,0:0:0:0:
211,120,64316,1,8,0:0:0:0:
451,222,64483,6,0,L|453:41,1,152,4|0,0:0|0:0,0:0:0:0:
374,62,64983,1,0,1:2:0:0:
125,244,65316,2,0,L|124:73,1,152,2|0,1:2|1:2,0:0:0:0:
276,82,65983,6,0,L|435:81,1,152,2|0,1:2|1:2,0:0:0:0:
271,84,66649,2,0,P|206:81|166:179,1,152,2|0,1:2|1:2,0:0:0:0:
310,212,67149,6,0,L|312:53,1,152,10|0,0:0|0:0,0:0:0:0:
234,52,67649,1,0,1:2:0:0:
483,202,67983,2,0,L|482:27,1,152,2|0,1:2|1:2,0:0:0:0:
335,129,68649,6,0,L|496:130,1,152,2|0,1:2|1:2,0:0:0:0:
326,131,69316,2,0,L|168:132,1,152,2|0,1:2|0:0,0:0:0:0:
404,120,69816,6,0,P|460:126|494:228,1,152,4|0,0:0|0:0,0:0:0:0:
423,217,70316,1,10,0:0:0:0:
423,217,70649,1,10,0:0:0:0:
108,120,71149,6,0,P|52:126|18:228,1,152,4|0,0:0|0:0,0:0:0:0:
89,217,71649,1,10,0:0:0:0:
89,217,71982,1,10,0:0:0:0:
419,130,72483,6,0,L|238:129,1,152,4|0,0:0|0:0,0:0:0:0:
346,169,72983,2,0,L|346:258,1,76,10|0,0:0|0:0,0:0:0:0:
263,250,73316,2,0,L|178:247,2,76,2|2|10,1:2|1:2|0:0,0:0:0:0:
417,214,73816,6,0,L|418:117,1,76,0|10,0:0|0:0,0:0:0:0:
338,131,74149,2,0,L|259:130,1,76,2|2,1:2|1:2,0:0:0:0:
414,121,74483,2,0,L|415:210,1,76,2|10,1:2|0:0,0:0:0:0:
337,242,74816,1,10,0:0:0:0:
412,244,74982,1,2,1:2:0:0:
488,246,75149,1,0,0:0:0:0:
249,166,75316,6,0,L|84:170,1,152,4|8,0:0|0:0,0:0:0:0:
361,247,75983,2,0,L|363:76,1,152,0|8,1:2|0:0,0:0:0:0:
80,95,76649,6,0,L|180:99,2,76,0|0|8,1:2|1:2|0:0,0:0:0:0:
356,102,77316,2,0,L|454:100,2,76,0|0|8,1:2|1:2|0:0,0:0:0:0:
115,243,77816,6,0,L|112:86,1,152,4|0,0:0|1:2,0:0:0:0:
191,61,78316,1,8,0:0:0:0:
461,71,78649,2,0,L|462:244,1,152,0|8,1:2|0:0,0:0:0:0:
201,244,79316,6,0,L|363:249,1,152,0|8,1:2|0:0,0:0:0:0:
90,123,79983,2,0,L|9:122,2,76,0|0|0,1:2|1:2|1:2,0:0:0:0:
321,123,80483,6,0,L|321:276,1,152,4|0,0:0|1:2,0:0:0:0:
238,289,80983,1,8,0:0:0:0:
362,175,81316,2,0,L|449:176,2,76,0|0|8,1:2|1:2|0:0,0:0:0:0:
131,121,81816,6,0,L|131:274,1,152,4|0,0:0|1:2,0:0:0:0:
214,287,82316,1,0,1:2:0:0:
90,173,82649,2,0,L|3:174,2,76,0|0|8,1:2|1:2|0:0,0:0:0:0:
330,165,83149,6,0,P|386:170|416:258,1,152,4|0,0:0|1:2,0:0:0:0:
338,271,83649,2,0,L|241:270,1,76,8|0,0:0|0:0,0:0:0:0:
338,271,83983,2,0,L|434:276,2,76,0|0|8,1:2|1:2|0:0,0:0:0:0:
180,200,84483,6,0,L|181:110,1,76,4|0,0:0|0:0,0:0:0:0:
259,102,84816,2,0,L|356:103,1,76,0|8,1:2|0:0,0:0:0:0:
175,162,85149,2,0,L|20:160,2,152,0|8|8,0:0|0:0|0:0,0:0:0:0:
417,159,85983,6,0,L|419:255,1,76,4|0,0:0|1:2,0:0:0:0:
339,263,86316,2,0,L|245:262,1,76,8|0,0:0|1:2,0:0:0:0:
339,263,86649,2,0,L|441:263,2,76,8|0|0,0:0|1:2|1:2,0:0:0:0:
94,241,87149,6,0,P|52:223|106:159,1,152,4|0,0:0|1:2,0:0:0:0:
362,155,87816,1,8,0:0:0:0:
97,156,88149,1,8,0:0:0:0:
97,156,88483,1,8,0:0:0:0:
362,155,88649,5,12,0:0:0:0:
256,192,88816,12,0,89483,0:0:0:0:
