osu file format v14

[General]
AudioFilename: audio.ogg
AudioLeadIn: 0
PreviewTime: 43983
Countdown: 0
SampleSet: Soft
StackLeniency: 0.7
Mode: 2
LetterboxInBreaks: 0
WidescreenStoryboard: 1

[Editor]
Bookmarks: 39983
DistanceSpacing: 1.3
BeatDivisor: 4
GridSize: 4
TimelineZoom: 1

[Metadata]
Title:CHU-BURA (TV Size)
TitleUnicode:CHU-BURA (TV Size)
Artist:KELUN
ArtistUnicode:KELUN
Creator:Secre
Version:Cup
Source:BLEACH
Tags:chickenbible opening 8 op eight anime japanese rock jrock j-rock chubura γƒ–γƒͺーチ
BeatmapID:3838313
BeatmapSetID:1836859

[Difficulty]
HPDrainRate:2
CircleSize:2.5
OverallDifficulty:6
ApproachRate:6
SliderMultiplier:1.3
SliderTickRate:1

[Events]
//Background and Video events
0,0,"me and the boys waiting for faunas next stream.jpg",0,0
Video,-925,"Bleach-Op8.m4v"
//Break Periods
//Storyboard Layer 0 (Background)
//Storyboard Layer 1 (Fail)
//Storyboard Layer 2 (Pass)
//Storyboard Layer 3 (Foreground)
//Storyboard Layer 4 (Overlay)
//Storyboard Sound Samples

[TimingPoints]
650,333.333333333333,4,2,1,70,1,0
11316,-100,4,2,1,65,0,0
32649,-100,4,2,1,75,0,0
43316,-100,4,2,1,90,0,1
64483,-100,4,2,1,65,0,0
75316,-100,4,2,1,90,0,1
88649,-100,4,2,1,90,0,0
88733,-100,4,2,1,65,0,0
89483,-100,4,2,1,40,0,0

[Colours]
Combo1 : 204,60,60
Combo2 : 60,232,251
Combo3 : 153,10,207
Combo4 : 222,163,39

[HitObjects]
176,223,650,6,0,L|176:89,1,130,6|2,0:0|0:0,0:0:0:0:
312,64,1316,2,0,L|377:66,1,65,2|2,0:0|0:0,0:0:0:0:
241,126,1816,6,0,L|101:127,1,130,2|2,0:0|0:0,0:0:0:0:
241,126,2483,2,0,L|382:126,1,130,2|2,0:0|0:0,0:0:0:0:
306,57,2983,1,2,0:0:0:0:
175,73,3316,6,0,L|175:219,1,130,6|2,0:0|0:0,0:0:0:0:
302,252,3983,2,0,L|378:254,1,65,2|2,0:0|0:0,0:0:0:0:
232,183,4483,6,0,L|232:39,1,130,2|2,0:0|0:0,0:0:0:0:
368,39,5149,1,10,0:0:0:0:
232,53,5483,1,10,0:0:0:0:
93,61,5816,1,8,0:0:0:0:
158,67,5983,6,0,L|312:71,1,130,8|10,0:0|0:0,0:0:0:0:
158,72,6649,2,0,L|159:146,1,65,10|2,0:0|1:2,0:0:0:0:
281,154,7149,6,0,L|430:152,1,130,10|2,0:0|1:2,0:0:0:0:
271,152,7816,2,0,L|140:154,1,130,2|2,0:0|1:2,0:0:0:0:
141,153,8316,1,10,0:0:0:0:
276,161,8649,6,0,L|276:303,1,130,2|10,1:2|0:0,0:0:0:0:
151,297,9316,2,0,L|79:296,1,65,10|2,0:0|1:2,0:0:0:0:
212,232,9816,6,0,L|357:232,1,130,10|2,0:0|1:2,0:0:0:0:
211,231,10483,1,10,0:0:0:0:
84,231,10816,1,10,0:0:0:0:
211,231,11149,1,10,0:0:0:0:
281,229,11316,6,0,L|288:145,1,65,2|2,1:2|1:2,0:0:0:0:
172,142,11816,2,0,L|166:63,1,65,2|2,1:2|1:2,0:0:0:0:
294,60,12316,2,0,L|297:142,1,65,8|0,0:0|1:2,0:0:0:0:
176,175,12816,6,0,L|111:176,1,65,8|0,0:0|1:2,0:0:0:0:
233,107,13316,2,0,L|362:111,1,130,0|8,1:2|0:0,0:0:0:0:
236,109,13983,6,0,L|232:30,1,65,2|2,1:2|1:2,0:0:0:0:
341,39,14483,2,0,L|426:42,1,65,2|2,1:2|1:2,0:0:0:0:
278,168,14983,2,0,L|201:169,1,65,8|0,0:0|1:2,0:0:0:0:
345,162,15483,6,0,L|345:230,1,65,8|0,0:0|1:2,0:0:0:0:
226,259,15983,2,0,L|83:259,1,130,0|8,1:2|0:0,0:0:0:0:
232,203,16649,6,0,L|233:135,1,65,2|2,1:2|1:2,0:0:0:0:
115,105,17149,2,0,L|111:36,1,65,2|2,1:2|1:2,0:0:0:0:
244,48,17649,2,0,L|311:51,1,65,8|0,0:0|1:2,0:0:0:0:
192,103,18149,6,0,L|190:178,1,65,8|0,0:0|1:2,0:0:0:0:
304,187,18649,2,0,L|448:185,1,130,0|8,1:2|0:0,0:0:0:0:
303,129,19316,6,0,L|299:52,1,65,2|2,1:2|1:2,0:0:0:0:
425,54,19816,2,0,L|430:141,1,65,2|2,1:2|1:2,0:0:0:0:
305,172,20316,2,0,L|226:174,1,65,8|0,0:0|1:2,0:0:0:0:
367,150,20816,6,0,L|368:81,1,65,8|0,0:0|1:2,0:0:0:0:
246,80,21316,2,0,L|94:82,1,130,0|8,1:2|0:0,0:0:0:0:
244,78,21983,6,0,L|334:73,2,65,12|2|8,0:0|0:0|0:0,0:0:0:0:
180,82,22483,1,2,0:0:0:0:
24,129,22983,2,0,L|20:47,1,65,8|2,0:0|0:0,0:0:0:0:
175,50,23649,6,0,L|255:44,1,65,8|2,0:0|0:0,0:0:0:0:
105,118,24149,2,0,L|101:44,1,65,2|8,0:0|0:0,0:0:0:0:
239,56,24649,6,0,L|311:58,1,65,8|2,0:0|0:0,0:0:0:0:
191,110,25149,2,0,L|193:254,1,130,2|2,0:0|0:0,0:0:0:0:
318,220,25816,6,0,L|456:216,1,130,2|2,0:0|0:0,0:0:0:0:
321,111,26483,2,0,L|173:109,1,130,2|2,0:0|0:0,0:0:0:0:
258,182,26983,1,8,0:0:0:0:
390,161,27316,6,0,L|391:68,1,65,8|2,0:0|0:0,0:0:0:0:
326,80,27649,1,8,0:0:0:0:
265,75,27816,1,2,0:0:0:0:
94,137,28316,2,0,L|91:59,1,65,8|2,0:0|0:0,0:0:0:0:
254,60,28983,6,0,L|327:59,1,65,8|2,0:0|0:0,0:0:0:0:
197,158,29483,2,0,L|121:160,1,65,2|8,0:0|0:0,0:0:0:0:
249,92,29983,6,0,L|408:85,1,130,8|8,0:0|0:0,0:0:0:0:
312,159,30483,2,0,L|175:162,1,130,2|2,0:0|0:0,0:0:0:0:
245,94,30983,1,8,0:0:0:0:
312,160,31149,1,2,0:0:0:0:
445,169,31483,5,2,0:0:0:0:
321,173,31816,2,0,L|188:176,2,130,2|8|8,0:0|0:0|0:0,0:0:0:0:
400,167,32649,6,0,L|405:18,1,130,4|0,0:0|1:2,0:0:0:0:
281,29,33316,1,0,1:2:0:0:
216,29,33483,1,2,0:0:0:0:
330,50,33816,6,0,L|399:51,2,65,2|4|2,0:0|0:0|0:0,0:0:0:0:
203,164,34483,2,0,L|49:161,2,130,2|2|2,0:0|0:0|0:0,0:0:0:0:
277,143,35316,6,0,L|277:303,1,130,4|0,0:0|1:2,0:0:0:0:
153,286,35983,1,0,1:2:0:0:
217,285,36149,1,2,0:0:0:0:
341,263,36483,6,0,L|411:260,2,65,2|4|2,0:0|0:0|0:0,0:0:0:0:
222,150,37149,2,0,L|222:289,1,130,2|2,0:0|0:0,0:0:0:0:
283,295,37649,1,8,0:0:0:0:
343,298,37816,1,2,0:0:0:0:
413,288,37983,6,0,L|421:140,1,130,4|0,0:0|1:2,0:0:0:0:
295,120,38649,1,0,1:2:0:0:
230,115,38816,1,0,1:2:0:0:
361,126,39149,6,0,L|502:124,1,130,0|0,1:2|1:2,0:0:0:0:
361,126,39816,2,0,L|209:130,1,130,0|0,1:2|1:2,0:0:0:0:
229,132,40483,1,0,1:2:0:0:
299,131,40649,6,0,L|300:269,1,130,4|8,0:0|0:0,0:0:0:0:
232,282,41149,2,0,L|89:280,1,130,8|8,0:0|0:0,0:0:0:0:
232,209,41816,6,0,L|371:214,1,130,0|8,1:2|0:0,0:0:0:0:
227,207,42483,2,0,L|226:68,1,130,8|8,0:0|0:0,0:0:0:0:
291,53,42983,1,0,1:2:0:0:
356,48,43149,1,0,0:0:0:0:
291,53,43316,6,0,L|154:52,1,130,4|8,0:0|0:0,0:0:0:0:
291,53,43983,2,0,L|423:51,1,130,0|8,1:2|0:0,0:0:0:0:
290,52,44649,6,0,L|204:52,2,65,0|0|8,1:2|1:2|0:0,0:0:0:0:
415,52,45316,2,0,L|414:196,1,130,0|8,1:2|0:0,0:0:0:0:
348,221,45816,6,0,L|200:221,1,130,4|0,0:0|1:2,0:0:0:0:
218,221,46316,1,8,0:0:0:0:
333,233,46649,2,0,L|337:88,1,130,0|8,1:2|0:0,0:0:0:0:
196,93,47316,6,0,L|44:94,1,130,0|8,1:2|0:0,0:0:0:0:
198,96,47983,2,0,L|277:99,2,65,0|0|0,1:2|1:2|1:2,0:0:0:0:
128,249,48483,6,0,L|127:107,1,130,4|0,0:0|1:2,0:0:0:0:
191,88,48983,1,8,0:0:0:0:
317,95,49316,2,0,L|398:97,2,65,0|0|8,1:2|1:2|0:0,0:0:0:0:
254,257,49816,6,0,L|253:115,1,130,4|0,0:0|1:2,0:0:0:0:
317,95,50316,1,0,1:2:0:0:
443,102,50649,2,0,L|509:100,2,65,0|0|8,1:2|1:2|0:0,0:0:0:0:
377,197,51149,6,0,L|231:196,1,130,4|0,0:0|1:2,0:0:0:0:
247,196,51649,1,8,0:0:0:0:
363,200,51983,2,0,L|438:200,2,65,0|0|8,1:2|1:2|0:0,0:0:0:0:
295,212,52483,6,0,L|137:207,1,130,4|0,0:0|1:2,0:0:0:0:
293,210,53149,2,0,L|297:79,1,130,0|8,0:0|0:0,0:0:0:0:
175,69,53816,1,8,0:0:0:0:
107,67,53983,6,0,L|101:223,1,130,4|8,0:0|0:0,0:0:0:0:
221,53,54649,2,0,L|89:51,1,130,0|8,1:2|0:0,0:0:0:0:
222,52,55315,6,0,L|308:52,2,65,0|0|8,1:2|1:2|0:0,0:0:0:0:
97,52,55982,2,0,L|98:196,1,130,0|8,1:2|0:0,0:0:0:0:
164,221,56482,6,0,L|312:221,1,130,4|0,0:0|1:2,0:0:0:0:
294,221,56982,1,8,0:0:0:0:
179,233,57315,2,0,L|175:88,1,130,0|8,1:2|0:0,0:0:0:0:
316,93,57982,6,0,L|468:94,1,130,0|8,1:2|0:0,0:0:0:0:
314,96,58649,2,0,L|235:99,2,65,0|0|0,1:2|1:2|1:2,0:0:0:0:
384,250,59149,6,0,L|385:108,1,130,4|0,0:0|1:2,0:0:0:0:
321,88,59649,1,8,0:0:0:0:
195,95,59982,2,0,L|114:97,2,65,0|0|8,1:2|1:2|0:0,0:0:0:0:
258,257,60482,6,0,L|259:115,1,130,4|0,0:0|1:2,0:0:0:0:
195,95,60982,1,0,1:2:0:0:
69,102,61315,2,0,L|3:100,2,65,0|0|8,1:2|1:2|0:0,0:0:0:0:
135,197,61815,6,0,L|281:196,1,130,4|0,0:0|1:2,0:0:0:0:
264,196,62315,1,8,0:0:0:0:
149,200,62649,2,0,L|74:200,2,65,0|0|8,1:2|1:2|0:0,0:0:0:0:
217,212,63149,6,0,L|310:209,2,65,2|0|0,1:2|0:0|1:2,0:0:0:0:
88,202,63816,2,0,L|87:55,1,130,0|0,0:0|1:2,0:0:0:0:
152,39,64316,1,8,0:0:0:0:
219,31,64483,5,4,0:0:0:0:
390,49,64983,1,0,1:2:0:0:
273,66,65316,2,0,L|268:224,1,130,2|0,1:2|1:2,0:0:0:0:
406,221,65983,6,0,L|415:85,1,130,2|0,1:2|1:2,0:0:0:0:
287,99,66649,2,0,L|146:100,1,130,2|0,1:2|1:2,0:0:0:0:
225,154,67149,6,0,L|358:157,1,130,10|0,0:0|0:0,0:0:0:0:
354,156,67649,1,0,1:2:0:0:
237,236,67983,2,0,L|235:100,1,130,2|0,1:2|1:2,0:0:0:0:
351,82,68649,6,0,L|199:76,1,130,2|0,1:2|1:2,0:0:0:0:
351,84,69316,2,0,L|345:230,1,130,2|0,1:2|0:0,0:0:0:0:
279,253,69816,6,0,L|149:248,1,130,4|0,0:0|0:0,0:0:0:0:
149,248,70316,1,10,0:0:0:0:
149,248,70649,1,10,0:0:0:0:
149,248,71149,6,0,L|279:243,1,130,4|0,0:0|0:0,0:0:0:0:
278,243,71649,1,10,0:0:0:0:
278,243,71982,1,10,0:0:0:0:
110,197,72483,6,0,L|106:58,1,130,4|0,0:0|0:0,0:0:0:0:
171,36,72983,1,10,0:0:0:0:
298,73,73316,2,0,L|380:74,1,65,2|2,1:2|1:2,0:0:0:0:
252,165,73816,6,0,L|106:161,1,130,0|2,0:0|1:2,0:0:0:0:
252,165,74483,2,0,L|388:160,2,130,2|10|0,1:2|0:0|0:0,0:0:0:0:
189,177,75316,6,0,L|188:28,1,130,4|8,0:0|0:0,0:0:0:0:
318,45,75983,2,0,L|463:42,1,130,0|8,1:2|0:0,0:0:0:0:
318,45,76649,6,0,L|327:191,1,130,0|8,1:2|0:0,0:0:0:0:
456,182,77316,2,0,L|457:40,1,130,0|8,1:2|0:0,0:0:0:0:
390,46,77816,6,0,L|239:50,1,130,4|0,0:0|1:2,0:0:0:0:
260,49,78316,1,8,0:0:0:0:
391,54,78649,2,0,L|389:195,1,130,0|8,1:2|0:0,0:0:0:0:
251,219,79316,6,0,L|113:219,1,130,0|8,1:2|0:0,0:0:0:0:
252,222,79983,2,0,L|337:225,2,65,0|0|0,1:2|1:2|1:2,0:0:0:0:
182,194,80483,6,0,L|176:48,1,130,4|0,0:0|1:2,0:0:0:0:
245,41,80983,1,8,0:0:0:0:
371,41,81316,2,0,L|445:45,2,65,0|0|8,1:2|1:2|0:0,0:0:0:0:
306,110,81816,6,0,L|156:104,1,130,4|0,0:0|1:2,0:0:0:0:
176,104,82316,1,0,1:2:0:0:
296,46,82649,2,0,L|366:46,2,65,0|0|8,1:2|1:2|0:0,0:0:0:0:
227,121,83149,6,0,L|81:120,1,130,4|0,0:0|1:2,0:0:0:0:
161,180,83649,1,8,0:0:0:0:
283,177,83983,2,0,L|285:87,1,65,0|0,1:2|1:2,0:0:0:0:
158,90,84483,6,0,L|14:88,1,130,4|0,0:0|1:2,0:0:0:0:
158,90,85149,2,0,L|14:88,2,130,0|8|8,0:0|0:0|0:0,0:0:0:0:
230,89,85983,6,0,L|371:94,1,130,4|8,0:0|0:0,0:0:0:0:
226,92,86649,2,0,L|226:186,1,65,8|0,0:0|1:2,0:0:0:0:
342,183,87149,6,0,L|483:184,1,130,4|0,0:0|1:2,0:0:0:0:
343,109,87816,1,8,0:0:0:0:
209,108,88149,1,8,0:0:0:0:
209,108,88483,1,8,0:0:0:0:
286,107,88649,5,12,0:0:0:0:
256,192,88983,12,0,89483,0:0:0:0:
