osu file format v14

[General]
AudioFilename: audio.ogg
AudioLeadIn: 0
PreviewTime: 43983
Countdown: 0
SampleSet: Soft
StackLeniency: 0.7
Mode: 2
LetterboxInBreaks: 0
WidescreenStoryboard: 1

[Editor]
DistanceSpacing: 1.3
BeatDivisor: 4
GridSize: 4
TimelineZoom: 1

[Metadata]
Title:CHU-BURA (TV Size)
TitleUnicode:CHU-BURA (TV Size)
Artist:KELUN
ArtistUnicode:KELUN
Creator:Secre
Version:Bakkoto
Source:BLEACH
Tags:chickenbible opening 8 op eight anime japanese rock jrock j-rock chubura γƒ–γƒͺーチ
BeatmapID:3771617
BeatmapSetID:1836859

[Difficulty]
HPDrainRate:5
CircleSize:4.1
OverallDifficulty:9.2
ApproachRate:9.2
SliderMultiplier:1.89
SliderTickRate:2

[Events]
//Background and Video events
0,0,"me and the boys waiting for faunas next stream.jpg",0,0
Video,-925,"Bleach-Op8.m4v"
//Break Periods
//Storyboard Layer 0 (Background)
//Storyboard Layer 1 (Fail)
//Storyboard Layer 2 (Pass)
//Storyboard Layer 3 (Foreground)
//Storyboard Layer 4 (Overlay)
//Storyboard Sound Samples

[TimingPoints]
650,333.333333333333,4,2,1,70,1,0
11316,-100,4,2,1,65,0,0
32649,-100,4,2,1,75,0,0
43316,-100,4,2,1,90,0,1
64483,-100,4,2,1,65,0,0
75316,-100,4,2,1,90,0,1
88649,-100,4,2,1,90,0,0
88733,-100,4,2,1,65,0,0
89483,-100,4,2,1,40,0,0

[Colours]
Combo1 : 204,60,60
Combo2 : 60,232,251
Combo3 : 153,10,207
Combo4 : 222,163,39

[HitObjects]
338,201,650,6,0,L|139:210,1,189,6|2,0:0|0:0,0:0:0:0:
280,128,1149,1,0,0:0:0:0:
154,145,1316,2,0,L|249:135,2,94.5,2|2|0,0:0|0:0|0:0,0:0:0:0:
301,209,1816,6,0,P|362:183|285:114,1,189,2|2,0:0|0:0,0:0:0:0:
176,108,2316,1,0,0:0:0:0:
333,100,2483,2,0,L|330:302,1,189,2|2,0:0|0:0,0:0:0:0:
180,263,2983,1,2,0:0:0:0:
330,288,3149,1,2,0:0:0:0:
93,210,3316,6,0,L|91:108,1,94.5,6|0,0:0|0:0,0:0:0:0:
239,79,3649,2,0,L|116:78,1,94.5,2|2,0:0|0:0,0:0:0:0:
291,171,3983,2,0,L|186:171,2,94.5,2|2|0,0:0|0:0|0:0,0:0:0:0:
133,261,4483,6,0,L|132:61,1,189,2|2,0:0|0:0,0:0:0:0:
416,41,5149,1,10,0:0:0:0:
116,92,5483,1,10,0:0:0:0:
416,41,5816,2,0,L|355:41,1,47.25,8|8,0:0|0:0,0:0:0:0:
178,183,5983,6,0,L|80:181,1,94.5,8|0,0:0|1:2,0:0:0:0:
228,111,6316,2,0,L|126:112,1,94.5,10|0,0:0|1:2,0:0:0:0:
277,48,6649,2,0,L|153:49,2,94.5,10|2|0,0:0|1:2|1:2,0:0:0:0:
31,204,7149,6,0,L|225:204,1,189,10|2,0:0|1:2,0:0:0:0:
86,134,7649,1,10,0:0:0:0:
331,248,7816,2,0,P|389:236|317:176,1,189,2|2,0:0|1:2,0:0:0:0:
188,133,8316,2,0,L|84:132,1,94.5,10|2,0:0|0:0,0:0:0:0:
401,100,8649,6,0,L|402:217,1,94.5,2|0,1:2|1:2,0:0:0:0:
257,235,8983,2,0,L|357:233,1,94.5,10|0,0:0|1:2,0:0:0:0:
199,159,9316,2,0,L|302:163,2,94.5,10|2|0,0:0|1:2|1:2,0:0:0:0:
434,283,9816,6,0,P|485:265|413:189,1,189,10|2,0:0|1:2,0:0:0:0:
171,160,10316,1,8,0:0:0:0:
313,116,10483,2,0,L|315:229,1,94.5,10|8,0:0|0:0,0:0:0:0:
246,227,10733,1,0,1:2:0:0:
91,142,10816,2,0,L|11:142,1,47.25,10|0,0:0|1:2,0:0:0:0:
226,75,10983,2,0,L|297:75,1,47.25,8|0,0:0|1:2,0:0:0:0:
131,42,11149,2,0,L|64:42,1,47.25,10|8,0:0|0:0,0:0:0:0:
330,69,11316,6,0,L|334:186,1,94.5,2|2,1:2|1:2,0:0:0:0:
80,172,11816,2,0,L|81:47,1,94.5,2|2,1:2|1:2,0:0:0:0:
328,92,12316,1,8,0:0:0:0:
181,100,12483,1,0,1:2:0:0:
446,106,12816,6,0,L|447:204,1,94.5,8|0,0:0|1:2,0:0:0:0:
180,197,13316,1,0,1:2:0:0:
319,156,13483,2,0,L|319:51,1,94.5,0|8,1:2|0:0,0:0:0:0:
180,197,13816,1,0,0:0:0:0:
426,167,13983,6,0,L|434:49,1,94.5,2|2,1:2|1:2,0:0:0:0:
177,78,14483,2,0,L|170:-43,1,94.5,2|2,1:2|1:2,0:0:0:0:
306,53,14816,1,0,0:0:0:0:
80,176,14983,2,0,L|77:68,1,94.5,8|0,0:0|1:2,0:0:0:0:
330,103,15483,6,0,L|211:101,1,94.5,8|0,0:0|1:2,0:0:0:0:
483,155,15983,1,0,1:2:0:0:
353,154,16149,2,0,L|351:53,1,94.5,0|8,1:2|0:0,0:0:0:0:
483,155,16483,1,0,0:0:0:0:
184,137,16649,6,0,L|76:138,1,94.5,2|2,1:2|1:2,0:0:0:0:
354,57,17149,2,0,L|467:57,1,94.5,2|2,1:2|1:2,0:0:0:0:
181,142,17649,1,8,0:0:0:0:
321,144,17816,1,0,1:2:0:0:
57,177,18149,6,0,L|51:62,1,94.5,8|0,0:0|1:2,0:0:0:0:
308,62,18649,1,0,1:2:0:0:
167,72,18816,2,0,L|169:185,1,94.5,0|8,1:2|0:0,0:0:0:0:
308,62,19149,1,0,0:0:0:0:
62,142,19316,6,0,L|60:30,1,94.5,2|2,1:2|1:2,0:0:0:0:
339,121,19816,2,0,L|341:240,1,94.5,2|2,1:2|1:2,0:0:0:0:
204,236,20149,1,0,0:0:0:0:
340,215,20316,1,8,0:0:0:0:
204,236,20483,1,0,1:2:0:0:
473,205,20816,6,0,L|366:204,2,94.5,8|0|0,0:0|1:2|0:0,0:0:0:0:
224,122,21316,2,0,L|114:124,1,94.5,0|0,1:2|1:2,0:0:0:0:
183,68,21566,1,8,0:0:0:0:
338,69,21649,2,0,L|399:68,1,47.25,8|8,0:0|0:0,0:0:0:0:
196,172,21816,2,0,L|132:171,1,47.25,8|8,0:0|0:0,0:0:0:0:
351,138,21983,6,0,L|454:136,1,94.5,12|2,0:0|0:0,0:0:0:0:
298,144,22316,2,0,L|302:260,1,94.5,8|2,0:0|0:0,0:0:0:0:
448,214,22649,2,0,L|448:99,1,94.5,0|2,1:2|0:0,0:0:0:0:
173,134,22983,1,8,0:0:0:0:
308,130,23149,1,2,0:0:0:0:
173,134,23316,6,0,L|173:23,1,94.5,0|2,1:2|0:0,0:0:0:0:
308,130,23649,1,8,0:0:0:0:
76,195,23816,2,0,L|75:81,1,94.5,2|0,0:0|1:2,0:0:0:0:
349,78,24149,1,2,0:0:0:0:
207,76,24316,2,0,L|202:188,1,94.5,8|2,0:0|0:0,0:0:0:0:
447,202,24649,5,8,0:0:0:0:
306,137,24816,2,0,L|304:31,1,94.5,2|8,0:0|0:0,0:0:0:0:
454,33,25149,2,0,L|356:35,1,94.5,2|0,0:0|1:2,0:0:0:0:
48,184,25483,2,0,L|46:82,1,94.5,2|8,0:0|0:0,0:0:0:0:
277,80,25816,6,0,L|156:80,1,94.5,2|0,0:0|1:2,0:0:0:0:
434,236,26149,2,0,L|435:139,1,94.5,2|8,0:0|0:0,0:0:0:0:
283,127,26483,2,0,L|404:125,1,94.5,2|0,0:0|1:2,0:0:0:0:
123,194,26816,1,2,0:0:0:0:
267,145,26983,2,0,L|268:32,1,94.5,8|2,0:0|0:0,0:0:0:0:
37,108,27316,6,0,L|160:106,1,94.5,8|2,0:0|0:0,0:0:0:0:
401,145,27649,1,8,0:0:0:0:
255,101,27816,2,0,L|255:-9,1,94.5,2|0,0:0|1:2,0:0:0:0:
401,145,28149,1,2,0:0:0:0:
140,188,28316,1,8,0:0:0:0:
282,172,28483,6,0,L|284:50,1,94.5,2|0,0:0|1:2,0:0:0:0:
140,188,28816,1,2,0:0:0:0:
421,208,28983,1,8,0:0:0:0:
276,108,29149,2,0,L|276:0,1,94.5,2|0,0:0|1:2,0:0:0:0:
421,208,29483,1,2,0:0:0:0:
173,152,29649,2,0,L|79:150,1,94.5,8|2,0:0|0:0,0:0:0:0:
332,108,29983,6,0,L|222:108,2,94.5,8|2|8,0:0|0:0|0:0,0:0:0:0:
77,93,30483,2,0,L|192:86,3,94.5,2|0|2|8,0:0|1:2|0:0|0:0,0:0:0:0:
462,189,31149,6,0,L|465:81,1,94.5,2|0,0:0|1:2,0:0:0:0:
199,70,31483,2,0,L|83:69,1,94.5,2|8,0:0|0:0,0:0:0:0:
386,193,31816,2,0,L|388:81,1,94.5,2|0,0:0|1:2,0:0:0:0:
132,135,32149,6,0,L|206:132,1,47.25,8|8,0:0|0:0,0:0:0:0:
349,117,32316,2,0,L|401:116,1,47.25,8|8,0:0|0:0,0:0:0:0:
225,52,32483,2,0,L|164:54,1,47.25,8|8,0:0|0:0,0:0:0:0:
371,214,32649,6,0,P|421:201|366:115,1,189,4|0,0:0|1:2,0:0:0:0:
225,155,33149,2,0,L|225:50,1,94.5,0|0,0:0|1:2,0:0:0:0:
482,74,33483,2,0,L|350:74,2,94.5,2|0|2,0:0|1:2|0:0,0:0:0:0:
175,226,33983,5,4,0:0:0:0:
315,173,34149,2,0,L|320:70,1,94.5,2|0,0:0|1:2,0:0:0:0:
191,79,34483,2,0,L|95:87,1,94.5,2|0,0:0|1:2,0:0:0:0:
253,146,34816,2,0,L|363:142,1,94.5,2|0,0:0|1:2,0:0:0:0:
101,122,35149,1,2,0:0:0:0:
375,235,35316,6,0,P|422:222|361:139,1,189,4|0,0:0|1:2,0:0:0:0:
224,137,35816,2,0,L|220:30,1,94.5,0|0,0:0|1:2,0:0:0:0:
486,46,36149,2,0,L|372:48,1,94.5,2|0,0:0|1:2,0:0:0:0:
141,162,36483,1,2,0:0:0:0:
390,161,36649,5,4,0:0:0:0:
250,102,36816,2,0,L|246:-4,1,94.5,2|0,0:0|1:2,0:0:0:0:
388,31,37149,2,0,L|389:132,1,94.5,2|0,0:0|1:2,0:0:0:0:
241,139,37483,1,2,0:0:0:0:
388,131,37649,1,8,0:0:0:0:
126,155,37816,1,2,0:0:0:0:
388,131,37983,6,0,L|391:239,1,94.5,4|0,0:0|1:2,0:0:0:0:
99,163,38316,2,0,L|184:163,1,47.25,0|0,1:2|1:2,0:0:0:0:
302,98,38483,2,0,L|369:99,1,47.25,0|0,1:2|1:2,0:0:0:0:
189,66,38649,6,0,L|187:7,1,47.25,0|0,1:2|1:2,0:0:0:0:
412,24,38816,2,0,L|338:23,1,47.25,0|0,1:2|1:2,0:0:0:0:
215,130,38983,2,0,L|136:129,1,47.25,0|0,1:2|1:2,0:0:0:0:
339,76,39149,2,0,L|406:77,1,47.25,0|0,1:2|1:2,0:0:0:0:
184,198,39316,6,0,L|68:197,1,94.5,4|0,0:0|1:2,0:0:0:0:
349,211,39649,2,0,L|407:209,1,47.25,0|0,1:2|1:2,0:0:0:0:
247,137,39816,2,0,L|181:139,1,47.25,0|0,1:2|1:2,0:0:0:0:
388,132,39983,6,0,L|389:61,1,47.25,0|0,1:2|1:2,0:0:0:0:
198,59,40149,2,0,L|261:59,1,47.25,0|0,1:2|1:2,0:0:0:0:
411,58,40316,2,0,L|474:57,1,47.25,0|0,1:2|1:2,0:0:0:0:
207,149,40483,2,0,L|144:148,1,47.25,0|0,1:2|1:2,0:0:0:0:
435,245,40649,6,0,L|434:136,1,94.5,4|0,0:0|1:2,0:0:0:0:
270,154,40899,1,8,0:0:0:0:
127,108,40983,1,8,0:0:0:0:
382,117,41149,2,0,L|384:228,1,94.5,8|0,0:0|1:2,0:0:0:0:
133,211,41483,2,0,L|201:205,1,47.25,8|8,0:0|0:0,0:0:0:0:
365,185,41649,1,8,0:0:0:0:
228,102,41816,2,0,L|160:97,1,47.25,0|8,1:2|0:0,0:0:0:0:
405,104,41983,6,0,L|474:102,1,47.25,4|8,0:0|0:0,0:0:0:0:
264,54,42149,2,0,L|264:136,1,47.25,8|8,0:0|0:0,0:0:0:0:
473,182,42316,2,0,L|386:177,1,47.25,8|8,0:0|0:0,0:0:0:0:
221,121,42483,2,0,L|146:119,1,47.25,8|8,0:0|0:0,0:0:0:0:
348,69,42649,6,0,L|408:70,1,47.25,8|8,0:0|0:0,0:0:0:0:
162,37,42816,2,0,L|100:39,1,47.25,8|8,0:0|0:0,0:0:0:0:
346,159,42983,2,0,L|349:287,1,94.5,0|0,1:2|0:0,0:0:0:0:
71,266,43316,6,0,L|272:265,1,189,4|8,0:0|0:0,0:0:0:0:
120,179,43816,1,0,0:0:0:0:
381,193,43983,1,0,1:2:0:0:
225,186,44149,1,0,1:2:0:0:
381,193,44316,2,0,L|383:79,1,94.5,8|0,0:0|0:0,0:0:0:0:
88,120,44649,5,0,1:2:0:0:
234,122,44816,1,0,1:2:0:0:
88,120,44983,2,0,L|84:13,1,94.5,8|0,0:0|0:0,0:0:0:0:
362,93,45316,1,0,1:2:0:0:
216,56,45483,1,0,1:2:0:0:
71,50,45649,1,8,0:0:0:0:
362,93,45816,6,0,P|423:107|349:178,1,189,4|0,0:0|1:2,0:0:0:0:
74,205,46316,2,0,L|194:200,1,94.5,8|0,0:0|0:0,0:0:0:0:
400,200,46649,1,0,1:2:0:0:
172,211,46816,1,0,1:2:0:0:
400,200,46983,2,0,L|406:83,1,94.5,8|0,0:0|0:0,0:0:0:0:
94,140,47316,5,0,1:2:0:0:
233,138,47483,1,0,1:2:0:0:
94,140,47649,2,0,L|89:32,1,94.5,8|0,0:0|0:0,0:0:0:0:
406,125,47983,2,0,L|346:122,1,47.25,0|0,1:2|0:0,0:0:0:0:
186,89,48149,2,0,L|120:86,1,47.25,0|0,1:2|1:2,0:0:0:0:
333,53,48316,2,0,L|393:52,1,47.25,0|0,1:2|0:0,0:0:0:0:
159,196,48483,6,0,P|103:180|171:117,1,189,4|0,0:0|1:2,0:0:0:0:
441,171,48983,2,0,L|451:41,1,94.5,8|0,0:0|0:0,0:0:0:0:
121,91,49316,2,0,L|228:86,2,94.5,0|0|8,1:2|1:2|0:0,0:0:0:0:
381,201,49816,6,0,L|156:202,1,189,4|0,0:0|1:2,0:0:0:0:
435,170,50316,2,0,L|437:57,1,94.5,0|0,1:2|0:0,0:0:0:0:
150,117,50649,2,0,L|253:119,2,94.5,0|0|8,1:2|1:2|0:0,0:0:0:0:
431,280,51149,6,0,P|480:262|415:175,1,189,4|0,0:0|1:2,0:0:0:0:
196,156,51649,2,0,L|74:157,1,94.5,8|0,0:0|0:0,0:0:0:0:
404,95,51983,2,0,L|303:97,2,94.5,0|0|8,1:2|1:2|0:0,0:0:0:0:
114,228,52483,6,0,L|111:90,1,94.5,4|0,0:0|0:0,0:0:0:0:
351,104,52816,2,0,L|469:100,1,94.5,0|8,1:2|0:0,0:0:0:0:
156,187,53149,6,0,L|155:67,1,94.5,0|0,0:0|1:2,0:0:0:0:
211,66,53399,1,0,1:2:0:0:
390,60,53483,2,0,L|449:61,1,47.25,8|8,0:0|0:0,0:0:0:0:
220,140,53649,2,0,L|136:138,1,47.25,8|0,0:0|0:0,0:0:0:0:
386,113,53816,2,0,L|441:113,1,47.25,8|8,0:0|0:0,0:0:0:0:
181,216,53983,6,0,L|81:215,1,94.5,4|0,0:0|0:0,0:0:0:0:
362,222,54316,2,0,L|363:103,1,94.5,8|0,0:0|0:0,0:0:0:0:
121,199,54649,1,0,1:2:0:0:
277,192,54815,1,0,1:2:0:0:
121,199,54982,2,0,L|119:85,1,94.5,8|0,0:0|0:0,0:0:0:0:
414,126,55315,5,0,1:2:0:0:
268,128,55482,1,0,1:2:0:0:
414,126,55649,2,0,L|418:19,1,94.5,8|0,0:0|0:0,0:0:0:0:
140,99,55982,1,0,1:2:0:0:
286,62,56149,1,0,1:2:0:0:
431,56,56315,1,8,0:0:0:0:
140,99,56482,6,0,P|79:113|153:184,1,189,4|0,0:0|1:2,0:0:0:0:
428,211,56982,2,0,L|308:206,1,94.5,8|0,0:0|0:0,0:0:0:0:
102,206,57315,1,0,1:2:0:0:
330,217,57482,1,0,1:2:0:0:
102,206,57649,2,0,L|96:89,1,94.5,8|0,0:0|0:0,0:0:0:0:
418,140,57983,5,0,1:2:0:0:
279,138,58150,1,0,1:2:0:0:
418,140,58316,2,0,L|423:32,1,94.5,8|0,0:0|0:0,0:0:0:0:
96,131,58649,2,0,L|156:128,1,47.25,0|0,1:2|0:0,0:0:0:0:
316,95,58815,2,0,L|382:92,1,47.25,0|0,1:2|1:2,0:0:0:0:
169,59,58982,2,0,L|109:58,1,47.25,0|0,1:2|0:0,0:0:0:0:
343,202,59149,6,0,P|399:186|331:123,1,189,4|0,0:0|1:2,0:0:0:0:
61,177,59649,2,0,L|51:47,1,94.5,8|0,0:0|0:0,0:0:0:0:
381,97,59982,2,0,L|274:92,2,94.5,0|0|8,1:2|1:2|0:0,0:0:0:0:
121,207,60482,6,0,L|346:208,1,189,4|0,0:0|1:2,0:0:0:0:
67,176,60982,2,0,L|65:63,1,94.5,0|0,1:2|0:0,0:0:0:0:
352,123,61315,2,0,L|249:125,2,94.5,0|0|8,1:2|1:2|0:0,0:0:0:0:
71,286,61815,6,0,P|22:268|87:181,1,189,4|0,0:0|1:2,0:0:0:0:
306,162,62315,2,0,L|428:163,1,94.5,8|0,0:0|0:0,0:0:0:0:
75,109,62649,2,0,L|176:111,1,94.5,0|0,1:2|1:2,0:0:0:0:
427,107,62983,1,8,0:0:0:0:
169,110,63149,1,2,1:2:0:0:
427,107,63316,5,0,0:0:0:0:
275,111,63483,2,0,L|273:219,1,94.5,0|8,1:2|0:0,0:0:0:0:
504,220,63816,2,0,L|443:218,1,47.25
245,152,63983,2,0,L|190:150,1,47.25,8|0,0:0|1:2,0:0:0:0:
378,82,64149,2,0,L|466:79,1,47.25,0|0,1:2|0:0,0:0:0:0:
222,69,64316,1,8,0:0:0:0:
85,173,64483,6,0,P|43:152|110:76,1,189,4|0,0:0|0:0,0:0:0:0:
255,86,64983,2,0,L|253:190,1,94.5,0|0,1:2|0:0,0:0:0:0:
19,231,65316,2,0,L|16:37,1,189,2|0,1:2|1:2,0:0:0:0:
277,95,65983,6,0,L|85:99,1,189,2|0,1:2|1:2,0:0:0:0:
187,164,66483,1,0,0:0:0:0:
437,101,66649,2,0,L|343:106,2,94.5,2|0|0,1:2|0:0|1:2,0:0:0:0:
171,239,67149,6,0,P|115:215|194:134,1,189,10|0,0:0|0:0,0:0:0:0:
313,141,67649,2,0,L|314:36,1,94.5,0|0,1:2|0:0,0:0:0:0:
79,155,67983,2,0,L|302:154,1,189,2|0,1:2|1:2,0:0:0:0:
171,96,68483,1,0,0:0:0:0:
416,207,68649,5,2,1:2:0:0:
499,179,68815,1,0,0:0:0:0:
498,90,68982,1,0,1:2:0:0:
414,65,69149,1,0,0:0:0:0:
134,165,69316,2,0,L|250:164,2,94.5,2|0|0,1:2|0:0|0:0,0:0:0:0:
380,250,69816,6,0,L|160:242,1,189,4|0,0:0|0:0,0:0:0:0:
468,220,70316,2,0,L|475:98,1,94.5,10|0,0:0|0:0,0:0:0:0:
141,137,70649,1,10,0:0:0:0:
346,232,71149,6,0,P|399:210|316:137,1,189,4|0,0:0|0:0,0:0:0:0:
95,178,71649,2,0,L|92:71,1,94.5,10|0,0:0|0:0,0:0:0:0:
383,79,71983,1,10,0:0:0:0:
132,250,72483,6,0,L|352:242,1,189,4|0,0:0|0:0,0:0:0:0:
44,220,72983,2,0,L|37:98,1,94.5,10|0,0:0|0:0,0:0:0:0:
371,137,73316,1,2,1:2:0:0:
226,153,73483,2,0,L|224:54,1,94.5,2|10,1:2|0:0,0:0:0:0:
469,48,73816,2,0,L|395:46,1,47.25
198,107,73983,6,0,L|125:106,1,47.25,10|2,0:0|1:2,0:0:0:0:
308,43,74149,2,0,L|366:43,1,47.25,2|2,1:2|1:2,0:0:0:0:
172,192,74316,2,0,L|171:122,1,47.25,2|2,1:2|1:2,0:0:0:0:
355,110,74483,2,0,L|284:108,1,47.25,2|2,1:2|1:2,0:0:0:0:
142,73,74649,6,0,L|65:70,1,47.25,10|10,0:0|0:0,0:0:0:0:
269,172,74816,1,10,0:0:0:0:
418,178,74983,1,2,1:2:0:0:
418,178,75149,1,0,0:0:0:0:
116,262,75316,6,0,P|59:239|131:169,1,189,4|8,0:0|0:0,0:0:0:0:
220,166,75816,1,0,0:0:0:0:
469,166,75983,1,0,1:2:0:0:
333,175,76149,1,0,1:2:0:0:
469,166,76316,1,8,0:0:0:0:
333,182,76483,1,0,0:0:0:0:
59,196,76649,5,0,1:2:0:0:
195,212,76815,1,0,1:2:0:0:
59,196,76982,1,8,0:0:0:0:
195,212,77149,1,0,0:0:0:0:
442,144,77316,1,0,1:2:0:0:
298,114,77483,1,0,1:2:0:0:
154,100,77649,1,8,0:0:0:0:
442,144,77816,6,0,P|490:126|420:44,1,189,4|0,0:0|1:2,0:0:0:0:
174,176,78316,2,0,L|52:175,1,94.5,8|0,0:0|0:0,0:0:0:0:
375,168,78649,1,0,1:2:0:0:
235,158,78816,1,0,1:2:0:0:
375,168,78983,2,0,L|376:55,1,94.5,8|0,0:0|0:0,0:0:0:0:
24,142,79316,5,0,1:2:0:0:
161,136,79483,1,0,1:2:0:0:
24,142,79649,1,8,0:0:0:0:
161,136,79816,1,0,0:0:0:0:
398,140,79983,1,0,1:2:0:0:
260,67,80149,2,0,L|315:64,1,47.25,0|0,1:2|1:2,0:0:0:0:
481,68,80316,1,0,1:2:0:0:
239,235,80483,6,0,P|185:212|248:134,1,189,4|0,0:0|1:2,0:0:0:0:
489,161,80983,2,0,L|490:42,1,94.5,8|0,0:0|0:0,0:0:0:0:
206,82,81316,1,0,1:2:0:0:
343,39,81483,2,0,L|266:39,1,47.25,0|8,1:2|0:0,0:0:0:0:
118,136,81649,1,8,0:0:0:0:
364,239,81816,6,0,P|418:216|355:138,1,189,4|0,0:0|1:2,0:0:0:0:
114,164,82316,2,0,L|113:45,1,94.5,0|0,1:2|0:0,0:0:0:0:
397,85,82649,1,0,1:2:0:0:
260,42,82816,2,0,L|337:42,1,47.25,0|0,1:2|1:2,0:0:0:0:
464,132,82982,1,8,0:0:0:0:
195,217,83149,6,0,P|145:203|217:127,1,189,4|0,0:0|1:2,0:0:0:0:
436,165,83649,2,0,L|441:41,1,94.5,8|0,0:0|0:0,0:0:0:0:
163,104,83983,1,0,1:2:0:0:
306,56,84149,2,0,L|371:56,1,47.25,0|8,1:2|0:0,0:0:0:0:
205,135,84316,1,8,0:0:0:0:
448,98,84483,6,0,L|450:227,1,94.5,4|0,0:0|0:0,0:0:0:0:
182,217,84816,1,0,1:2:0:0:
322,220,84983,1,8,0:0:0:0:
59,173,85149,6,0,L|61:68,1,94.5,0|0,0:0|1:2,0:0:0:0:
121,56,85399,1,0,1:2:0:0:
286,97,85483,2,0,L|346:98,1,47.25,8|8,0:0|0:0,0:0:0:0:
161,134,85649,2,0,L|94:132,1,47.25,8|0,0:0|1:2,0:0:0:0:
331,47,85816,2,0,L|397:44,1,47.25,8|8,0:0|0:0,0:0:0:0:
152,204,85983,6,0,L|26:204,1,94.5,4|0,0:0|1:2,0:0:0:0:
340,134,86316,2,0,L|436:136,1,94.5,8|0,0:0|1:2,0:0:0:0:
174,141,86649,1,8,0:0:0:0:
430,161,86816,2,0,L|430:56,1,94.5,0|0,1:2|1:2,0:0:0:0:
116,104,87149,6,0,L|339:105,1,189,4|0,0:0|1:2,0:0:0:0:
172,173,87649,1,0,1:2:0:0:
437,145,87816,2,0,L|440:44,1,94.5,8|0,0:0|0:0,0:0:0:0:
113,132,88149,2,0,L|109:14,1,94.5,8|0,0:0|0:0,0:0:0:0:
399,47,88483,2,0,L|317:44,1,47.25,8|8,0:0|0:0,0:0:0:0:
116,170,88649,5,12,0:0:0:0:
256,192,88816,12,0,89483,0:0:0:0:
