osu file format v14

[General]
AudioFilename: audio.mp3
AudioLeadIn: 0
PreviewTime: 0
Countdown: 1
SampleSet: None
StackLeniency: 0.7
Mode: 1
LetterboxInBreaks: 0
WidescreenStoryboard: 1

[Editor]
Bookmarks: 60620,192883
DistanceSpacing: 1
BeatDivisor: 4
GridSize: 16
TimelineZoom: 1

[Metadata]
Title:Circles (Nightstep-Orginal Mix)
TitleUnicode:Circles (Nightstep-Orginal Mix)
Artist:KDrew
ArtistUnicode:KDrew
Creator:QEpicAce
Version:Kantan
Source:
Tags:
BeatmapID:1739703
BeatmapSetID:803202

[Difficulty]
HPDrainRate:6
CircleSize:5
OverallDifficulty:3.5
ApproachRate:5
SliderMultiplier:1.4
SliderTickRate:1

[Events]
//Background and Video events
0,0,"smile_by_nanomortis-dc90bh7.png",0,0
//Break Periods
//Storyboard Layer 0 (Background)
//Storyboard Layer 1 (Fail)
//Storyboard Layer 2 (Pass)
//Storyboard Layer 3 (Foreground)
//Storyboard Sound Samples

[TimingPoints]
140,377.928949357521,4,2,0,100,1,0
60608,-100,4,2,0,100,0,1
108983,-100,4,2,0,100,0,0
169452,-100,4,2,0,100,0,1
217827,-100,4,2,0,100,0,0

[HitObjects]
272,190,140,5,0,0:0:0:0:
275,179,1273,1,0,0:0:0:0:
308,157,3163,1,4,0:0:0:0:
295,115,4675,1,4,0:0:0:0:
295,117,6186,1,8,0:0:0:0:
295,117,7698,1,0,0:0:0:0:
295,117,9210,1,4,0:0:0:0:
295,117,10722,1,12,0:0:0:0:
295,117,12233,1,0,0:0:0:0:
356,126,13745,1,0,0:0:0:0:
360,128,15257,1,8,0:0:0:0:
360,128,16768,1,0,0:0:0:0:
366,129,17524,1,8,0:0:0:0:
329,285,17902,1,8,0:0:0:0:
366,129,18280,1,0,0:0:0:0:
432,144,19036,1,0,0:0:0:0:
419,141,19792,1,0,0:0:0:0:
427,160,21304,1,8,0:0:0:0:
423,161,22815,1,0,0:0:0:0:
423,161,23571,1,0,0:0:0:0:
423,161,24327,1,12,0:0:0:0:
416,160,25839,1,0,0:0:0:0:
414,155,27350,1,0,0:0:0:0:
413,155,28862,1,8,0:0:0:0:
412,152,30374,1,0,0:0:0:0:
412,152,31886,1,0,0:0:0:0:
412,152,32641,1,0,0:0:0:0:
412,152,33397,1,8,0:0:0:0:
412,152,34153,1,8,0:0:0:0:
412,152,34909,1,0,0:0:0:0:
384,136,36421,1,0,0:0:0:0:
367,161,37932,1,8,0:0:0:0:
364,160,39444,1,0,0:0:0:0:
356,158,40200,1,0,0:0:0:0:
356,158,40578,1,8,0:0:0:0:
356,158,40956,1,0,0:0:0:0:
322,187,41712,1,0,0:0:0:0:
322,187,42468,1,12,0:0:0:0:
322,187,43223,1,0,0:0:0:0:
322,187,43979,1,0,0:0:0:0:
322,187,44735,1,0,0:0:0:0:
322,187,45491,1,0,0:0:0:0:
322,187,46247,1,0,0:0:0:0:
322,187,46625,1,0,0:0:0:0:
322,187,47003,1,8,0:0:0:0:
328,180,47759,1,0,0:0:0:0:
328,180,48514,1,0,0:0:0:0:
320,183,49270,1,0,0:0:0:0:
321,175,50026,1,0,0:0:0:0:
348,125,50782,1,0,0:0:0:0:
348,125,51538,1,0,0:0:0:0:
331,278,53050,1,8,0:0:0:0:
331,277,54561,1,0,0:0:0:0:
331,277,55317,1,8,0:0:0:0:
331,277,56073,1,0,0:0:0:0:
331,277,56829,1,8,0:0:0:0:
331,277,57585,1,0,0:0:0:0:
326,274,57963,1,8,0:0:0:0:
331,277,58435,1,0,0:0:0:0:
331,277,58718,1,0,0:0:0:0:
326,274,58907,1,0,0:0:0:0:
331,277,59096,1,0,0:0:0:0:
96,174,60608,1,12,0:0:0:0:
337,253,62120,1,4,0:0:0:0:
339,253,63632,1,12,0:0:0:0:
341,236,64387,1,0,0:0:0:0:
341,236,64765,1,0,0:0:0:0:
339,253,65143,1,0,0:0:0:0:
339,253,65899,1,8,0:0:0:0:
256,200,66277,1,8,0:0:0:0:
256,200,66655,1,8,0:0:0:0:
300,200,68167,1,4,0:0:0:0:
300,201,69678,1,12,0:0:0:0:
300,201,70434,1,0,0:0:0:0:
300,201,70812,1,0,0:0:0:0:
300,201,71190,1,0,0:0:0:0:
300,201,71946,1,8,0:0:0:0:
300,201,72324,1,8,0:0:0:0:
300,201,72702,1,8,0:0:0:0:
383,173,74214,1,12,0:0:0:0:
381,175,75725,1,4,0:0:0:0:
381,175,76481,1,0,0:0:0:0:
381,175,76859,1,0,0:0:0:0:
381,175,77237,1,0,0:0:0:0:
381,175,77993,1,8,0:0:0:0:
381,175,78371,1,8,0:0:0:0:
381,175,78749,1,8,0:0:0:0:
382,176,80260,1,4,0:0:0:0:
382,174,81772,1,4,0:0:0:0:
437,169,82528,1,8,0:0:0:0:
437,169,82906,1,8,0:0:0:0:
437,169,83284,1,8,0:0:0:0:
437,169,84040,1,8,0:0:0:0:
437,169,84418,1,8,0:0:0:0:
437,169,84796,1,8,0:0:0:0:
437,169,86307,1,0,0:0:0:0:
395,153,87063,1,0,0:0:0:0:
395,153,87819,1,8,0:0:0:0:
395,153,88575,1,8,0:0:0:0:
395,153,89331,1,0,0:0:0:0:
395,153,90087,1,0,0:0:0:0:
395,153,90842,1,8,0:0:0:0:
399,148,91598,1,8,0:0:0:0:
399,148,92354,1,0,0:0:0:0:
399,148,93110,1,0,0:0:0:0:
399,148,93866,1,12,0:0:0:0:
399,146,95378,1,4,0:0:0:0:
399,146,96889,1,0,0:0:0:0:
399,146,97645,1,0,0:0:0:0:
399,146,98401,1,8,0:0:0:0:
399,146,99157,1,8,0:0:0:0:
399,146,99913,1,0,0:0:0:0:
399,146,100669,1,0,0:0:0:0:
399,146,101424,1,8,0:0:0:0:
399,146,102180,1,8,0:0:0:0:
399,146,102936,1,0,0:0:0:0:
399,146,103692,1,0,0:0:0:0:
399,146,104070,1,0,0:0:0:0:
265,190,104448,1,8,0:0:0:0:
341,217,105204,1,0,0:0:0:0:
341,217,105582,1,0,0:0:0:0:
341,217,105960,1,12,0:0:0:0:
341,217,107471,1,4,0:0:0:0:
341,214,108983,1,12,0:0:0:0:
373,188,110495,1,0,0:0:0:0:
373,188,112006,1,0,0:0:0:0:
371,188,113518,1,0,0:0:0:0:
391,202,115030,1,0,0:0:0:0:
392,202,116542,1,8,0:0:0:0:
392,202,118053,1,8,0:0:0:0:
392,202,119565,1,8,0:0:0:0:
392,202,120321,1,0,0:0:0:0:
392,202,120699,1,8,0:0:0:0:
392,202,121077,1,0,0:0:0:0:
363,172,122588,1,8,0:0:0:0:
363,172,124100,1,8,0:0:0:0:
345,164,125612,1,0,0:0:0:0:
345,164,126368,1,8,0:0:0:0:
345,164,126746,1,0,0:0:0:0:
345,164,127124,1,8,0:0:0:0:
388,130,128635,1,0,0:0:0:0:
388,130,130147,1,8,0:0:0:0:
387,130,131659,1,0,0:0:0:0:
376,130,133170,1,8,0:0:0:0:
376,130,133737,1,0,0:0:0:0:
376,130,134682,1,0,0:0:0:0:
308,133,136194,1,0,0:0:0:0:
308,133,136572,1,0,0:0:0:0:
308,133,136950,1,8,0:0:0:0:
308,133,137706,1,8,0:0:0:0:
306,132,139217,1,0,0:0:0:0:
301,134,139784,1,8,0:0:0:0:
275,202,140351,1,8,0:0:0:0:
372,213,140729,1,8,0:0:0:0:
368,213,142241,1,0,0:0:0:0:
368,213,142619,1,0,0:0:0:0:
368,213,142997,1,0,0:0:0:0:
345,196,143375,1,8,0:0:0:0:
368,213,143753,1,0,0:0:0:0:
378,228,145264,1,0,0:0:0:0:
352,226,146020,1,8,0:0:0:0:
352,226,146776,1,0,0:0:0:0:
352,226,147532,1,8,0:0:0:0:
352,226,148288,1,0,0:0:0:0:
346,224,149044,1,8,0:0:0:0:
346,224,149799,1,0,0:0:0:0:
346,224,150555,1,8,0:0:0:0:
346,224,151311,1,0,0:0:0:0:
346,224,152067,1,8,0:0:0:0:
346,224,152823,1,0,0:0:0:0:
346,224,153579,1,8,0:0:0:0:
346,224,154335,1,0,0:0:0:0:
346,224,155090,1,8,0:0:0:0:
346,224,155846,1,0,0:0:0:0:
355,225,157358,1,0,0:0:0:0:
353,151,158870,1,0,0:0:0:0:
352,151,160381,1,8,0:0:0:0:
327,147,161893,1,8,0:0:0:0:
325,146,163405,1,0,0:0:0:0:
325,146,164161,1,0,0:0:0:0:
325,146,164917,1,8,0:0:0:0:
341,168,165672,1,8,0:0:0:0:
341,168,166428,1,0,0:0:0:0:
333,163,166806,1,8,0:0:0:0:
336,163,167184,1,0,0:0:0:0:
333,163,167562,1,0,0:0:0:0:
333,140,167751,1,0,0:0:0:0:
336,163,167940,1,0,0:0:0:0:
96,174,169452,1,4,0:0:0:0:
337,253,170964,1,12,0:0:0:0:
339,253,172476,1,4,0:0:0:0:
341,236,173231,1,8,0:0:0:0:
341,236,173609,1,8,0:0:0:0:
339,253,173987,1,8,0:0:0:0:
339,253,174743,1,0,0:0:0:0:
256,200,175121,1,0,0:0:0:0:
256,200,175499,1,0,0:0:0:0:
300,200,177011,1,12,0:0:0:0:
300,201,178522,1,4,0:0:0:0:
300,201,179278,1,8,0:0:0:0:
300,201,179656,1,8,0:0:0:0:
300,201,180034,1,8,0:0:0:0:
300,201,180790,1,0,0:0:0:0:
300,201,181168,1,0,0:0:0:0:
300,201,181546,1,0,0:0:0:0:
383,173,183058,1,4,0:0:0:0:
381,175,184569,1,12,0:0:0:0:
381,175,185325,1,8,0:0:0:0:
381,175,185703,1,8,0:0:0:0:
381,175,186081,1,8,0:0:0:0:
381,175,186837,1,0,0:0:0:0:
381,175,187215,1,0,0:0:0:0:
381,175,187593,1,0,0:0:0:0:
382,176,189104,1,12,0:0:0:0:
382,174,190616,1,12,0:0:0:0:
437,169,191372,1,0,0:0:0:0:
437,169,191750,1,0,0:0:0:0:
437,169,192128,1,0,0:0:0:0:
437,169,192884,1,0,0:0:0:0:
437,169,193262,1,0,0:0:0:0:
437,169,193640,1,0,0:0:0:0:
437,169,195151,1,8,0:0:0:0:
395,153,195907,1,8,0:0:0:0:
395,153,196663,1,0,0:0:0:0:
395,153,197419,1,0,0:0:0:0:
395,153,198175,1,8,0:0:0:0:
395,153,198931,1,8,0:0:0:0:
395,153,199686,1,0,0:0:0:0:
399,148,200442,1,0,0:0:0:0:
399,148,201198,1,8,0:0:0:0:
399,148,201954,1,8,0:0:0:0:
399,148,202710,1,4,0:0:0:0:
399,146,204222,1,12,0:0:0:0:
399,146,205733,1,8,0:0:0:0:
399,146,206489,1,8,0:0:0:0:
399,146,207245,1,0,0:0:0:0:
399,146,208001,1,0,0:0:0:0:
399,146,208757,1,8,0:0:0:0:
399,146,209513,1,8,0:0:0:0:
399,146,210268,1,0,0:0:0:0:
399,146,211024,1,0,0:0:0:0:
399,146,211780,1,8,0:0:0:0:
399,146,212536,1,8,0:0:0:0:
399,146,212914,1,8,0:0:0:0:
265,190,213292,1,0,0:0:0:0:
341,217,214048,1,8,0:0:0:0:
341,217,214426,1,8,0:0:0:0:
341,217,214804,1,4,0:0:0:0:
341,217,216315,1,12,0:0:0:0:
341,214,217827,1,4,0:0:0:0:
355,249,218960,1,0,0:0:0:0:
260,188,219149,1,0,0:0:0:0:
355,249,219338,1,0,0:0:0:0:
350,236,220850,1,12,0:0:0:0:
382,188,221606,1,0,0:0:0:0:
382,188,221984,1,0,0:0:0:0:
382,188,222362,1,8,0:0:0:0:
404,157,223118,1,0,0:0:0:0:
404,157,223873,1,0,0:0:0:0:
404,157,224629,1,8,0:0:0:0:
398,160,225385,1,0,0:0:0:0:
398,160,226141,1,8,0:0:0:0:
398,160,226897,1,0,0:0:0:0:
398,160,227653,1,8,0:0:0:0:
391,159,228031,1,0,0:0:0:0:
390,160,228409,1,8,0:0:0:0:
390,160,229164,1,4,0:0:0:0:
390,160,229542,1,12,0:0:0:0:
