osu file format v14

[General]
AudioFilename: nightstep_circles.mp3
AudioLeadIn: 0
PreviewTime: 54607
Countdown: 0
SampleSet: Normal
StackLeniency: 0.7
Mode: 0
LetterboxInBreaks: 0
WidescreenStoryboard: 1

[Editor]
DistanceSpacing: 1.2
BeatDivisor: 4
GridSize: 16
TimelineZoom: 1.9

[Metadata]
Title:Circles (Nightstep Mix)
TitleUnicode:Circles (Nightstep Mix)
Artist:KDrew
ArtistUnicode:KDrew
Creator:Ayui
Version:Hard
Source:
Tags:
BeatmapID:1585512
BeatmapSetID:753056

[Difficulty]
HPDrainRate:3
CircleSize:4
OverallDifficulty:6
ApproachRate:8
SliderMultiplier:1.5
SliderTickRate:1

[Events]
//Background and Video events
0,0,"nightstep_circles.png",0,0
//Break Periods
//Storyboard Layer 0 (Background)
//Storyboard Layer 1 (Fail)
//Storyboard Layer 2 (Pass)
//Storyboard Layer 3 (Foreground)
//Storyboard Sound Samples

[TimingPoints]
174,378.010893050689,4,1,0,60,1,0
174,-133.333333333333,4,1,0,60,0,0
12270,-100,4,1,10,60,0,0
16806,-100,4,1,1,60,0,0
24366,-100,4,1,10,60,0,0
36463,-100,4,1,1,60,0,0
48559,-100,4,1,1,60,0,0
59143,-100,4,1,1,45,0,0
59710,-100,4,1,1,45,0,0
59805,-100,4,1,1,5,0,0
59899,-100,4,1,10,60,0,0
60655,-66.6666666666667,4,1,1,60,0,1
61222,-66.6666666666667,4,1,1,60,0,1
61317,-66.6666666666667,4,1,0,5,0,1
61411,-100,4,1,12,60,0,1
62073,-100,4,1,0,5,0,1
62167,-66.6666666666667,4,1,1,60,0,1
62734,-66.6666666666667,4,1,1,60,0,1
62829,-66.6666666666667,4,1,0,5,0,1
62923,-100,4,1,12,60,0,1
63585,-100,4,1,0,5,0,1
63679,-100,4,1,1,60,0,1
64435,-100,4,1,6,60,0,1
64813,-100,4,1,8,60,0,1
65191,-100,4,1,6,60,0,1
65569,-100,4,1,8,60,0,1
65947,-100,4,1,6,60,0,1
66325,-100,4,1,8,60,0,1
66703,-66.6666666666667,4,1,6,60,0,1
67270,-66.6666666666667,4,1,6,60,0,1
67365,-66.6666666666667,4,1,6,5,0,1
67459,-100,4,1,6,60,0,1
68121,-100,4,1,6,5,0,1
68215,-66.6666666666667,4,1,6,60,0,1
68782,-66.6666666666667,4,1,6,60,0,1
68877,-66.6666666666667,4,1,6,5,0,1
68971,-100,4,1,6,60,0,1
69633,-100,4,1,6,5,0,1
69728,-100,4,1,6,60,0,1
71996,-100,4,1,8,60,0,1
72185,-100,4,1,8,5,0,1
72279,-100,4,1,8,60,0,1
72468,-100,4,1,8,5,0,1
72563,-100,4,1,8,60,0,1
72657,-100,4,1,8,5,0,1
72752,-66.6666666666667,4,1,6,60,0,1
73319,-66.6666666666667,4,1,6,60,0,1
73413,-66.6666666666667,4,1,6,5,0,1
73508,-100,4,1,6,60,0,1
74169,-100,4,1,6,5,0,1
74264,-66.6666666666667,4,1,6,60,0,1
74831,-66.6666666666667,4,1,6,60,0,1
74925,-66.6666666666667,4,1,6,5,0,1
75020,-100,4,1,6,60,0,1
75681,-100,4,1,6,5,0,1
75776,-100,4,1,6,60,0,1
76910,-100,4,1,8,60,0,1
77288,-100,4,1,6,60,0,1
77666,-100,4,1,8,60,0,1
78044,-100,4,1,6,60,0,1
78422,-100,4,1,8,60,0,1
78800,-66.6666666666667,4,1,6,60,0,1
79367,-66.6666666666667,4,1,6,60,0,1
79461,-66.6666666666667,4,1,6,5,0,1
79556,-100,4,1,6,60,0,1
80217,-100,4,1,6,5,0,1
80312,-66.6666666666667,4,1,6,60,0,1
80879,-66.6666666666667,4,1,6,60,0,1
80973,-66.6666666666667,4,1,6,5,0,1
81068,-100,4,1,6,60,0,1
81729,-100,4,1,6,5,0,1
81824,-100,4,1,6,60,0,1
82958,-100,4,1,8,60,0,1
83336,-100,4,1,6,60,0,1
84092,-100,4,1,8,60,0,1
84281,-100,4,1,8,5,0,1
84375,-100,4,1,8,60,0,1
84564,-100,4,1,8,5,0,1
84659,-100,4,1,8,60,0,1
84753,-100,4,1,8,5,0,1
84848,-100,4,1,6,60,0,1
85982,-100,4,1,8,60,0,1
86360,-100,4,1,6,60,0,1
89384,-66.6666666666667,4,1,6,60,0,1
90140,-100,4,1,6,60,0,1
92030,-66.6666666666667,4,1,6,60,0,1
92408,-100,4,1,6,60,0,1
96944,-66.6666666666667,4,1,6,60,0,1
97700,-100,4,1,6,60,0,1
98078,-100,4,1,8,60,0,1
98456,-100,4,1,6,60,0,1
98582,-100,4,1,8,60,0,1
98834,-100,4,1,6,60,0,1
101480,-66.6666666666667,4,1,6,60,0,1
102236,-100,4,1,6,60,0,1
104126,-66.6666666666667,4,1,6,60,0,1
104505,-100,4,1,6,60,0,1
104883,-100,4,1,8,60,0,1
105261,-100,4,1,6,60,0,1
105639,-100,4,1,8,60,0,1
106017,-100,4,1,6,60,0,1
109041,-80,4,1,6,60,0,0
109797,-100,4,1,6,50,0,0
110553,-100,4,1,6,40,0,0
111309,-100,4,1,6,30,0,0
112065,-100,4,1,6,20,0,0

[Colours]
Combo1 : 75,0,151
Combo2 : 253,210,208
Combo3 : 192,192,192
Combo4 : 85,85,85
Combo5 : 255,113,113
Combo6 : 244,0,0

[HitObjects]
158,267,174,21,0,0:0:0:0:
158,267,1308,5,0,0:0:0:0:
311,274,1686,2,0,P|317:219|283:140,1,112.500004291535,0|0,0:0|0:0,0:0:0:0:
236,94,2253,2,0,B|294:73|294:73|401:87,1,168.750006437302,0|0,0:0|0:0,0:0:0:0:
465,209,3198,37,0,0:0:0:0:
465,209,3954,54,0,L|472:273,2,56.2500021457673,0|0|0,0:0|0:0|0:0,0:0:0:0:
390,148,4521,1,0,0:0:0:0:
360,294,4710,5,0,0:0:0:0:
360,294,5466,6,0,L|366:238,2,56.2500021457673,0|0|0,0:0|0:0|0:0,0:0:0:0:
292,344,6033,1,0,0:0:0:0:
266,176,6222,5,0,0:0:0:0:
266,176,6978,22,0,L|136:164,1,112.500004291535,0|0,0:0|0:0,0:0:0:0:
55,84,7734,6,0,P|34:139|42:203,1,112.500004291535,0|0,0:0|0:0,0:0:0:0:
82,260,8301,2,0,B|139:277|139:277|192:264|192:264|244:281,1,168.750006437302,0|0,0:0|0:0,0:0:0:0:
332,343,9246,5,0,0:0:0:0:
332,343,10002,22,0,B|408:336,2,56.2500021457673,0|0|0,0:0|0:0|0:0,0:0:0:0:
243,280,10569,1,0,0:0:0:0:
423,234,10758,5,0,0:0:0:0:
423,234,11514,54,0,P|428:162|396:112,1,112.500004291535,0|0,0:0|0:0,0:0:0:0:
208,162,12270,37,6,0:0:0:0:
208,162,13404,5,0,0:0:0:0:
292,335,13782,2,0,L|305:212,1,112.500004291535,0|0,0:0|0:0,0:0:0:0:
373,106,14538,2,0,B|333:78|289:98|289:98|246:119|206:91,1,168.750006437302,0|0,0:0|0:0,0:0:0:0:
154,49,15294,1,2,0:0:0:0:
154,49,16050,6,0,L|91:43,2,56.2500021457673,0|0|0,0:0|0:0|0:0,0:0:0:0:
254,35,16617,1,0,0:0:0:0:
157,210,16806,5,0,0:0:0:0:
157,210,17562,6,0,B|210:220|210:220|280:200,1,112.500004291535,0|0,0:0|0:0,0:0:0:0:
355,68,18318,5,2,0:0:0:0:
355,68,19074,6,0,L|361:134,1,56.2500021457673,0|0,0:0|0:0,0:0:0:0:
423,220,19452,1,0,0:0:0:0:
423,220,19641,2,0,B|383:248|339:227|339:227|296:207|256:234,1,168.750006437302,0|0,0:0|0:0,0:0:0:0:
215,316,20397,1,0,0:0:0:0:
215,316,20586,6,0,L|228:200,1,112.500004291535,0|0,0:0|0:0,0:0:0:0:
315,143,21153,2,0,P|240:99|160:132,1,168.750006437302,0|0,0:0|0:0,0:0:0:0:
167,124,22098,6,0,L|154:235,1,112.500004291535,0|0,0:0|0:0,0:0:0:0:
99,301,22665,2,0,B|136:332|181:315|181:315|226:299|263:330,1,168.750006437302,0|0,0:0|0:0,0:0:0:0:
257,325,23610,2,0,B|248:248|248:248|273:198,1,112.500004291535,0|0,0:0|0:0,0:0:0:0:
393,327,24366,6,0,L|405:195,1,112.500004291535,6|0,0:0|0:0,0:0:0:0:
434,136,24933,2,0,L|479:138,2,28.1250010728837,0|0|8,0:0|0:0|0:0,0:0:0:0:
262,47,25878,22,0,L|251:158,1,112.500004291535,2|0,0:0|0:0,0:0:0:0:
286,235,26445,1,0,0:0:0:0:
202,226,26634,1,8,0:0:0:0:
74,342,27390,6,0,L|61:210,1,112.500004291535,2|0,0:0|0:0,0:0:0:0:
81,117,27957,1,0,0:0:0:0:
81,117,28052,1,0,0:0:0:0:
81,117,28146,2,0,L|137:121,1,56.2500021457673,8|0,0:0|0:0,0:0:0:0:
245,209,28524,2,0,L|188:213,1,56.2500021457673,0|0,0:0|0:0,0:0:0:0:
141,312,28902,54,0,P|167:359|237:366,1,112.500004291535,2|0,0:0|0:0,0:0:0:0:
284,282,29469,1,0,0:0:0:0:
284,282,29564,1,0,0:0:0:0:
284,282,29658,2,0,B|338:258|338:258|399:289,1,112.500004291535,8|8,0:0|0:0,0:0:0:0:
459,67,30414,6,0,L|448:178,1,112.500004291535,2|0,0:0|0:0,0:0:0:0:
385,282,30981,1,0,0:0:0:0:
385,282,31076,1,0,0:0:0:0:
385,282,31170,2,0,P|360:281|329:273,1,56.2500021457673,8|0,0:0|0:0,0:0:0:0:
307,183,31548,2,0,P|276:175|237:179,1,56.2500021457673,0|0,0:0|0:0,0:0:0:0:
196,267,31926,22,0,B|161:264|161:264|138:273|138:273|116:260|116:260|82:257,1,112.500004291535,2|0,0:0|0:0,0:0:0:0:
39,336,32493,1,0,0:0:0:0:
10,244,32682,2,0,B|0:186|0:186|28:117,1,112.500004291535,8|0,0:0|0:0,0:0:0:0:
124,121,33249,1,0,0:0:0:0:
203,202,33438,38,0,P|241:150|234:95,1,112.500004291535,2|0,0:0|0:0,0:0:0:0:
175,34,34005,1,0,0:0:0:0:
175,34,34100,1,0,0:0:0:0:
175,34,34194,2,0,L|232:28,1,56.2500021457673,8|0,0:0|0:0,0:0:0:0:
338,55,34572,1,8,0:0:0:0:
309,160,34761,1,0,0:0:0:0:
309,160,34856,1,0,0:0:0:0:
309,160,34951,6,0,B|358:176|358:176|381:135|381:135|446:186|444:111|532:172,1,225.000008583069,2|0,0:0|0:0,0:0:0:0:
500,154,36463,5,2,0:0:0:0:
400,280,36652,2,0,B|416:189|416:189|407:109,1,168.750006437302,0|0,0:0|0:0,0:0:0:0:
276,105,37597,1,0,0:0:0:0:
191,263,37975,2,0,B|256:153|152:153|209:23,1,225.000008583069,2|0,0:0|0:0,0:0:0:0:
130,196,39298,1,0,0:0:0:0:
63,152,39487,2,0,L|18:155,2,28.1250010728836,2|0|0,0:0|0:0|0:0,0:0:0:0:
224,82,40243,6,0,P|277:88|311:152,1,112.500004291535,0|0,0:0|0:0,0:0:0:0:
194,279,40999,2,0,P|172:230|211:168,1,112.500004291535,2|0,0:0|0:0,0:0:0:0:
378,187,41755,2,0,P|346:229|273:227,1,112.500004291535,0|0,0:0|0:0,0:0:0:0:
224,82,42511,5,2,0:0:0:0:
195,179,42700,2,0,L|26:166,1,168.750006437302,0|0,0:0|0:0,0:0:0:0:
74,284,43645,1,0,0:0:0:0:
55,92,44023,2,0,B|167:15|166:131|283:61,1,225.000008583069,2|0,0:0|0:0,0:0:0:0:
126,148,45346,1,0,0:0:0:0:
105,219,45535,2,0,L|74:222,2,28.1250010728836,2|0|0,0:0|0:0|0:0,0:0:0:0:
257,316,46291,6,0,B|312:274|312:274|331:236,1,112.500004291535,0|0,0:0|0:0,0:0:0:0:
180,148,47047,2,0,B|187:217|187:217|211:252,1,112.500004291535,2|0,0:0|0:0,0:0:0:0:
388,179,47803,2,0,B|324:151|324:151|281:154,1,112.500004291535,0|0,0:0|0:0,0:0:0:0:
374,326,48559,6,0,B|395:263|395:263|387:166,1,150,2|0,0:0|0:0,0:0:0:0:
270,39,49315,2,0,B|248:101|248:101|256:198,1,150,2|0,0:0|0:0,0:0:0:0:
270,306,50071,5,0,0:0:0:0:
141,209,50449,1,0,2:2:0:0:
141,337,50827,1,0,0:0:0:0:
255,185,51205,1,0,2:2:0:0:
436,281,51583,6,0,P|373:306|284:278,1,150,2|0,0:0|0:0,0:0:0:0:
172,124,52339,2,0,P|235:99|324:127,1,150,2|0,0:0|0:0,0:0:0:0:
356,223,53095,21,0,0:0:0:0:
386,83,53473,1,0,2:2:0:0:
457,191,53851,1,0,0:0:0:0:
248,183,54229,1,0,2:2:0:0:
248,183,54607,22,0,L|240:261,1,75,2|8,0:0|0:0,0:0:0:0:
174,343,54985,1,2,0:0:0:0:
174,343,55363,2,0,L|256:350,1,75,2|8,0:0|0:0,0:0:0:0:
345,289,55741,1,2,0:0:0:0:
345,289,56119,38,0,L|352:214,1,75,2|8,0:0|0:0,0:0:0:0:
406,80,56497,1,2,0:0:0:0:
406,80,56875,2,0,L|331:72,1,75,2|8,0:0|0:0,0:0:0:0:
189,121,57253,1,2,0:0:0:0:
189,121,57631,54,0,L|133:125,3,37.5,2|0|0|0,0:0|0:0|0:0|0:0,0:0:0:0:
224,131,58009,2,0,P|231:173|224:213,1,75,8|8,0:0|0:0,0:0:0:0:
130,306,58387,5,2,0:0:0:0:
130,306,58482,1,0,0:0:0:0:
130,306,58576,1,0,0:0:0:0:
130,306,58671,1,0,0:0:0:0:
130,306,58765,2,0,L|211:311,1,75,8|8,0:0|0:0,0:0:0:0:
270,269,59049,1,8,0:0:0:0:
270,269,59143,22,0,B|292:305|266:355|266:355|338:312|329:374|402:336,1,225,2|0,0:0|0:0,0:0:0:0:
428,159,59899,1,12,0:0:0:0:
428,159,60655,38,0,B|286:133|286:133|238:222|238:222|332:239,1,337.500012874604,2|0,0:0|0:0,0:0:0:0:
441,317,61411,6,0,B|372:337|372:337|293:323,1,150,8|0,0:0|0:0,0:0:0:0:
109,327,62167,22,0,B|152:314|152:314|195:340|195:340|177:286|181:242|197:197|237:179|285:178|334:193,1,337.500012874604,2|0,0:0|0:0,0:0:0:0:
405,312,62923,6,0,B|418:255|418:255|404:207|404:207|413:130,1,150,8|0,0:0|0:0,0:0:0:0:
278,275,63679,5,2,0:0:0:0:
257,75,64057,1,0,0:0:0:0:
68,135,64435,5,12,0:0:0:0:
52,147,64561,1,4,0:0:0:0:
37,160,64687,1,4,0:0:0:0:
22,173,64813,2,0,L|38:291,1,100,4|0,0:0|0:0,0:0:0:0:
162,292,65191,5,6,0:0:0:0:
178,304,65317,1,4,0:0:0:0:
193,317,65443,1,4,0:0:0:0:
209,327,65569,2,0,L|193:209,1,100,4|0,0:0|0:0,0:0:0:0:
244,104,65947,21,12,0:0:0:0:
260,92,66073,1,4,0:0:0:0:
275,79,66199,1,4,0:0:0:0:
291,67,66325,2,0,L|307:185,1,100,4|0,0:0|0:0,0:0:0:0:
298,256,66703,54,0,B|391:224|460:266|460:266|476:156|476:156|487:193|512:213,1,337.500012874604,2|0,0:0|0:0,0:0:0:0:
445,346,67459,6,0,P|383:317|282:355,1,150,8|0,0:0|0:0,0:0:0:0:
364,208,68215,22,0,B|284:162|285:47|285:47|287:139|210:165,1,337.500012874604,2|0,0:0|0:0,0:0:0:0:
139,63,68971,6,0,P|175:26|185:98,1,150,8|0,0:0|0:0,0:0:0:0:
85,249,69728,5,2,0:0:0:0:
44,74,70106,1,0,0:0:0:0:
220,144,70484,6,0,L|346:131,1,100,8|0,0:0|0:0,0:0:0:0:
368,74,70862,1,0,0:0:0:0:
424,221,71240,5,6,0:0:0:0:
416,239,71366,1,4,0:0:0:0:
409,258,71492,1,4,0:0:0:0:
388,265,71618,1,4,0:0:0:0:
380,283,71744,1,4,0:0:0:0:
373,302,71870,1,4,0:0:0:0:
363,319,71996,6,0,P|298:332|237:298,2,112.5,8|0|0,0:0|0:0|0:0,0:0:0:0:
495,264,72752,6,0,B|514:153|514:153|425:105|425:105|411:184|411:184|367:160,1,337.500012874604,2|0,0:0|0:0,0:0:0:0:
264,65,73508,6,0,P|223:115|231:200,1,150,8|0,0:0|0:0,0:0:0:0:
430,252,74264,22,0,B|335:261|335:261|306:300|306:300|278:229|278:229|160:237,1,337.500012874604,2|0,0:0|0:0,0:0:0:0:
56,335,75020,6,0,B|43:262|43:262|60:178,1,150,8|0,0:0|0:0,0:0:0:0:
234,137,75776,5,2,0:0:0:0:
122,22,76154,1,0,0:0:0:0:
281,57,76532,5,12,0:0:0:0:
299,64,76658,1,4,0:0:0:0:
318,70,76784,1,4,0:0:0:0:
336,76,76910,2,0,P|335:135|308:185,1,100,4|0,0:0|0:0,0:0:0:0:
219,199,77288,5,6,0:0:0:0:
214,217,77414,1,4,0:0:0:0:
208,236,77540,1,4,0:0:0:0:
203,254,77666,2,0,P|251:287|308:293,1,100,4|0,0:0|0:0,0:0:0:0:
366,232,78044,21,12,0:0:0:0:
384,227,78170,1,4,0:0:0:0:
403,220,78296,1,4,0:0:0:0:
421,215,78422,2,0,P|454:263|462:319,1,100,4|0,0:0|0:0,0:0:0:0:
371,353,78800,54,0,B|269:334|269:334|157:363|157:363|33:343,1,337.500012874604,2|0,0:0|0:0,0:0:0:0:
10,217,79556,6,0,B|8:164|42:120|42:120|72:131|90:164,1,150,8|0,0:0|0:0,0:0:0:0:
236,245,80312,22,0,B|407:272|407:272|342:197|342:197|341:130,1,337.500012874604,2|0,0:0|0:0,0:0:0:0:
208,46,81068,6,0,P|152:77|203:115,1,150,8|0,0:0|0:0,0:0:0:0:
415,97,81824,5,2,0:0:0:0:
236,245,82202,1,0,0:0:0:0:
403,181,82580,6,0,B|417:219|417:219|412:299,1,100,8|0,0:0|0:0,0:0:0:0:
359,335,82958,1,4,0:0:0:0:
182,272,83336,5,6,0:0:0:0:
164,265,83462,1,4,0:0:0:0:
145,259,83588,1,4,0:0:0:0:
128,270,83714,1,4,0:0:0:0:
110,263,83840,1,4,0:0:0:0:
91,257,83966,1,4,0:0:0:0:
71,252,84092,6,0,B|55:297|55:297|71:396,2,112.5,8|0|0,0:0|0:0|0:0,0:0:0:0:
115,128,84848,22,0,P|171:109|242:130,1,100,2|0,0:0|0:0,0:0:0:0:
267,158,85226,1,0,0:0:0:0:
323,284,85478,1,0,0:0:0:0:
382,336,85604,2,0,L|454:347,2,50,12|4|4,0:0|0:0|0:0,0:0:0:0:
310,365,85982,1,0,0:0:0:0:
168,300,86360,37,2,0:0:0:0:
142,234,86486,2,0,L|69:221,1,50,0|0,0:0|0:0,0:0:0:0:
29,261,86738,2,0,P|21:223|30:189,2,50,0|0|0,0:0|0:0|0:0,0:0:0:0:
100,339,87116,6,0,B|176:386|177:319|262:360,1,150,8|0,0:0|0:0,0:0:0:0:
411,321,87872,21,2,0:0:0:0:
411,321,88250,2,0,L|476:328,2,50,4|4|4,0:0|0:0|0:0,0:0:0:0:
377,258,88628,5,8,0:0:0:0:
372,239,88754,1,0,0:0:0:0:
366,220,88880,1,0,0:0:0:0:
359,200,89006,2,0,B|319:193|319:193|288:203|288:203|238:193,1,100,0|0,0:0|0:0,0:0:0:0:
194,234,89384,38,0,B|177:194|192:164|192:164|181:152|181:152|199:122|186:76,1,150.000005722046,2|0,0:0|0:0,0:0:0:0:
136,36,89762,1,0,0:0:0:0:
136,36,90140,6,0,L|66:24,2,50,8|0|0,0:0|0:0|0:0,0:0:0:0:
223,55,90518,1,0,0:0:0:0:
297,54,90644,2,0,L|305:103,1,50,0|0,0:0|0:0,0:0:0:0:
348,200,90896,54,0,B|404:237|457:201,1,100,2|0,0:0|0:0,0:0:0:0:
467,141,91274,1,0,0:0:0:0:
460,305,91526,1,0,0:0:0:0:
390,339,91652,6,0,B|283:322,1,100,8|0,0:0|0:0,0:0:0:0:
201,354,92030,2,0,B|168:331|196:291|196:291|156:263|184:222,1,150.000005722046,0|0,0:0|0:0,0:0:0:0:
251,160,92408,6,0,L|314:170,2,50,6|4|4,0:0|0:0|0:0,0:0:0:0:
193,102,92786,1,0,0:0:0:0:
193,102,93164,22,0,L|129:112,2,50,12|4|4,0:0|0:0|0:0,0:0:0:0:
258,55,93542,1,0,0:0:0:0:
350,152,93920,5,2,0:0:0:0:
378,157,94046,1,0,0:0:0:0:
407,165,94172,1,0,0:0:0:0:
393,211,94298,37,0,0:0:0:0:
421,216,94424,1,0,0:0:0:0:
450,224,94550,1,0,0:0:0:0:
430,273,94676,21,8,0:0:0:0:
458,278,94802,1,0,0:0:0:0:
487,286,94928,1,0,0:0:0:0:
270,286,95432,37,2,0:0:0:0:
242,291,95558,1,0,0:0:0:0:
213,299,95684,1,0,0:0:0:0:
183,305,95810,2,0,L|195:228,2,50,0|0|0,0:0|0:0|0:0,0:0:0:0:
119,349,96188,1,8,0:0:0:0:
119,349,96566,6,0,P|145:368|173:373,2,50,0|0|0,0:0|0:0|0:0,0:0:0:0:
84,274,96944,6,0,B|97:195|97:195|87:160|87:160|109:132|109:132|122:53,1,225.000008583069,2|0,0:0|0:0,0:0:0:0:
280,91,97574,1,0,0:0:0:0:
340,47,97700,6,0,L|413:34,2,50,12|4|4,0:0|0:0|0:0,0:0:0:0:
266,21,98078,1,0,0:0:0:0:
266,21,98456,21,2,0:0:0:0:
202,67,98582,2,0,L|128:54,1,50,0|0,0:0|0:0,0:0:0:0:
74,75,98834,2,0,P|75:50|80:25,2,50,0|0|0,0:0|0:0|0:0,0:0:0:0:
52,184,99212,6,0,B|166:203,1,100,8|0,0:0|0:0,0:0:0:0:
215,151,99590,1,0,0:0:0:0:
215,151,99968,6,0,P|245:192|237:255,1,100,2|0,0:0|0:0,0:0:0:0:
163,288,100346,2,0,L|82:275,2,50,0|0|0,0:0|0:0|0:0,0:0:0:0:
246,332,100724,21,8,0:0:0:0:
264,338,100850,1,0,0:0:0:0:
284,343,100976,1,0,0:0:0:0:
302,350,101102,2,0,B|320:305|320:305|311:230,1,100,0|0,0:0|0:0,0:0:0:0:
250,180,101480,6,0,B|326:129|331:200|416:136,1,150.000005722046,2|0,0:0|0:0,0:0:0:0:
411,82,101858,1,0,0:0:0:0:
411,82,102236,6,0,L|398:18,2,50,8|0|0,0:0|0:0|0:0,0:0:0:0:
475,159,102614,2,0,L|462:222,1,50,0|0,0:0|0:0,0:0:0:0:
271,345,102992,6,0,B|257:286|257:286|266:221,1,100,2|0,0:0|0:0,0:0:0:0:
286,177,103370,1,0,0:0:0:0:
119,118,103622,1,0,0:0:0:0:
179,161,103748,6,0,B|193:220|193:220|184:285,1,100,8|0,0:0|0:0,0:0:0:0:
149,333,104126,2,0,B|106:323|93:264|93:264|79:314|47:332,1,150.000005722046,0|0,0:0|0:0,0:0:0:0:
18,254,104505,6,0,L|3:183,2,50,6|4|4,0:0|0:0|0:0,0:0:0:0:
97,267,104883,1,0,0:0:0:0:
97,267,105261,22,0,L|82:337,2,50,12|4|4,0:0|0:0|0:0,0:0:0:0:
141,199,105639,1,0,0:0:0:0:
268,76,106017,53,2,0:0:0:0:
295,68,106143,1,0,0:0:0:0:
324,62,106269,1,0,0:0:0:0:
332,110,106395,21,0,0:0:0:0:
359,102,106521,1,0,0:0:0:0:
389,96,106647,1,0,0:0:0:0:
392,149,106773,37,8,0:0:0:0:
420,141,106899,1,0,0:0:0:0:
449,136,107025,1,0,0:0:0:0:
278,297,107529,21,2,0:0:0:0:
250,302,107655,1,0,0:0:0:0:
221,310,107781,1,0,0:0:0:0:
191,317,107907,2,0,L|191:239,2,50,0|0|0,0:0|0:0|0:0,0:0:0:0:
121,350,108285,1,8,0:0:0:0:
149,136,108663,6,0,L|97:128,2,50,2|0|0,0:0|0:0|0:0,0:0:0:0:
256,192,109041,12,0,112065,0:0:0:0:
