osu file format v14

[General]
AudioFilename: audio.mp3
AudioLeadIn: 0
PreviewTime: -1
Countdown: 1
SampleSet: Normal
StackLeniency: 0.7
Mode: 0
LetterboxInBreaks: 0
WidescreenStoryboard: 1

[Editor]
DistanceSpacing: 0.6
BeatDivisor: 8
GridSize: 16
TimelineZoom: 3.199999

[Metadata]
Title:Circles
TitleUnicode:Circles
Artist:KDrew
ArtistUnicode:KDrew
Creator:-Miruku-
Version:NewCircles
Source:
Tags:
BeatmapID:1691096
BeatmapSetID:444516

[Difficulty]
HPDrainRate:5
CircleSize:4
OverallDifficulty:8
ApproachRate:9.7
SliderMultiplier:1.6
SliderTickRate:1

[Events]
//Background and Video events
0,0,"BG.jpg",0,0
//Break Periods
2,13990,26979
2,123704,136693
//Storyboard Layer 0 (Background)
//Storyboard Layer 1 (Fail)
//Storyboard Layer 2 (Pass)
//Storyboard Layer 3 (Foreground)
//Storyboard Sound Samples

[TimingPoints]
76,428.571428571429,4,1,0,100,1,0
76,-166.666666666667,4,1,0,100,0,0
34361,-100,4,1,0,100,0,0
40361,-90.9090909090909,4,1,0,100,0,0
40790,-83.3333333333333,4,1,0,100,0,0
41218,-100,4,1,0,100,0,0
66986,-100,4,1,0,20,0,0
67040,-100,4,1,0,100,0,0
67718,-100,4,1,0,5,0,0
67790,-100,4,1,0,100,0,0
68647,-40,4,1,0,100,0,0
69397,-33.3333333333333,4,1,0,5,0,0
69504,-166.666666666667,4,1,0,100,0,0
70147,-166.666666666667,4,1,0,5,0,0
70361,-33.3333333333333,4,1,0,100,0,0
71111,-33.3333333333333,4,1,0,5,0,0
71218,-166.666666666667,4,1,0,100,0,0
71968,-166.666666666667,4,1,0,5,0,0
72076,-28.5714285714286,4,1,0,100,0,0
72826,-28.5714285714286,4,1,0,5,0,0
72933,-28.5714285714286,4,1,0,100,0,0
73361,-166.666666666667,4,1,0,100,0,0
73683,-166.666666666667,4,1,0,5,0,0
73790,-166.666666666667,4,1,0,100,0,0
75504,-40,4,1,0,100,0,0
76254,-40,4,1,0,5,0,0
76361,-166.666666666667,4,1,0,100,0,0
77111,-166.666666666667,4,1,0,5,0,0
77218,-33.3333333333333,4,1,0,100,0,0
77968,-33.3333333333333,4,1,0,5,0,0
78076,-166.666666666667,4,1,0,100,0,0
78826,-166.666666666667,4,1,0,5,0,0
78933,-28.5714285714286,4,1,0,100,0,0
79683,-28.5714285714286,4,1,0,5,0,0
79790,-28.5714285714286,4,1,0,100,0,0
80218,-166.666666666667,4,1,0,100,0,0
80647,-100,4,1,0,100,0,0
81504,-33.3333333333333,4,1,0,100,0,0
81647,-33.3333333333333,4,1,0,5,0,0
81861,-50,4,1,0,100,0,0
82004,-50,4,1,0,5,0,0
82147,-66.6666666666667,4,1,0,100,0,0
82290,-66.6666666666667,4,1,0,5,0,0
82361,-40,4,1,0,100,0,0
83111,-40,4,1,0,5,0,0
83218,-166.666666666667,4,1,0,100,0,0
83968,-166.666666666667,4,1,0,5,0,0
84076,-33.3333333333333,4,1,0,100,0,0
84826,-33.3333333333333,4,1,0,5,0,0
84933,-166.666666666667,4,1,0,100,0,0
85683,-166.666666666667,4,1,0,5,0,0
85790,-28.5714285714286,4,1,0,100,0,0
86540,-28.5714285714286,4,1,0,5,0,0
86647,-28.5714285714286,4,1,0,100,0,0
87076,-166.666666666667,4,1,0,100,0,0
87397,-166.666666666667,4,1,0,5,0,0
87504,-166.666666666667,4,1,0,100,0,0
89218,-40,4,1,0,100,0,0
89968,-40,4,1,0,5,0,0
90076,-166.666666666667,4,1,0,100,0,0
90826,-166.666666666667,4,1,0,5,0,0
90933,-33.3333333333333,4,1,0,100,0,0
91683,-33.3333333333333,4,1,0,5,0,0
91790,-166.666666666667,4,1,0,100,0,0
92540,-166.666666666667,4,1,0,5,0,0
92647,-28.5714285714286,4,1,0,100,0,0
93397,-28.5714285714286,4,1,0,5,0,0
93504,-28.5714285714286,4,1,0,100,0,0
93933,-166.666666666667,4,1,0,100,0,0
94254,-166.666666666667,4,1,0,50,0,0
94361,-166.666666666667,4,1,0,100,0,0
95218,-33.3333333333333,4,1,0,100,0,0
95361,-33.3333333333333,4,1,0,5,0,0
95576,-50,4,1,0,100,0,0
95718,-50,4,1,0,5,0,0
95861,-66.6666666666667,4,1,0,100,0,0
96004,-66.6666666666667,4,1,0,5,0,0
96076,-45.4545454545455,4,1,0,100,0,0
96433,-45.4545454545455,4,1,0,5,0,0
96504,-45.4545454545455,4,1,0,100,0,0
96861,-45.4545454545455,4,1,0,5,0,0
96933,-45.4545454545455,4,1,0,100,0,0
97718,-45.4545454545455,4,1,0,5,0,0
97790,-45.4545454545455,4,1,0,100,0,0
98290,-45.4545454545455,4,1,0,5,0,0
98361,-45.4545454545455,4,1,0,100,0,0
98433,-45.4545454545455,4,1,0,5,0,0
98504,-45.4545454545455,4,1,0,100,0,0
98576,-45.4545454545455,4,1,0,5,0,0
98647,-45.4545454545455,4,1,0,100,0,0
99004,-45.4545454545455,4,1,0,5,0,0
99076,-45.4545454545455,4,1,0,100,0,0
99433,-45.4545454545455,4,1,0,5,0,0
99504,-45.4545454545455,4,1,0,100,0,0
99861,-45.4545454545455,4,1,0,5,0,0
99933,-45.4545454545455,4,1,0,100,0,0
101147,-45.4545454545455,4,1,0,5,0,0
101218,-45.4545454545455,4,1,0,100,0,0
101576,-45.4545454545455,4,1,0,5,0,0
101647,-66.6666666666667,4,1,0,100,0,0
102076,-45.4545454545455,4,1,0,100,0,0
102147,-45.4545454545455,4,1,0,5,0,0
102218,-45.4545454545455,4,1,0,100,0,0
102290,-45.4545454545455,4,1,0,5,0,0
102361,-45.4545454545455,4,1,0,100,0,0
102433,-45.4545454545455,4,1,0,5,0,0
102504,-45.4545454545455,4,1,0,100,0,0
102861,-45.4545454545455,4,1,0,5,0,0
102933,-41.6666666666667,4,1,0,100,0,0
104076,-41.6666666666667,4,1,0,100,0,0
105933,-66.6666666666667,4,1,0,100,0,0
109361,-50,4,1,0,100,0,0
109790,-40,4,1,0,100,0,0
110147,-40,4,1,0,5,0,0
110218,-40,4,1,0,100,0,0
110576,-40,4,1,0,5,0,0
110647,-40,4,1,0,100,0,0
111076,-50,4,1,0,100,0,0
111433,-50,4,1,0,5,0,0
111504,-33.3333333333333,4,1,0,100,0,0
111861,-33.3333333333333,4,1,0,5,0,0
111933,-45.4545454545455,4,1,0,100,0,0
112004,-45.4545454545455,4,1,0,5,0,0
112076,-45.4545454545455,4,1,0,85,0,0
112147,-45.4545454545455,4,1,0,5,0,0
112218,-45.4545454545455,4,1,0,85,0,0
112290,-45.4545454545455,4,1,0,5,0,0
112361,-33.3333333333333,4,1,0,100,0,0
112718,-33.3333333333333,4,1,0,5,0,0
112790,-66.6666666666667,4,1,0,100,0,0
113147,-66.6666666666667,4,1,0,5,0,0
113218,-45.4545454545455,4,1,0,100,0,0
113576,-45.4545454545455,4,1,0,5,0,0
113647,-45.4545454545455,4,1,0,100,0,0
114861,-45.4545454545455,4,1,0,5,0,0
114933,-35.7142857142857,4,1,0,100,0,0
115290,-45.4545454545455,4,1,0,5,0,0
115361,-66.6666666666667,4,1,0,100,0,0
115718,-45.4545454545455,4,1,0,5,0,0
115790,-45.4545454545455,4,1,0,100,0,0
115861,-45.4545454545455,4,1,0,5,0,0
115933,-45.4545454545455,4,1,0,100,0,0
116004,-45.4545454545455,4,1,0,5,0,0
116076,-45.4545454545455,4,1,0,100,0,0
116147,-45.4545454545455,4,1,0,5,0,0
116218,-45.4545454545455,4,1,0,100,0,0
116576,-45.4545454545455,4,1,0,5,0,0
116647,-38.4615384615385,4,1,0,100,0,0
117004,-38.4615384615385,4,1,0,5,0,0
117076,-41.6666666666667,4,1,0,100,0,0
117290,-41.6666666666667,4,1,0,5,0,0
117361,-35.7142857142857,4,1,0,100,0,0
117433,-35.7142857142857,4,1,0,5,0,0
117504,-35.7142857142857,4,1,0,100,0,0
117718,-35.7142857142857,4,1,0,5,0,0
117790,-35.7142857142857,4,1,0,100,0,0
117861,-35.7142857142857,4,1,0,5,0,0
117861,-35.7142857142857,4,1,0,5,0,0
117933,-35.7142857142857,4,1,0,100,0,0
118290,-35.7142857142857,4,1,0,5,0,0
118361,-35.7142857142857,4,1,0,100,0,0
119647,-66.6666666666667,4,1,0,100,0,0
120004,-66.6666666666667,4,1,0,5,0,0
120076,-66.6666666666667,4,1,0,100,0,0
123076,-66.6666666666667,4,1,0,100,0,0
123147,-33.3333333333333,4,1,0,5,0,0
123218,-50,4,1,0,100,0,0
123290,-33.3333333333333,4,1,0,5,0,0
123361,-33.3333333333333,4,1,0,100,0,0
123433,-33.3333333333333,4,1,0,5,0,0
123504,-33.3333333333333,4,1,0,100,0,0
144076,-100,4,1,0,100,0,0
144397,-100,4,1,0,5,0,0
144504,-80,4,1,0,100,0,0
144826,-80,4,1,0,5,0,0
144933,-66.6666666666667,4,1,0,100,0,0
145254,-66.6666666666667,4,1,0,5,0,0
145361,-57.1428571428571,4,1,0,100,0,0
145683,-57.1428571428571,4,1,0,5,0,0
145790,-50,4,1,0,100,0,0
146111,-50,4,1,0,5,0,0
146218,-44.4444444444445,4,1,0,100,0,0
146540,-44.4444444444445,4,1,0,5,0,0
146647,-40,4,1,0,100,0,0
146968,-40,4,1,0,5,0,0
147076,-36.3636363636364,4,1,0,100,0,0
147504,-33.3333333333333,4,1,0,100,0,0
148361,-25,4,1,0,100,0,0
149004,-66.6666666666667,4,1,0,100,0,0

[HitObjects]
139,296,76,6,0,P|193:319|227:216,1,191.999994140625
124,117,1361,5,0,0:0:0:0:
77,305,1790,1,0,0:0:0:0:
425,265,2218,5,0,0:0:0:0:
397,156,2433,1,0,0:0:0:0:
77,305,3076,5,0,0:0:0:0:
124,117,3504,6,0,P|209:126|196:211,1,191.999994140625
137,268,4576,1,0,0:0:0:0:
147,348,4790,1,0,0:0:0:0:
221,379,5004,1,0,0:0:0:0:
321,245,5218,6,0,P|289:280|284:330,1,95.9999970703126
321,245,6076,5,0,0:0:0:0:
354,172,6290,1,0,0:0:0:0:
346,92,6504,1,0,0:0:0:0:
299,26,6718,1,0,0:0:0:0:
487,81,6933,5,0,0:0:0:0:
487,81,7790,5,0,0:0:0:0:
445,272,8218,5,0,0:0:0:0:
255,230,8647,1,0,0:0:0:0:
297,39,9076,5,0,0:0:0:0:
278,129,9290,1,0,0:0:0:0:
234,332,9933,5,0,0:0:0:0:
94,72,10361,6,0,P|179:81|166:166,1,191.999994140625
107,224,11433,1,0,0:0:0:0:
186,240,11647,1,0,0:0:0:0:
265,256,11861,1,0,0:0:0:0:
374,152,12076,6,0,L|272:130,1,95.9999970703126
347,34,12933,5,0,0:0:0:0:
280,131,13361,5,0,0:0:0:0:
213,228,13790,5,0,0:0:0:0:
64,192,27504,5,0,0:0:0:0:
64,192,28147,5,0,0:0:0:0:
82,114,28254,1,0,0:0:0:0:
100,36,28361,1,0,0:0:0:0:
396,36,28790,5,0,0:0:0:0:
432,192,29004,1,0,0:0:0:0:
64,192,29218,5,0,0:0:0:0:
396,326,29861,5,0,0:0:0:0:
432,192,30076,1,0,0:0:0:0:
64,192,30933,1,0,0:0:0:0:
64,192,31576,5,0,0:0:0:0:
82,270,31683,1,0,0:0:0:0:
100,348,31790,1,0,0:0:0:0:
118,270,32004,5,0,0:0:0:0:
136,192,32219,1,0,0:0:0:0:
154,114,32433,1,0,0:0:0:0:
100,348,32647,1,0,0:0:0:0:
154,114,33290,5,0,0:0:0:0:
159,131,33343,1,0,0:0:0:0:
164,148,33397,1,0,0:0:0:0:
169,165,33451,1,0,0:0:0:0:
174,182,33504,2,0,L|192:234,1,47.9999985351563
352,286,33933,2,0,L|334:234,1,47.9999985351563
66,98,34361,6,0,P|117:38|201:45,1,160
372,178,35004,1,0,0:0:0:0:
276,229,35111,1,0,0:0:0:0:
173,283,35218,1,0,0:0:0:0:
256,64,36076,5,0,0:0:0:0:
89,207,36504,1,0,0:0:0:0:
173,283,36718,1,0,0:0:0:0:
276,229,36933,2,0,P|299:194|302:145,2,80
173,283,37576,1,0,0:0:0:0:
124,165,37790,2,0,P|61:220|49:316,1,160
308,299,38433,5,0,0:0:0:0:
324,268,38540,1,0,0:0:0:0:
319,187,38647,5,0,0:0:0:0:
319,187,39076,5,0,0:0:0:0:
211,50,39290,5,0,0:0:0:0:
229,53,39343,1,0,0:0:0:0:
247,56,39397,1,0,0:0:0:0:
265,59,39451,1,0,0:0:0:0:
283,62,39504,1,0,0:0:0:0:
199,210,39718,6,0,P|177:246|175:293,2,80
298,144,40361,2,0,P|346:135|387:152,1,88.000002685547
399,332,40790,2,0,P|367:313|338:256,1,95.9999970703126
452,41,41218,6,0,L|429:124,1,80
352,64,41647,2,0,L|329:147,1,80
252,87,42076,2,0,L|229:170,1,80
152,110,42504,2,0,L|129:193,1,80
383,343,42933,6,0,P|415:301|414:265,1,80
299,195,43361,2,0,P|306:247|332:272,1,80
366,70,43790,2,0,P|324:37|288:38,1,80
157,162,44218,2,0,P|209:154|234:128,1,80
41,33,44647,2,0,L|56:89,2,40
139,228,45076,5,0,0:0:0:0:
145,206,45504,1,0,0:0:0:0:
151,184,45933,1,0,0:0:0:0:
157,162,46361,1,0,0:0:0:0:
229,61,46576,5,0,0:0:0:0:
325,98,46790,1,0,0:0:0:0:
421,135,47004,1,0,0:0:0:0:
342,202,47218,5,0,0:0:0:0:
378,298,47432,1,0,0:0:0:0:
274,286,47647,5,0,0:0:0:0:
216,370,47861,1,0,0:0:0:0:
37,208,48076,6,0,B|69:261|69:261|96:230,1,80
110,74,48504,2,0,B|95:134|95:134|136:131,1,80
257,32,48933,2,0,B|204:64|204:64|235:91,1,80
390,106,49361,2,0,B|329:91|329:91|332:132,1,80
411,205,49790,6,0,P|458:214|497:197,1,80
313,282,50218,2,0,P|349:313|390:318,1,80
188,301,50647,2,0,P|202:346|236:372,1,80
71,254,51076,2,0,P|61:301|77:339,1,80
304,244,51504,6,0,L|286:205,2,40
446,39,51933,5,0,0:0:0:0:
438,69,52361,1,0,0:0:0:0:
430,99,52790,1,0,0:0:0:0:
422,129,53218,1,0,0:0:0:0:
456,327,53433,5,0,0:0:0:0:
352,265,53647,1,0,0:0:0:0:
221,325,53861,5,0,0:0:0:0:
191,207,54075,1,0,0:0:0:0:
52,166,54290,5,0,0:0:0:0:
115,61,54504,5,0,0:0:0:0:
191,207,54718,1,0,0:0:0:0:
267,353,54933,5,0,0:0:0:0:
314,349,55040,1,0,0:0:0:0:
359,333,55147,1,0,0:0:0:0:
395,301,55254,1,0,0:0:0:0:
421,260,55361,1,0,0:0:0:0:
434,214,55468,1,0,0:0:0:0:
434,165,55576,1,0,0:0:0:0:
422,118,55683,1,0,0:0:0:0:
357,31,55790,5,0,0:0:0:0:
315,55,55897,1,0,0:0:0:0:
297,99,56004,1,0,0:0:0:0:
316,142,56111,1,0,0:0:0:0:
330,187,56218,1,0,0:0:0:0:
310,231,56326,1,0,0:0:0:0:
267,252,56433,1,0,0:0:0:0:
219,245,56540,1,0,0:0:0:0:
205,146,56647,5,0,0:0:0:0:
248,165,56754,1,0,0:0:0:0:
269,207,56861,1,0,0:0:0:0:
267,254,56968,1,0,0:0:0:0:
248,298,57076,1,0,0:0:0:0:
206,321,57183,1,0,0:0:0:0:
158,321,57290,1,0,0:0:0:0:
113,304,57397,1,0,0:0:0:0:
31,338,57504,5,0,0:0:0:0:
23,290,57611,1,0,0:0:0:0:
43,246,57718,1,0,0:0:0:0:
78,213,57826,1,0,0:0:0:0:
124,201,57933,1,0,0:0:0:0:
170,212,58040,1,0,0:0:0:0:
206,242,58147,1,0,0:0:0:0:
224,286,58254,1,0,0:0:0:0:
279,210,58361,5,0,0:0:0:0:
298,253,58468,1,0,0:0:0:0:
330,288,58576,1,0,0:0:0:0:
376,299,58683,1,0,0:0:0:0:
423,292,58790,1,0,0:0:0:0:
455,256,58897,1,0,0:0:0:0:
461,208,59004,1,0,0:0:0:0:
449,161,59111,1,0,0:0:0:0:
403,47,59218,5,0,0:0:0:0:
393,94,59326,1,0,0:0:0:0:
369,135,59433,1,0,0:0:0:0:
334,168,59540,1,0,0:0:0:0:
287,179,59647,1,0,0:0:0:0:
239,180,59754,1,0,0:0:0:0:
192,170,59861,1,0,0:0:0:0:
150,146,59968,1,0,0:0:0:0:
81,82,60076,5,0,0:0:0:0:
122,57,60183,1,0,0:0:0:0:
169,57,60290,1,0,0:0:0:0:
213,75,60397,1,0,0:0:0:0:
243,112,60504,1,0,0:0:0:0:
244,159,60611,1,0,0:0:0:0:
225,203,60718,1,0,0:0:0:0:
191,237,60826,1,0,0:0:0:0:
116,313,60933,5,0,0:0:0:0:
154,283,61040,1,0,0:0:0:0:
201,291,61147,1,0,0:0:0:0:
236,323,61254,1,0,0:0:0:0:
276,347,61361,1,0,0:0:0:0:
322,334,61468,1,0,0:0:0:0:
347,293,61576,1,0,0:0:0:0:
340,245,61683,1,0,0:0:0:0:
272,255,61790,5,0,0:0:0:0:
227,239,61897,1,0,0:0:0:0:
181,224,62004,1,0,0:0:0:0:
135,209,62111,1,0,0:0:0:0:
181,224,62218,5,0,0:0:0:0:
197,179,62325,1,0,0:0:0:0:
212,133,62432,1,0,0:0:0:0:
227,87,62539,1,0,0:0:0:0:
212,133,62647,5,0,0:0:0:0:
257,149,62754,1,0,0:0:0:0:
303,164,62861,1,0,0:0:0:0:
349,179,62968,1,0,0:0:0:0:
303,164,63076,5,0,0:0:0:0:
287,209,63183,1,0,0:0:0:0:
272,255,63290,1,0,0:0:0:0:
257,301,63397,1,0,0:0:0:0:
196,348,63504,5,0,0:0:0:0:
151,332,63611,1,0,0:0:0:0:
104,317,63718,1,0,0:0:0:0:
59,302,63825,1,0,0:0:0:0:
25,233,63933,5,0,0:0:0:0:
41,188,64040,1,0,0:0:0:0:
56,142,64147,1,0,0:0:0:0:
71,96,64254,1,0,0:0:0:0:
134,57,64361,5,0,0:0:0:0:
179,73,64468,1,0,0:0:0:0:
226,88,64575,1,0,0:0:0:0:
271,103,64682,1,0,0:0:0:0:
303,164,64790,5,0,0:0:0:0:
287,209,64897,1,0,0:0:0:0:
272,255,65004,1,0,0:0:0:0:
257,301,65111,1,0,0:0:0:0:
182,305,65218,5,0,0:0:0:0:
117,267,65326,1,0,0:0:0:0:
182,229,65433,1,0,0:0:0:0:
193,346,65540,1,0,0:0:0:0:
65,282,65648,1,0,0:0:0:0:
190,200,65861,5,0,0:0:0:0:
402,111,66075,5,0,0:0:0:0:
328,71,66183,1,0,0:0:0:0:
332,154,66290,1,0,0:0:0:0:
474,149,66397,1,0,0:0:0:0:
255,33,66504,1,0,0:0:0:0:
255,33,66718,5,0,0:0:0:0:
223,49,66772,1,0,0:0:0:0:
190,68,66825,1,0,0:0:0:0:
158,86,66879,1,0,0:0:0:0:
125,106,66933,2,0,L|98:120,1,20
256,192,67040,12,0,67718,0:0:0:0:
256,192,67790,5,0,0:0:0:0:
378,166,68647,6,0,B|454:221|420:288|382:358|358:392|142:325|193:174|261:240|331:116|306:27|135:-28|79:75,1,700
32,210,69504,2,0,P|112:194|159:127,1,167.999994873047
32,210,70361,6,0,B|24:340|171:376|268:343|304:125|159:218|188:61|428:17|534:67|523:312|406:366|287:304,1,840.000032043458
349,220,71218,2,2,P|272:150|195:146,1,179.999994506836
200,145,72076,6,0,B|162:141|116:198|168:273|245:296|329:201|395:134|346:-37|167:-74|49:21|-44:133|7:284|110:336|203:365|302:324|389:205|334:87,1,980.000009346008
300,30,72933,5,0,0:0:0:0:
392,236,73076,1,0,0:0:0:0:
300,30,73218,1,0,0:0:0:0:
392,236,73361,2,0,P|406:269|392:319,1,71.9999978027344
325,340,73790,5,0,0:0:0:0:
151,184,73933,1,0,0:0:0:0:
375,111,74075,1,0,0:0:0:0:
325,340,74218,2,0,P|303:368|256:382,1,71.9999978027344
83,143,74647,5,0,0:0:0:0:
214,293,74790,1,0,0:0:0:0:
188,51,74932,1,0,0:0:0:0:
126,353,75075,2,0,P|90:343|64:320,1,63.9999980468751
233,354,75504,6,0,B|315:337|485:325|478:32|407:-21|186:18|114:90|200:277|316:265|341:218,1,700
303,155,76361,2,0,P|274:124|155:138,1,167.999994873047
344,343,77218,6,0,P|411:224|54:280,1,840.000032043458
218,326,78076,2,0,P|271:291|282:185,1,167.999994873047
154,53,78933,6,0,B|55:18|-84:118|-19:341|265:383|259:195|243:48|488:36|548:225|520:336|446:365|332:391|273:347|218:114,1,1050.00001001358
224,42,79790,5,0,0:0:0:0:
208,323,79933,1,0,0:0:0:0:
363,256,80076,1,0,0:0:0:0:
113,179,80218,2,0,P|88:204|80:256,1,63.9999980468751
243,330,80647,6,0,L|271:297,1,26.6666666666667
398,138,80790,2,0,L|351:132,1,26.6666666666667
155,99,80933,2,0,L|179:137,1,26.6666666666667
329,359,81076,2,0,L|336:318,1,26.6666666666667
380,39,81218,2,0,L|345:55,1,26.6666666666667
77,154,81361,2,0,L|112:172,1,26.6666666666667
418,266,81504,6,0,P|457:195|458:107,1,160.000006103516
183,36,81861,6,0,P|144:107|141:175,1,106.666666666667
96,288,82147,2,2,P|77:247|74:195,1,80.0000030517579
96,288,82361,6,0,P|280:344|106:84,1,700
89,134,83218,2,0,P|119:185|221:189,1,167.999994873047
352,56,84076,6,0,B|471:0|625:165|574:270|439:417|325:371|210:297|201:218|357:119|217:103|150:76|103:99|70:151,1,840.000032043458
38,304,84933,2,0,P|110:274|149:196,1,167.999994873047
135,73,85790,6,0,B|34:50|-52:116|-114:303|52:427|240:358|344:264|317:167|-61:36|290:-48|458:26|521:50|472:207|432:252,1,980.000009346008
331,304,86647,5,0,0:0:0:0:
123,218,86790,1,0,0:0:0:0:
208,10,86933,1,0,0:0:0:0:
416,96,87076,2,0,P|438:135|432:167,1,71.9999978027344
274,311,87504,5,0,0:0:0:0:
155,156,87647,1,0,0:0:0:0:
310,37,87790,1,0,0:0:0:0:
429,192,87933,2,0,P|428:231|406:264,1,71.9999978027344
213,286,88361,5,0,0:0:0:0:
189,115,88504,1,0,0:0:0:0:
361,92,88647,1,0,0:0:0:0:
384,262,88790,2,0,P|370:302|338:334,1,71.9999978027344
41,259,89218,6,0,P|130:320|71:54,1,700
103,221,90076,2,0,P|170:254|239:199,1,167.999994873047
246,121,90933,6,0,B|190:36|302:-117|499:48|461:228|274:125|237:236|234:330|322:490|555:469|561:188|398:218,1,840.000032043458
200,220,91790,2,0,P|156:293|205:349,1,167.999994873047
323,263,92647,6,0,B|378:151|298:7|260:-39|95:-28|11:52|-59:168|-47:257|122:497|380:368|328:96|248:40|83:122|156:183,1,980.000009346008
143,356,93504,5,0,0:0:0:0:
327,329,93647,1,0,0:0:0:0:
511,302,93790,1,0,0:0:0:0:
390,36,93933,2,0,P|368:68|367:100,1,71.9999978027344
407,305,94361,6,0,L|381:291,1,15.9999995117188
264,342,94504,2,0,L|262:313,1,15.9999995117188
161,237,94647,2,0,L|185:221,1,15.9999995117188
109,333,94790,6,0,L|92:344,1,15.9999995117188
38,178,94933,2,0,L|19:169,1,15.9999995117188
138,35,95076,2,0,L|129:9,1,15.9999995117188
332,95,95218,6,0,P|412:123|491:107,1,160.000006103516
231,166,95576,6,0,P|174:189|125:174,1,106.666666666667
327,272,95861,2,0,P|305:312|294:365,1,80.0000030517579
370,207,96076,6,0,B|421:149|421:149|473:273|382:350,1,293.333342285157
214,209,96504,6,0,B|121:143|162:15|162:15|218:68,1,293.333342285157
361,168,96933,5,0,0:0:0:0:
214,209,97076,1,0,0:0:0:0:
67,250,97218,1,0,0:0:0:0:
173,333,97361,2,0,B|245:389|308:333|308:333|319:233|404:191,1,293.333342285157
480,265,97790,6,0,P|507:336|420:272,1,234.666673828125
345,182,98218,2,0,L|340:121,1,58.6666684570313
470,27,98361,2,0,L|465:88,1,58.6666684570313
345,182,98504,2,0,L|340:121,1,58.6666684570313
227,95,98647,2,0,P|145:157|242:121,1,293.333342285157
82,38,99076,2,0,P|46:153|174:278,1,293.333342285157
302,247,99504,6,0,B|341:235|386:252|386:252|360:337|217:350,1,293.333342285157
102,346,99933,1,0,0:0:0:0:
140,198,100076,1,0,0:0:0:0:
265,112,100218,1,0,0:0:0:0:
500,250,100361,5,0,0:0:0:0:
390,185,100504,1,0,0:0:0:0:
267,208,100646,1,0,0:0:0:0:
390,185,100790,2,0,P|407:89|241:41,1,293.333342285157
241,158,101218,6,0,B|253:266|187:346|187:346|147:302|148:252,1,293.333342285157
119,152,101647,6,0,P|71:100|75:184,1,200.000007629395
187,339,102076,6,0,L|276:311,1,58.6666684570313
475,278,102218,2,0,L|386:250,1,58.6666684570313
209,167,102361,2,0,L|298:139,1,58.6666684570313
443,77,102504,2,4,P|358:39|442:81,1,293.333342285157
485,157,102933,6,0,P|377:193|270:98,1,255.9999921875
258,40,103290,1,0,0:0:0:0:
258,40,103361,2,0,P|257:159|169:211,1,191.999994140625
33,151,103647,2,0,P|90:108|168:112,2,127.99999609375,0|0|0,0:0|0:0|0:0,3:0:0:0:
253,313,104076,2,0,P|243:242|185:189,2,127.99999609375,0|0|0,0:0|0:0|0:0,3:0:0:0:
166,351,104504,1,0,0:0:0:0:
103,311,104647,5,0,0:0:0:0:
323,346,104790,1,0,0:0:0:0:
428,187,104933,1,0,0:0:0:0:
255,29,105076,2,0,B|128:117|152:236|195:317|354:279|331:144|246:120|193:112,1,383.99998828125
30,43,105647,5,0,0:0:0:0:
53,168,105790,1,0,0:0:0:0:
76,293,105933,2,0,P|134:263|76:279,1,160.000006103516
225,336,106361,5,0,0:0:0:0:
343,318,106504,1,0,0:0:0:0:
414,221,106647,1,0,0:0:0:0:
225,336,106790,5,0,0:0:0:0:
309,220,106933,1,0,0:0:0:0:
286,77,107076,1,0,0:0:0:0:
225,336,107218,5,0,0:0:0:0:
196,166,107361,1,0,0:0:0:0:
56,64,107504,1,0,0:0:0:0:
72,180,108076,5,0,0:0:0:0:
221,88,108218,1,0,0:0:0:0:
382,159,108361,1,0,0:0:0:0:
313,321,108504,5,0,0:0:0:0:
289,145,108647,1,0,0:0:0:0:
440,54,108790,2,0,L|442:73,1,20.0000007629395
475,357,108933,1,0,0:0:0:0:
208,136,109361,6,0,P|178:92|179:30,2,106.666666666667
354,211,109790,6,0,B|395:233|453:214|453:214|407:89|271:78,1,333.333333333333
164,66,110218,2,0,B|118:53|65:84|65:84|139:196|273:176,1,333.333333333333
461,73,110647,5,0,0:0:0:0:
313,71,110790,1,0,0:0:0:0:
237,198,110933,1,0,0:0:0:0:
308,326,111076,2,0,P|380:271|300:319,1,266.666666666667
437,348,111504,6,0,P|443:240|222:254,1,400.00001525879
135,351,111933,6,0,L|114:288,1,58.6666684570313
8,232,112076,2,0,L|37:172,1,58.6666684570313
45,50,112218,2,0,L|108:29,1,58.6666684570313
307,26,112361,6,0,B|359:54|379:94|379:94|301:26|216:59|164:125|187:205,1,400.00001525879
244,335,112790,6,0,P|307:295|239:326,1,200.000007629395,0|0,2:0|2:0,2:0:0:0:
412,348,113218,6,0,B|436:279|436:279|499:279|523:216|498:158|429:153|429:153|409:174,1,293.333342285157
244,335,113647,5,0,0:0:0:0:
85,218,113790,1,0,0:0:0:0:
118,24,113933,1,0,0:0:0:0:
85,218,114076,5,0,0:0:0:0:
216,145,114219,1,0,0:0:0:0:
356,200,114362,1,0,0:0:0:0:
468,98,114504,2,0,P|393:62|207:162,1,293.333342285157
200,289,114933,6,0,B|211:333|253:357|253:357|205:252|298:181|352:184|418:221,1,373.333321940105
384,310,115361,6,0,P|314:322|376:282,1,200.000007629395
439,328,115790,6,0,L|362:303,1,58.6666684570313
86,285,115933,2,0,L|163:260,1,58.6666684570313
367,227,116076,2,0,L|290:202,1,58.6666684570313
70,99,116218,6,0,B|39:88|39:88|-12:184|91:266|180:201,1,293.333342285157
289,102,116647,6,0,B|313:58|315:15|315:15|281:30|227:78|239:185|268:260,1,346.666650797527
352,338,117076,2,0,B|377:355|414:351|414:351|417:310|387:274|334:264,1,191.999994140625
117,232,117361,6,0,P|84:241|48:273,1,74.6666643880209
143,338,117504,2,0,P|212:308|270:174,1,223.999993164063
166,49,117790,6,0,P|166:91|194:136,1,74.6666643880209
361,199,117933,2,0,P|440:185|318:156,1,373.333321940105
273,285,118361,5,0,0:0:0:0:
143,338,118504,1,0,0:0:0:0:
236,161,118647,1,0,0:0:0:0:
425,228,118790,2,0,B|466:242|467:311|351:327|317:277|308:186|357:149|406:114|442:154|445:175|479:170|504:148|503:124,1,373.333321940105
511,31,119218,5,0,0:0:0:0:
353,51,119361,1,0,0:0:0:0:
195,71,119504,1,0,0:0:0:0:
37,91,119647,2,0,P|-6:125|53:98,1,200.000007629395
36,260,120076,5,0,0:0:0:0:
150,332,120218,1,0,0:0:0:0:
284,311,120361,1,0,0:0:0:0:
417,355,120504,5,0,0:0:0:0:
384,209,120646,1,0,0:0:0:0:
263,121,120789,1,0,0:0:0:0:
176,0,120933,5,0,0:0:0:0:
88,137,121075,1,0,0:0:0:0:
115,298,121218,1,0,0:0:0:0:
359,333,121790,5,0,0:0:0:0:
431,219,121932,1,0,0:0:0:0:
410,85,122075,1,0,0:0:0:0:
199,366,122218,5,0,0:0:0:0:
99,206,122360,1,0,0:0:0:0:
122,17,122504,2,0,L|149:28,1,20.0000007629395
410,85,122647,1,0,0:0:0:0:
171,267,123076,6,0,P|180:238|210:217,1,40.000001525879
355,149,123218,2,0,P|328:145|298:158,1,53.3333333333333
89,273,123361,2,0,P|113:229|152:209,1,80.0000030517579
448,130,123504,1,0,0:0:0:0:
111,152,137218,5,0,0:0:0:0:
195,67,137433,1,0,0:0:0:0:
80,37,137647,1,0,0:0:0:0:
99,220,138076,5,0,0:0:0:0:
111,152,138183,1,0,0:0:0:0:
179,142,138290,1,0,0:0:0:0:
209,204,138397,1,0,0:0:0:0:
160,250,138504,1,0,0:0:0:0:
68,319,138826,5,0,0:0:0:0:
68,319,138933,1,0,0:0:0:0:
212,54,139361,5,0,0:0:0:0:
381,156,139790,5,0,0:0:0:0:
350,234,139897,1,0,0:0:0:0:
391,127,140004,1,0,0:0:0:0:
337,268,140111,1,0,0:0:0:0:
366,194,140218,1,0,0:0:0:0:
305,342,140540,5,0,0:0:0:0:
305,342,140647,1,0,0:0:0:0:
391,127,141076,5,0,0:0:0:0:
226,54,141504,5,0,0:0:0:0:
255,132,141611,1,0,0:0:0:0:
227,211,141718,1,0,0:0:0:0:
159,262,141826,1,0,0:0:0:0:
75,262,141933,1,0,0:0:0:0:
226,54,142147,5,0,0:0:0:0:
288,30,142254,1,0,0:0:0:0:
351,53,142361,1,0,0:0:0:0:
337,270,142790,5,0,0:0:0:0:
52,228,143218,5,0,0:0:0:0:
70,298,143326,1,0,0:0:0:0:
140,280,143433,1,0,0:0:0:0:
122,210,143540,1,0,0:0:0:0:
80,189,143647,5,0,0:0:0:0:
161,237,143754,1,0,0:0:0:0:
114,320,143861,1,0,0:0:0:0:
33,270,143969,1,0,0:0:0:0:
80,189,144076,6,0,P|131:146|206:132,1,120
293,164,144504,2,0,P|233:135|150:137,1,150
198,133,144933,6,0,P|263:144|336:229,1,180.000006866455
337,335,145361,2,0,P|340:239|253:141,1,210.000002002716
119,102,145790,6,0,B|88:85|46:109|46:109|105:171|208:127,1,240,0|0,3:0|3:0,3:0:0:0:
330,88,146218,2,0,B|367:54|376:15|376:15|278:50|299:204,1,270.000010299683
333,313,146647,2,0,B|360:357|397:362|397:362|374:260|280:243|200:284,1,300
70,289,147076,2,0,B|11:301|49:424|220:289|-5:296|136:172,1,220.000002098084
144,126,147397,1,0,0:0:0:0:
213,42,147504,6,0,P|269:15|335:28,1,120.000004577637
382,223,147718,2,0,P|323:202|285:145,1,120.000004577637
293,40,147933,2,0,P|355:45|406:90,1,120.000004577637
349,281,148147,2,0,P|309:234|305:166,1,120.000004577637
158,79,148361,6,0,P|126:106|117:155,1,80
178,249,148468,2,0,P|210:222|218:172,1,80
96,89,148576,2,0,P|81:128|99:175,1,80
198,226,148683,2,0,P|212:186|194:139,1,80
52,122,148790,2,0,P|59:163|97:195,1,80
309,330,149004,5,0,0:0:0:0:
278,333,149058,1,0,0:0:0:0:
247,336,149111,1,0,0:0:0:0:
216,339,149165,1,0,0:0:0:0:
185,342,149218,2,0,L|147:346,1,30.0000011444092
