osu file format v14

[General]
AudioFilename: audio.mp3
AudioLeadIn: 0
PreviewTime: -1
Countdown: 1
SampleSet: Normal
StackLeniency: 0.7
Mode: 0
LetterboxInBreaks: 0
WidescreenStoryboard: 0

[Editor]
DistanceSpacing: 1
BeatDivisor: 4
GridSize: 8
TimelineZoom: 2.5

[Metadata]
Title:Circles
TitleUnicode:Circles
Artist:KDrew
ArtistUnicode:KDrew
Creator:-Miruku-
Version:Circles
Source:
Tags:
BeatmapID:954983
BeatmapSetID:444516

[Difficulty]
HPDrainRate:5
CircleSize:4
OverallDifficulty:8
ApproachRate:9.5
SliderMultiplier:1.6
SliderTickRate:1

[Events]
//Background and Video events
0,0,"BG.jpg",0,0
//Break Periods
2,13990,26894
2,45061,47466
2,51918,54323
2,123704,136693
//Storyboard Layer 0 (Background)
//Storyboard Layer 1 (Fail)
//Storyboard Layer 2 (Pass)
//Storyboard Layer 3 (Foreground)
//Storyboard Sound Samples

[TimingPoints]
76,428.571428571429,4,1,0,100,1,0
6923,-200,4,1,0,100,0,0
12923,-100,4,1,0,100,0,0
41208,-66.6666666666667,4,1,0,100,0,0
49780,-200,4,1,0,100,0,0
49880,-66.6666666666667,4,1,0,100,0,0
68647,-55.5555555555556,4,1,0,100,0,0
72076,-50,4,1,0,100,0,0
73361,-200,4,1,0,100,0,0
75504,-55.5555555555556,4,1,0,100,0,0
78933,-50,4,1,0,100,0,0
82361,-55.5555555555556,4,1,0,100,0,0
85790,-50,4,1,0,100,0,0
87076,-200,4,1,0,100,0,0
89218,-50,4,1,0,100,0,0
90076,-66.6666666666667,4,1,0,100,0,0
90504,-50,4,1,0,5,0,0
90933,-50,4,1,0,100,0,0
91790,-66.6666666666667,4,1,0,100,0,0
92218,-50,4,1,0,5,0,0
92647,-50,4,1,0,100,0,0

[HitObjects]
256,192,76,5,0,0:0:0:0:
72,160,1361,1,0,0:0:0:0:
192,112,1790,1,0,0:0:0:0:
176,240,2218,1,0,0:0:0:0:
296,216,2433,1,0,0:0:0:0:
408,112,3076,1,0,0:0:0:0:
176,64,3504,1,0,0:0:0:0:
80,136,4361,6,0,P|80:192|104:224,1,79.9999999999999
152,160,4790,2,0,P|184:128|192:96,1,79.9999999999999
192,24,5218,1,0,0:0:0:0:
112,224,6076,5,0,0:0:0:0:
224,192,6290,1,0,0:0:0:0:
144,96,6504,1,0,0:0:0:0:
256,56,6718,1,0,0:0:0:0:
360,112,6933,2,0,B|392:160|368:296|304:328,1,240
192,288,8647,1,0,0:0:0:0:
128,184,9076,2,0,P|112:152|112:144,1,40
264,48,9933,2,0,L|352:24,1,79.9999999999999
192,264,11218,5,0,0:0:0:0:
304,176,11433,1,0,0:0:0:0:
176,120,11647,1,0,0:0:0:0:
304,56,11861,1,0,0:0:0:0:
160,48,12076,2,0,B|96:64|80:112|88:160|128:176,1,160
160,216,13361,1,0,0:0:0:0:
256,192,13790,1,0,0:0:0:0:
72,104,27504,5,0,0:0:0:0:
168,248,28147,1,0,0:0:0:0:
184,256,28254,1,0,0:0:0:0:
208,256,28361,1,0,0:0:0:0:
192,128,28790,1,0,0:0:0:0:
320,72,29004,1,0,0:0:0:0:
304,200,29218,1,0,0:0:0:0:
248,112,29647,2,0,P|232:96|176:88,1,79.9999999999999
208,176,30076,2,0,P|224:224|264:240,1,79.9999999999999
336,224,30504,2,0,P|296:248|288:288,1,79.9999999999999
152,72,30933,5,0,0:0:0:0:
176,192,31576,1,0,0:0:0:0:
200,192,31683,1,0,0:0:0:0:
224,192,31790,2,0,P|272:184|304:160,1,79.9999999999999
328,64,32218,1,0,0:0:0:0:
224,96,32433,1,0,0:0:0:0:
312,160,32647,1,0,0:0:0:0:
104,112,33290,6,0,L|152:96,3,26.6666666666666
224,80,33933,1,0,0:0:0:0:
368,96,34361,2,0,B|416:128|432:192|400:248|368:272|312:288,1,240
312,288,35111,1,0,0:0:0:0:
288,288,35218,1,0,0:0:0:0:
136,280,36076,5,0,0:0:0:0:
144,144,36504,1,0,0:0:0:0:
240,56,36718,1,0,0:0:0:0:
256,176,36933,1,0,0:0:0:0:
352,112,37790,1,0,0:0:0:0:
432,200,38433,2,0,P|456:232|456:248,2,40
336,120,39076,5,0,0:0:0:0:
192,64,39290,2,0,L|168:72,4,20
128,88,41218,6,0,P|88:144|120:208,1,120.000004577637
200,104,41647,2,0,P|235:45|199:-16,1,120.000004577637
221,212,42076,2,0,P|216:281|276:319,1,120.000004577637
291,189,42505,2,0,P|292:120|229:86,1,120.000004577637
160,53,42933,1,0,0:0:0:0:
66,146,43147,1,0,0:0:0:0:
160,240,43361,1,0,0:0:0:0:
253,146,43576,1,0,0:0:0:0:
320,256,43790,2,0,P|368:296|416:272,1,120.000004577637
264,216,44218,2,0,P|209:246|214:299,1,120.000004577637
320,184,44647,2,0,P|350:129|317:86,1,120.000004577637
168,112,48076,6,0,P|224:72|272:80,1,120.000004577637
376,96,48504,2,0,P|308:84|268:112,1,120.000004577637,0|0,0:0|0:0,2:0:0:0:
176,176,48933,2,0,P|232:136|280:144,1,120.000004577637
384,160,49361,2,0,P|316:148|276:176,1,120.000004577637,0|0,0:0|0:0,2:0:0:0:
288,264,49790,2,0,B|264:296|208:304|136:256|136:256|184:224|208:192|200:136|168:120,1,320
168,104,51611,1,0,0:0:0:0:
136,80,51718,1,0,0:0:0:0:
88,272,54933,5,0,0:0:0:0:
64,240,55040,1,0,0:0:0:0:
72,200,55147,1,0,0:0:0:0:
112,192,55254,1,0,0:0:0:0:
152,184,55361,1,0,0:0:0:0:
168,144,55468,1,0,0:0:0:0:
144,104,55576,1,0,0:0:0:0:
168,64,55683,1,0,0:0:0:0:
264,56,55790,5,0,0:0:0:0:
296,32,55897,1,0,0:0:0:0:
336,56,56004,1,0,0:0:0:0:
328,96,56111,1,0,0:0:0:0:
344,136,56218,1,0,0:0:0:0:
384,144,56326,1,0,0:0:0:0:
416,120,56433,1,0,0:0:0:0:
456,128,56540,1,0,0:0:0:0:
496,224,56647,5,0,0:0:0:0:
488,264,56754,1,0,0:0:0:0:
456,288,56861,1,0,0:0:0:0:
424,264,56968,1,0,0:0:0:0:
416,224,57076,1,0,0:0:0:0:
384,200,57183,1,0,0:0:0:0:
344,208,57290,1,0,0:0:0:0:
336,248,57397,1,0,0:0:0:0:
328,344,57504,5,0,0:0:0:0:
288,360,57611,1,0,0:0:0:0:
256,328,57718,1,0,0:0:0:0:
264,288,57826,1,0,0:0:0:0:
248,248,57933,1,0,0:0:0:0:
208,256,58040,1,0,0:0:0:0:
184,288,58147,1,0,0:0:0:0:
144,296,58254,1,0,0:0:0:0:
48,280,58361,5,0,0:0:0:0:
32,240,58468,1,0,0:0:0:0:
56,208,58576,1,0,0:0:0:0:
96,208,58683,1,0,0:0:0:0:
136,224,58790,1,0,0:0:0:0:
176,208,58897,1,0,0:0:0:0:
176,168,59004,1,0,0:0:0:0:
160,128,59111,1,0,0:0:0:0:
112,40,59218,5,0,0:0:0:0:
152,24,59326,1,0,0:0:0:0:
192,32,59433,1,0,0:0:0:0:
216,64,59540,1,0,0:0:0:0:
256,56,59647,1,0,0:0:0:0:
296,64,59754,1,0,0:0:0:0:
320,96,59861,1,0,0:0:0:0:
360,96,59968,1,0,0:0:0:0:
464,96,60076,5,0,0:0:0:0:
432,120,60183,1,0,0:0:0:0:
432,160,60290,1,0,0:0:0:0:
464,192,60397,1,0,0:0:0:0:
456,232,60504,1,0,0:0:0:0:
424,256,60611,1,0,0:0:0:0:
384,256,60718,1,0,0:0:0:0:
368,216,60826,1,0,0:0:0:0:
344,120,60933,5,0,0:0:0:0:
320,88,61040,1,0,0:0:0:0:
280,80,61147,1,0,0:0:0:0:
240,96,61254,1,0,0:0:0:0:
224,136,61361,1,0,0:0:0:0:
232,176,61468,1,0,0:0:0:0:
200,200,61576,1,0,0:0:0:0:
160,192,61683,1,0,0:0:0:0:
64,200,61790,5,0,0:0:0:0:
56,240,61897,1,0,0:0:0:0:
72,280,62004,1,0,0:0:0:0:
112,296,62111,1,0,0:0:0:0:
176,224,62218,5,0,0:0:0:0:
216,200,62326,1,0,0:0:0:0:
256,200,62433,1,0,0:0:0:0:
288,224,62540,1,0,0:0:0:0:
368,280,62647,5,0,0:0:0:0:
408,264,62754,1,0,0:0:0:0:
432,224,62861,1,0,0:0:0:0:
432,184,62968,1,0,0:0:0:0:
416,88,63076,5,0,0:0:0:0:
384,64,63183,1,0,0:0:0:0:
344,56,63290,1,0,0:0:0:0:
304,64,63397,1,0,0:0:0:0:
264,152,63504,5,0,0:0:0:0:
224,192,63611,1,0,0:0:0:0:
168,184,63718,1,0,0:0:0:0:
128,144,63826,1,0,0:0:0:0:
56,88,63933,5,0,0:0:0:0:
104,128,64040,1,0,0:0:0:0:
168,128,64147,1,0,0:0:0:0:
224,88,64254,1,0,0:0:0:0:
352,112,64361,5,0,0:0:0:0:
280,96,64468,1,0,0:0:0:0:
208,120,64576,1,0,0:0:0:0:
168,184,64683,1,0,0:0:0:0:
168,280,64790,5,0,0:0:0:0:
96,264,64897,1,0,0:0:0:0:
48,208,65004,1,0,0:0:0:0:
48,136,65111,1,0,0:0:0:0:
128,80,65218,5,0,0:0:0:0:
144,40,65326,1,0,0:0:0:0:
184,24,65433,1,0,0:0:0:0:
224,32,65540,1,0,0:0:0:0:
248,64,65647,1,0,0:0:0:0:
216,168,65861,1,0,0:0:0:0:
176,272,66076,5,0,0:0:0:0:
192,312,66184,1,0,0:0:0:0:
232,328,66291,1,0,0:0:0:0:
272,312,66398,1,0,0:0:0:0:
288,272,66505,1,0,0:0:0:0:
280,144,66718,2,0,L|328:120,3,40.000001525879
224,48,67790,5,0,0:0:0:0:
168,312,68647,6,0,B|176:304|176:304|160:296|160:296|176:288|176:288|160:280|160:280|176:272|176:272|160:264|160:264|176:256|176:256|160:248|160:248|176:240|176:240|160:232|160:232|176:224|176:224|160:216|160:216|176:208|176:208|160:200|160:200|176:192|176:192|160:184|160:184|176:176|176:176|160:168|160:168|176:160|176:160|160:152|160:152|176:144|176:144|160:136|160:136|176:128|176:128|160:120|160:120|176:112|176:112|160:104|160:104|176:96|176:96|32:0|224:200|144:0|448:96,1,863.999973632813
344,312,70361,2,0,B|336:304|336:304|352:296|352:296|336:288|336:288|352:280|352:280|336:272|336:272|352:264|352:264|336:256|336:256|352:248|352:248|336:240|336:240|352:232|352:232|336:224|336:224|352:216|352:216|336:208|336:208|352:200|352:200|336:192|336:192|352:184|352:184|336:176|336:176|352:168|352:168|336:160|336:160|352:152|352:152|336:144|336:144|352:136|352:136|336:128|336:128|352:120|352:120|336:112|336:112|352:104|352:104|336:96|336:96|480:0|288:200|368:0|64:96,1,863.999973632813
48,168,72076,2,0,B|54:167|54:167|56:152|56:152|64:176|64:176|64:136|64:136|72:160|72:160|72:120|72:120|80:144|80:144|80:104|80:104|88:128|88:128|96:88|96:88|120:176|120:176|128:160|128:160|136:176|136:176|152:160|152:160|160:176|160:176|184:160|184:160|192:176|192:176|224:160|224:160|232:176|232:176|272:160|272:160|280:176|280:176|352:168,1,640
496,160,73076,5,0,0:0:0:0:
176,32,73218,1,0,0:0:0:0:
320,240,73361,2,0,B|320:264|320:264|336:264|336:264|336:288|336:288|352:288,1,80
368,64,73933,5,0,0:0:0:0:
48,72,74076,1,0,0:0:0:0:
256,296,74218,2,0,B|272:280|280:296|288:280|296:296|312:280|320:296,1,60
208,56,74647,1,0,0:0:0:0:
208,368,74790,1,0,0:0:0:0:
288,24,74933,1,0,0:0:0:0:
96,320,75076,2,0,P|82:294|100:277,1,40
232,256,75397,1,0,0:0:0:0:
384,336,75504,6,0,B|384:328|384:328|408:320|408:320|392:312|392:312|416:304|416:304|400:296|400:296|424:288|424:288|408:280|408:280|432:272|432:272|416:264|416:264|440:248|440:248|416:240|416:240|432:232|432:232|408:224|408:224|424:216|424:216|400:208|400:208|408:200|408:200|384:192|384:192|400:184|400:184|368:176|368:176|384:168|384:168|360:160|360:160|376:152|376:152|352:144|352:144|264:32|192:224|400:152|384:40|224:-8|72:160,1,863.999973632813
128,336,77218,2,0,B|128:328|128:328|104:320|104:320|120:312|120:312|96:304|96:304|112:296|112:296|88:288|88:288|104:280|104:280|80:272|80:272|96:264|96:264|72:248|72:248|96:240|96:240|80:232|80:232|104:224|104:224|88:216|88:216|112:208|112:208|104:200|104:200|128:192|128:192|112:184|112:184|144:176|144:176|128:168|128:168|152:160|152:160|136:152|136:152|160:144|160:144|248:32|320:224|112:152|128:40|288:-8|440:160,1,863.999973632813
256,344,78933,6,0,B|256:334|256:334|248:328|248:328|264:320|264:320|248:312|248:312|264:304|264:304|248:296|248:296|264:288|264:288|248:280|248:280|264:272|264:272|248:264|248:264|264:256|264:256|248:248|248:248|264:240|264:240|248:232|248:232|264:224|264:224|248:216|248:216|264:208|264:208|248:200|248:200|264:192|264:192|248:184|248:184|264:176|264:176|248:168|248:168|264:160|264:160|248:152|248:152|264:144|264:144|248:136|248:136|264:128|264:128|248:120|248:120|264:112|264:112|248:104|248:104|264:96|264:96|248:88|248:88|264:80|264:80|248:72|248:72|264:64|264:64|248:40,1,640
192,32,79933,5,0,0:0:0:0:
184,360,80076,1,0,0:0:0:0:
16,88,80218,1,0,0:0:0:0:
152,336,80647,1,0,0:0:0:0:
208,72,80790,1,0,0:0:0:0:
224,344,80933,1,0,0:0:0:0:
104,16,81076,1,0,0:0:0:0:
272,368,81218,1,0,0:0:0:0:
464,0,81361,1,0,0:0:0:0:
144,264,81504,6,0,L|192:304,1,40
384,288,81826,2,0,L|424:248,1,40
280,88,82147,2,0,L|280:152,1,40
296,304,82361,6,0,B|296:288|296:288|280:304|280:304|288:280|288:280|272:296|272:296|280:272|280:272|264:288|264:288|272:264|272:264|256:280|256:280|264:256|264:256|248:272|248:272|256:248|256:248|240:264|240:264|248:240|248:240|232:256|232:256|240:232|240:232|224:248|224:248|232:224|232:224|216:240|216:240|224:216|224:216|208:232|208:232|216:208|216:208|200:224|200:224|208:200|208:200|192:216|192:216|168:192|168:136|224:136|224:192|128:312|8:280,1,863.999973632813
216,304,84076,6,0,B|216:288|216:288|232:304|232:304|224:280|224:280|240:296|240:296|232:272|232:272|248:288|248:288|240:264|240:264|256:280|256:280|248:256|248:256|264:272|264:272|256:248|256:248|272:264|272:264|264:240|264:240|280:256|280:256|272:232|272:232|288:248|288:248|280:224|280:224|296:240|296:240|288:216|288:216|304:232|304:232|296:208|296:208|312:224|312:224|304:200|304:200|320:216|320:216|344:192|344:136|288:136|288:192|384:312|504:280,1,863.999973632813
216,72,85790,6,0,L|192:96,31,20
184,104,86647,1,0,0:0:0:0:
376,72,86790,1,0,0:0:0:0:
128,256,86933,1,0,0:0:0:0:
448,128,87076,2,0,B|472:120|488:128|480:152|472:160|448:168,1,80
128,280,87647,1,0,0:0:0:0:
288,16,87790,1,0,0:0:0:0:
408,288,87933,2,0,B|392:312|392:312|368:296|368:296|384:272,1,80
400,248,88504,1,0,0:0:0:0:
8,168,88647,1,0,0:0:0:0:
320,40,88790,2,0,P|343:49|339:66,1,40
360,184,89111,1,0,0:0:0:0:
224,264,89218,6,0,L|200:288,31,20
200,288,90076,2,0,B|136:320|80:280|64:200|128:152,1,240.000009155274
312,40,90933,6,0,L|340:21,31,20,0|0|0|0|0|0|0|0|0|0|0|0|0|0|0|0|0|0|0|0|0|0|0|0|0|0|0|0|0|0|0|0,0:3|0:3|0:3|0:3|0:3|0:3|0:3|0:3|0:3|0:3|0:3|0:3|0:3|0:3|0:3|0:3|0:3|0:3|0:3|0:3|0:3|0:3|0:3|0:3|0:3|0:3|0:3|0:3|0:3|0:3|0:3|0:3,0:3:0:0:
340,21,91791,2,0,B|408:1|456:51|456:133|384:168,1,240.000009155274,0|0,0:3|0:3,0:3:0:0:
384,200,92647,6,0,L|360:224,31,20
352,232,93504,1,0,0:0:0:0:
208,48,93647,1,0,0:0:0:0:
168,344,93790,1,0,0:0:0:0:
32,24,93933,1,0,0:0:0:0:
232,304,94361,5,0,0:0:0:0:
288,40,94504,1,0,0:0:0:0:
320,328,94647,1,0,0:0:0:0:
176,48,94790,1,0,0:0:0:0:
408,344,94933,1,0,0:0:0:0:
240,8,95076,1,0,0:0:0:0:
176,320,95218,2,0,L|240:336,1,40
336,144,95540,2,0,L|368:208,1,40
400,328,95861,2,0,L|352:288,1,40
128,200,96076,5,0,0:0:0:0:
240,88,96504,1,0,0:0:0:0:
336,104,96933,2,0,L|336:176,1,40
392,128,97040,2,0,L|392:192,1,40
448,152,97147,2,0,L|448:216,1,40
496,184,97254,2,0,L|496:224,1,40
480,272,97361,6,0,B|432:280|360:216|176:304,1,280
206,290,97790,2,0,B|40:288|192:184|121:137|128:24,1,320
312,64,98361,1,0,0:0:0:0:
152,168,98504,1,0,0:0:0:0:
336,264,98647,2,0,B|296:304|296:304|264:248|216:208|152:240|88:272|88:272|88:272,1,266.666666666667
112,264,99076,2,0,B|42:214|26:158|34:110|50:70|50:70|144:40,1,320
256,32,99647,5,0,0:0:0:0:
358,123,99790,1,0,0:0:0:0:
226,166,99933,1,0,0:0:0:0:
312,24,100076,1,0,0:0:0:0:
473,106,100218,1,0,0:0:0:0:
391,267,100361,1,0,0:0:0:0:
229,185,100504,1,0,0:0:0:0:
392,48,100647,1,0,0:0:0:0:
304,304,100790,2,0,B|192:344|112:216|224:112|168:96,1,240
112,152,101218,2,0,B|141:87|61:15|93:7|157:7|205:55|221:159,1,240
264,56,101647,2,0,P|312:160|256:288,1,213.333333333333
95,197,102076,1,0,0:0:0:0:
331,50,102218,1,0,0:0:0:0:
340,327,102361,1,0,0:0:0:0:
104,40,102504,6,0,L|416:56,1,266.666666666667
370,53,102933,2,0,B|336:112|320:224|320:224|400:264|424:328,1,320
320,344,103504,2,0,P|280:288|232:280,1,106.666666666667
104,280,103790,1,0,0:0:0:0:
336,208,103933,1,0,0:0:0:0:
328,192,104004,1,0,0:0:0:0:
320,176,104076,2,0,P|336:112|368:80,1,106.666666666667
174,32,104361,2,0,P|227:29|280:40,1,106.666666666667
456,144,104647,1,0,0:0:0:0:
176,216,104790,1,0,0:0:0:0:
464,336,104933,1,0,0:0:0:0:
88,264,105076,6,0,B|96:256|96:256|80:248|80:248|96:240|96:240|80:232|80:232|96:224|96:224|80:216|80:216|96:208|96:208|80:200|80:200|96:192|96:192|80:184|80:184|96:176|96:176|80:168|80:168|96:160|96:160|80:152|80:152|96:144|96:144|80:136|80:136|96:128|96:128|80:120|80:120|96:112,1,320
84,117,105647,1,0,0:0:0:0:
416,216,105790,1,0,0:0:0:0:
88,312,105933,2,0,B|152:224|296:216|360:336,1,320
400,296,106504,1,0,0:0:0:0:
264,224,106647,1,0,0:0:0:0:
416,200,106790,1,0,0:0:0:0:
240,136,106933,1,0,0:0:0:0:
456,120,107076,1,0,0:0:0:0:
240,40,107218,1,0,0:0:0:0:
128,56,107361,1,0,0:0:0:0:
88,152,107504,1,0,0:0:0:0:
224,240,108076,5,0,0:0:0:0:
288,136,108218,1,0,0:0:0:0:
272,288,108361,1,0,0:0:0:0:
232,96,108504,1,0,0:0:0:0:
344,312,108647,1,0,0:0:0:0:
160,96,108826,1,0,0:0:0:0:
128,88,108933,1,0,0:0:0:0:
320,256,109361,1,0,0:0:0:0:
456,56,109790,6,0,B|400:88|344:24|288:104|208:16|176:120,1,266.666666666667
195,84,110218,2,0,B|264:112|296:200|208:256|96:232|288:320,1,320
440,256,110790,1,0,0:0:0:0:
352,56,110933,1,0,0:0:0:0:
224,240,111076,2,0,B|168:272|96:224|80:152|224:80|200:24,1,266.666666666667
192,64,111504,2,0,B|152:16|88:56|88:112|32:192|232:144|200:200|168:304,1,320
256,336,112076,1,0,0:0:0:0:
216,144,112218,1,0,0:0:0:0:
400,248,112361,2,0,B|448:184|448:184|456:104|368:120|368:120|296:200|296:200|296:200,1,266.666666666667
328,164,112790,2,0,B|312:104|264:72|264:72|192:56|152:96|152:96|208:128|208:160,1,320
216,256,113361,5,0,0:0:0:0:
72,192,113504,1,0,0:0:0:0:
136,56,113647,1,0,0:0:0:0:
272,112,113790,1,0,0:0:0:0:
184,280,113933,1,0,0:0:0:0:
400,288,114076,1,0,0:0:0:0:
304,104,114218,1,0,0:0:0:0:
184,280,114361,1,0,0:0:0:0:
80,48,114504,2,0,B|176:16|232:128|384:32,1,266.666666666667
340,55,114933,2,0,P|408:112|304:320,1,320
216,304,115504,1,0,0:0:0:0:
112,232,115647,1,0,0:0:0:0:
96,112,115790,2,0,L|160:96,1,53.3333333333333
240,152,115933,2,0,L|304:136,1,53.3333333333333
360,200,116076,2,0,L|416:192,1,53.3333333333333
412,192,116218,2,0,P|448:112|288:32,1,266.666666666667
280,32,116647,2,0,B|232:80|232:168|352:240|272:328,1,266.666666666667
295,284,117076,2,0,B|248:328|200:296|128:280|80:320,1,213.333333333333
32,256,117433,2,0,L|32:192,1,53.3333333333333
96,200,117576,2,0,L|96:136,1,53.3333333333333
160,56,117790,2,0,L|160:120,1,53.3333333333333
232,16,117933,2,0,L|232:80,1,53.3333333333333
400,144,118361,5,0,0:0:0:0:
320,336,118504,1,0,0:0:0:0:
136,224,118647,1,0,0:0:0:0:
168,40,118790,2,0,B|280:32|320:112|440:56,1,266.666666666667
440,64,119218,1,0,0:0:0:0:
400,320,119361,1,0,0:0:0:0:
208,96,119504,1,0,0:0:0:0:
104,336,119647,2,0,B|48:288|32:200|160:208|80:80,1,266.666666666667
88,80,120076,1,0,0:0:0:0:
320,64,120218,1,0,0:0:0:0:
88,352,120361,1,0,0:0:0:0:
480,352,120504,1,0,0:0:0:0:
64,24,120647,1,0,0:0:0:0:
472,120,120790,1,0,0:0:0:0:
16,336,120933,1,0,0:0:0:0:
480,224,121076,1,0,0:0:0:0:
16,160,121218,1,0,0:0:0:0:
208,256,121790,5,0,0:0:0:0:
256,88,121933,1,0,0:0:0:0:
288,320,122076,1,0,0:0:0:0:
200,56,122219,1,0,0:0:0:0:
176,352,122362,1,0,0:0:0:0:
320,48,122505,1,0,0:0:0:0:
352,56,122576,1,0,0:0:0:0:
56,128,123076,1,0,0:0:0:0:
64,136,123218,1,0,0:0:0:0:
64,136,123361,1,0,0:0:0:0:
64,136,123504,1,0,0:0:0:0:
80,88,137218,5,0,0:0:0:0:
248,160,137433,1,0,0:0:0:0:
192,232,137647,1,0,0:0:0:0:
448,336,138076,1,0,0:0:0:0:
336,336,138183,1,0,0:0:0:0:
232,336,138290,1,0,0:0:0:0:
120,336,138397,1,0,0:0:0:0:
16,336,138504,1,0,0:0:0:0:
336,176,138826,1,0,0:0:0:0:
352,192,138933,1,0,0:0:0:0:
152,192,139361,1,0,0:0:0:0:
16,48,139790,1,0,0:0:0:0:
120,48,139897,1,0,0:0:0:0:
232,48,140004,1,0,0:0:0:0:
336,48,140111,1,0,0:0:0:0:
448,48,140218,1,0,0:0:0:0:
352,232,140540,1,0,0:0:0:0:
352,232,140647,1,0,0:0:0:0:
136,272,140861,1,0,0:0:0:0:
72,224,141076,1,0,0:0:0:0:
352,56,141504,1,0,0:0:0:0:
432,120,141611,1,0,0:0:0:0:
440,224,141718,1,0,0:0:0:0:
368,288,141826,1,0,0:0:0:0:
272,280,141933,1,0,0:0:0:0:
80,184,142254,1,0,0:0:0:0:
80,184,142361,1,0,0:0:0:0:
312,56,142790,1,0,0:0:0:0:
190,133,143218,1,0,0:0:0:0:
270,162,143326,1,0,0:0:0:0:
204,206,143433,1,0,0:0:0:0:
190,133,143540,1,0,0:0:0:0:
270,162,143647,1,0,0:0:0:0:
224,176,143968,1,0,0:0:0:0:
224,176,144076,1,0,0:0:0:0:
224,176,144504,1,0,0:0:0:0:
224,176,144933,1,0,0:0:0:0:
224,176,145361,1,0,0:0:0:0:
224,176,145790,1,0,0:0:0:0:
224,176,146218,1,0,0:0:0:0:
224,176,146647,1,0,0:0:0:0:
224,176,147076,1,0,0:0:0:0:
224,176,147504,1,0,0:0:0:0:
392,112,147718,1,0,0:0:0:0:
312,312,147933,1,0,0:0:0:0:
152,176,148147,1,0,0:0:0:0:
392,264,148361,1,0,0:0:0:0:
376,160,148468,1,0,0:0:0:0:
272,72,148576,1,0,0:0:0:0:
120,120,148683,1,0,0:0:0:0:
88,256,148790,1,0,0:0:0:0:
264,288,149004,2,0,L|312:296,5,40
256,336,149433,5,0,0:0:0:0:
104,264,149647,1,0,0:0:0:0:
112,96,149861,1,0,0:0:0:0:
272,32,150076,1,0,0:0:0:0:
416,112,150290,1,0,0:0:0:0:
416,296,150504,1,0,0:0:0:0:
248,336,150718,1,0,0:0:0:0:
80,264,150933,2,0,B|56:128|144:48|296:80,1,320
312,120,151576,2,0,B|208:128|160:256|264:328,1,266.666666666667
104,144,153290,1,0,0:0:0:0:
104,144,153361,1,0,0:0:0:0:
312,152,153504,1,0,0:0:0:0:
384,224,153611,1,0,0:0:0:0:
376,336,153718,1,0,0:0:0:0:
288,360,153826,1,0,0:0:0:0:
200,320,153933,1,0,0:0:0:0:
280,248,154040,1,0,0:0:0:0:
208,176,154147,1,0,0:0:0:0:
104,208,154254,1,0,0:0:0:0:
80,312,154361,2,0,L|72:144,1,160
264,168,154790,1,0,0:0:0:0:
448,168,155004,2,0,L|416:336,1,160
224,320,155647,5,0,0:0:0:0:
280,256,155754,1,0,0:0:0:0:
224,184,155861,1,0,0:0:0:0:
296,120,155968,1,0,0:0:0:0:
256,16,156076,2,0,L|256:184,1,160
256,176,156504,1,0,0:0:0:0:
256,344,156718,2,0,L|256:176,1,160
176,184,157147,1,0,0:0:0:0:
336,184,157361,1,0,0:0:0:0:
104,184,157576,1,0,0:0:0:0:
408,192,157790,2,0,P|408:280|216:344,1,320
280,208,158433,1,0,0:0:0:0:
136,272,158647,2,0,B|136:184|336:104|360:112|360:112|432:240|392:320|240:376,1,640
112,240,159933,1,0,0:0:0:0:
128,80,160147,1,0,0:0:0:0:
248,96,160254,1,0,0:0:0:0:
168,192,160361,1,0,0:0:0:0:
224,200,160468,1,0,0:0:0:0:
264,224,160576,1,0,0:0:0:0:
288,256,160683,1,0,0:0:0:0:
304,304,160790,1,0,0:0:0:0:
192,288,161004,1,0,0:0:0:0:
192,288,161111,1,0,0:0:0:0:
192,288,161218,1,0,0:0:0:0:
264,192,161647,1,0,0:0:0:0:
176,192,161861,1,0,0:0:0:0:
352,192,162076,1,0,0:0:0:0:
120,56,162290,1,0,0:0:0:0:
64,128,162397,1,0,0:0:0:0:
152,144,162504,1,0,0:0:0:0:
224,120,162611,1,0,0:0:0:0:
296,128,162718,1,0,0:0:0:0:
352,176,162826,1,0,0:0:0:0:
352,104,162933,2,0,B|272:96|224:160|232:224|248:360,1,320
192,256,163790,5,0,0:0:0:0:
240,104,164004,1,0,0:0:0:0:
248,320,164218,1,0,0:0:0:0:
304,40,164433,1,0,0:0:0:0:
336,320,164647,2,0,L|16:288,1,320
104,120,165504,5,0,0:0:0:0:
272,336,165933,1,0,0:0:0:0:
432,280,166361,1,0,0:0:0:0:
