osu file format v14

[General]
AudioFilename: audio.mp3
AudioLeadIn: 0
PreviewTime: 95302
Countdown: 1
SampleSet: None
StackLeniency: 0.2
Mode: 0
LetterboxInBreaks: 0
WidescreenStoryboard: 0

[Editor]
DistanceSpacing: 0.7
BeatDivisor: 8
GridSize: 4
TimelineZoom: 1

[Metadata]
Title:Pop/Stars & Mic Drop Mashup
TitleUnicode:Pop/Stars & Mic Drop Mashup
Artist:K/DA x BTS
ArtistUnicode:K/DA x BTS
Creator:DemoPlayer
Version:POP/DROP
Source:
Tags:K/DA BTS Pop/Stars Mic Drop Mashup K/DA x BTS – Pop/Stars & Mic Drop (ft. (G)I-DLE, Madison Beer, Jaira Burns & Steve Aoki) MASHUP
BeatmapID:1857244
BeatmapSetID:888563

[Difficulty]
HPDrainRate:5
CircleSize:4.2
OverallDifficulty:8
ApproachRate:9.4
SliderMultiplier:2
SliderTickRate:1

[Events]
//Background and Video events
0,0,"KakaoTalk_20181204_233708842.png",0,0
//Break Periods
//Storyboard Layer 0 (Background)
//Storyboard Layer 1 (Fail)
//Storyboard Layer 2 (Pass)
//Storyboard Layer 3 (Foreground)
//Storyboard Sound Samples

[TimingPoints]
450,352.941176470588,4,3,0,100,1,0
11038,-66.6666666666667,4,3,0,100,0,0
16332,-250,4,3,0,100,0,0
17391,-100,4,3,0,100,0,0
17744,-66.6666666666667,4,3,0,100,0,0
18802,-100,4,3,0,100,0,0
19155,-250,4,3,0,100,0,0
20214,-133.333333333333,4,3,0,100,0,0
20567,-80,4,3,0,100,0,0
22332,-50,4,3,0,100,0,0
23743,-133.333333333333,4,3,0,100,0,0
26920,-80,4,3,0,100,0,0
27979,-200,4,3,0,100,0,0
28685,-100,4,3,0,100,0,0
39979,-200,4,3,0,100,0,0
44214,-50,4,3,0,100,0,0
44567,-57.1428571428571,4,3,0,100,0,0
44920,-66.6666666666667,4,3,0,100,0,0
45273,-80,4,3,0,100,0,0
45626,-250,4,3,0,100,0,0
45979,-100,4,3,0,100,0,0
47037,-250,4,3,0,100,0,0
47743,-100,4,3,0,100,0,0
48449,-250,4,3,0,100,0,0
48802,-100,4,3,0,100,0,0
49861,-40,4,3,0,100,0,0
50214,-50,4,3,0,100,0,0
50567,-66.6666666666667,4,3,0,100,0,0
50920,-100,4,3,0,100,0,0
51273,-250,4,3,0,100,0,0
51626,-66.6666666666667,4,3,0,100,0,0
62567,-250,4,3,0,100,0,0
62831,-100,4,3,0,100,0,0
65390,-250,4,3,0,100,0,0
65743,-100,4,3,0,100,0,0
67508,-50,4,3,0,100,0,0
72449,-33.3333333333333,4,3,0,100,0,0
72802,-40,4,3,0,100,0,0
73155,-50,4,3,0,100,0,0
73508,-66.6666666666667,4,3,0,100,0,0
74567,-133.333333333333,4,3,0,100,0,0
77567,-66.6666666666667,4,3,0,100,0,0
96802,-50,4,3,0,100,0,0
100861,-66.6666666666667,4,3,0,100,0,0
102449,-50,4,3,0,100,0,0
104567,-66.6666666666667,4,3,0,100,0,0

[HitObjects]
364,240,450,5,0,0:0:0:0:
148,312,626,1,0,0:0:0:0:
231,199,802,2,0,P|215:139|131:107,1,150
74,136,1155,2,0,P|47:178|66:242,1,100
97,281,1508,2,0,P|152:269|197:291,1,100
240,320,1861,5,0,0:0:0:0:
331,197,2038,1,0,0:0:0:0:
388,344,2214,1,0,0:0:0:0:
224,240,2391,5,0,0:0:0:0:
212,132,2567,1,0,0:0:0:0:
312,176,2744,1,0,0:0:0:0:
172,152,2920,5,0,0:0:0:0:
264,36,3097,1,0,0:0:0:0:
384,144,3273,6,0,L|444:136,1,50
272,260,3449,1,0,0:0:0:0:
216,104,3626,1,0,0:0:0:0:
248,316,3802,1,0,0:0:0:0:
280,140,3979,1,0,0:0:0:0:
104,248,4155,1,0,0:0:0:0:
311,280,4332,1,0,0:0:0:0:
122,111,4508,6,0,B|75:144|75:144|79:191|79:191|84:198|84:198|88:231|88:231|84:238|84:238|89:288,1,200
266,348,5038,1,0,0:0:0:0:
220,117,5214,1,0,0:0:0:0:
171,237,5391,6,0,B|150:294|150:294|89:319|89:319|100:290,1,150
256,116,5744,2,0,B|277:59|277:59|338:34|338:34|327:63,1,150
317,248,6097,5,0,0:0:0:0:
209,172,6273,1,0,0:0:0:0:
127,273,6449,2,0,B|72:281|72:281|23:266,1,100
87,95,6802,1,0,0:0:0:0:
235,101,6979,2,0,L|308:104,1,50
386,217,7155,1,0,0:0:0:0:
230,205,7332,2,0,B|158:202|158:202|152:208|152:208|122:207|122:207|120:201|120:201|89:200|89:200|79:193|79:193|69:199|69:199|34:198,1,200
144,76,7861,1,0,0:0:0:0:
308,207,8038,1,0,0:0:0:0:
114,342,8214,6,0,B|143:292|143:292|189:251,1,100
184,123,8567,2,0,B|144:89|144:89|109:37,1,100
99,199,8920,5,0,0:0:0:0:
268,268,9097,2,0,L|333:279,2,50
253,91,9449,1,0,0:0:0:0:
191,356,9626,1,0,0:0:0:0:
184,150,9802,1,0,0:0:0:0:
313,344,9979,1,0,0:0:0:0:
86,258,10155,1,0,0:0:0:0:
357,59,10332,6,0,L|382:110,1,50,2|0,0:0|0:0,0:0:0:0:
389,293,10508,6,0,L|338:318,1,50,2|0,0:0|0:0,0:0:0:0:
155,325,10685,6,0,L|130:274,1,50,2|0,0:0|0:0,0:0:0:0:
123,91,10861,6,0,L|174:66,1,50,2|0,0:0|0:0,0:0:0:0:
207,51,11038,6,0,P|271:103|258:187,1,150.000005722046
305,333,11391,2,0,P|241:281|254:196,1,150.000005722046
280,157,11655,1,0,0:0:0:0:
349,130,11744,1,4,0:0:0:0:
305,333,12097,6,0,P|260:267|183:236,1,150.000005722046
75,283,12449,2,0,P|127:222|138:146,1,150.000005722046
97,38,12802,2,0,P|148:81|241:96,1,150.000005722046
358,84,13155,6,0,L|328:155,1,75.0000028610231
298,334,13332,2,0,L|252:272,1,75.0000028610231
111,157,13508,2,0,L|187:148,1,75.0000028610231
333,130,13685,1,0,0:0:0:0:
405,286,13861,2,0,P|283:281|231:295,1,150.000005722046
256,286,14214,2,0,P|268:233|189:219,1,150.000005722046
149,279,14479,1,0,0:0:0:0:
149,279,14567,6,0,P|86:178|156:88,1,225.000008583069
194,182,14920,2,0,P|266:172|349:181,1,150.000005722046
467,207,15273,1,0,0:0:0:0:
396,34,15449,1,0,0:0:0:0:
329,234,15626,1,0,0:0:0:0:
148,260,15802,1,0,0:0:0:0:
222,102,15979,6,0,B|218:148|218:148|229:180,1,75.0000028610231
264,266,16155,2,0,B|277:311|277:311|275:340,1,75.0000028610231
154,324,16332,2,0,L|89:332,1,60
114,215,16685,1,0,0:0:0:0:
257,159,16861,1,0,0:0:0:0:
382,242,17038,1,0,0:0:0:0:
347,31,17214,1,0,0:0:0:0:
270,97,17391,6,0,B|225:113|225:113|158:109,1,100
95,103,17744,2,0,B|85:179|85:179|110:268,1,150
139,325,18008,1,0,0:0:0:0:
139,325,18097,1,0,0:0:0:0:
265,198,18273,1,0,0:0:0:0:
405,135,18449,1,0,0:0:0:0:
223,21,18626,1,0,0:0:0:0:
116,226,18802,6,0,L|167:193,1,50
271,136,18979,2,0,L|322:154,1,50
447,198,19155,2,0,L|411:230,1,40
298,317,19420,1,0,0:0:0:0:
298,317,19508,1,0,0:0:0:0:
90,203,19685,1,0,0:0:0:0:
286,233,19861,1,0,0:0:0:0:
434,144,20038,1,0,0:0:0:0:
243,202,20214,6,0,L|162:221,1,75.0000028610231
105,253,20567,2,0,L|299:296,1,187.5
384,323,20920,1,0,0:0:0:0:
389,110,21097,1,0,0:0:0:0:
261,222,21273,1,0,0:0:0:0:
99,140,21449,1,0,0:0:0:0:
236,77,21626,6,0,L|311:89,1,62.5,2|0,0:0|0:0,0:0:0:0:
338,67,21802,2,0,L|377:122,1,62.5,2|0,0:0|0:0,0:0:0:0:
417,130,21979,2,0,L|411:204,1,62.5,2|0,0:0|0:0,0:0:0:0:
434,231,22155,2,0,L|392:285,1,62.5,2|0,0:0|0:0,0:0:0:0:
233,290,22332,2,0,P|266:264|285:231,4,50
203,143,22685,2,0,P|170:169|151:202,4,50
312,252,23038,5,0,0:0:0:0:
360,104,23214,1,0,0:0:0:0:
388,328,23390,1,0,0:0:0:0:
212,216,23567,1,0,0:0:0:0:
344,160,23743,2,0,P|316:92|240:56,1,150.000005722046
230,348,24449,5,0,0:0:0:0:
176,144,24626,1,0,0:0:0:0:
136,312,24802,1,0,0:0:0:0:
316,212,24979,1,0,0:0:0:0:
108,180,25155,2,0,B|151:182|181:206|181:206|194:172|230:155,1,150.000005722046
300,120,25685,1,0,0:0:0:0:
376,192,25861,6,0,P|368:240|376:264,2,75.0000028610231
400,96,26390,1,0,0:0:0:0:
304,60,26567,2,0,B|240:72|240:72|180:60,1,112.500004291535
132,112,26920,2,0,B|144:188|144:188|120:308,1,187.5
112,360,27273,5,2,0:0:0:0:
256,20,27449,1,2,0:0:0:0:
400,360,27626,1,2,0:0:0:0:
184,192,27802,1,2,0:0:0:0:
332,192,27979,2,0,L|301:192,1,25
200,192,28155,2,0,L|224:192,1,25
312,192,28332,2,0,L|288:192,1,25
231,192,28508,2,0,L|255:192,1,25
312,192,28685,6,0,P|376:202|418:193,1,100
363,75,29038,1,0,0:0:0:0:
309,364,29567,5,0,0:0:0:0:
302,199,29744,1,0,0:0:0:0:
170,303,29920,1,0,0:0:0:0:
360,277,30097,1,0,0:0:0:0:
274,104,30273,1,0,0:0:0:0:
91,167,30449,2,0,P|161:175|191:187,1,100
261,39,30802,1,0,0:0:0:0:
396,123,31155,6,0,B|422:151|422:151|418:231,1,100
359,346,31508,1,0,0:0:0:0:
246,155,31861,6,0,B|295:135|295:135|356:142,1,100
174,269,32214,2,0,B|166:321|166:321|129:371,1,100
111,150,32567,2,0,B|69:117|69:117|45:60,1,100
306,216,32920,5,0,0:0:0:0:
221,189,33097,2,0,L|286:181,1,50
381,169,33273,1,0,0:0:0:0:
141,228,33449,1,0,0:0:0:0:
380,313,33626,2,0,P|400:227|391:198,1,100
248,80,33979,6,0,L|146:94,1,100
299,150,34332,1,0,0:0:0:0:
160,284,34685,5,0,0:0:0:0:
281,244,34861,1,0,0:0:0:0:
160,284,35038,1,0,0:0:0:0:
371,325,35214,1,0,0:0:0:0:
281,244,35391,1,0,0:0:0:0:
399,202,35567,1,0,0:0:0:0:
181,112,35744,6,0,P|179:172|194:211,1,100
381,142,36097,1,0,0:0:0:0:
291,52,36273,1,0,0:0:0:0:
339,264,36449,2,0,P|396:266|444:259,1,100
193,208,36802,6,0,P|122:205|77:212,1,100
144,335,37155,1,0,0:0:0:0:
326,242,37508,5,0,0:0:0:0:
416,145,37685,1,0,0:0:0:0:
196,198,37861,1,0,0:0:0:0:
291,358,38038,1,0,0:0:0:0:
196,198,38214,1,0,0:0:0:0:
426,336,38391,1,0,0:0:0:0:
443,204,38567,6,0,P|431:164|413:139,1,50,2|0,0:0|0:0,0:0:0:0:
353,76,38744,2,0,P|318:53|288:45,1,50,2|0,0:0|0:0,0:0:0:0:
201,48,38920,2,0,P|159:52|131:66,1,50,2|0,0:0|0:0,0:0:0:0:
64,122,39097,2,0,P|35:152|22:180,1,50,2|0,0:0|0:0,0:0:0:0:
147,264,39273,2,0,P|185:223|209:180,1,100
129,113,39626,2,0,L|56:249,1,150
88,268,39979,6,4,P|132:272|164:296,1,75,4|0,0:0|0:0,0:0:0:0:
280,340,40332,1,0,0:0:0:0:
320,328,40420,1,0,0:0:0:0:
352,300,40508,1,0,0:0:0:0:
368,256,40596,1,0,0:0:0:0:
360,216,40684,1,0,0:0:0:0:
241,45,40861,1,0,0:0:0:0:
140,208,41037,6,0,L|88:184,2,50,4|0|0,0:0|0:0|0:0,0:0:0:0:
340,183,41567,2,0,L|392:206,2,50,4|0|4,0:0|0:0|0:0,0:0:0:0:
126,99,42096,1,8,0:0:0:0:
269,283,42273,1,0,0:0:0:0:
316,132,42449,1,8,0:0:0:0:
174,327,42626,1,0,0:0:0:0:
84,168,42802,5,4,0:0:0:0:
268,208,42979,1,2,0:0:0:0:
312,220,43067,1,2,0:0:0:0:
356,232,43155,1,2,0:0:0:0:
260,48,43332,1,0,0:0:0:0:
152,260,43508,1,10,0:0:0:0:
312,364,43684,1,0,0:0:0:0:
324,184,43861,1,6,0:0:0:0:
312,364,44037,1,0,0:0:0:0:
204,339,44214,6,2,P|119:284|88:187,1,200
103,121,44567,2,2,P|169:60|256:49,1,175.00000166893
322,68,44920,2,2,P|367:120|375:204,1,150.000005722046
342,261,45273,2,2,P|301:299|223:297,1,125
116,219,45626,6,0,L|170:183,1,60,4|0,0:0|0:0,0:0:0:0:
336,44,45979,2,0,P|350:86|352:114,1,50,2|0,0:0|0:0,0:0:0:0:
399,103,46155,2,0,P|395:148|387:175,1,50
423,193,46332,2,0,P|402:231|383:254,1,50,2|0,0:0|0:0,0:0:0:0:
422,279,46508,2,0,P|387:306|361:319,1,50
244,253,46684,1,2,0:0:0:0:
314,166,46861,1,2,0:0:0:0:
160,348,47037,6,0,L|206:343,1,40,8|0,0:0|0:0,0:0:0:0:
316,326,47302,1,0,0:0:0:0:
253,223,47390,2,0,L|231:184,1,40
102,109,47743,2,0,P|121:95|156:84,1,50,8|0,0:0|0:0,0:0:0:0:
164,43,47920,2,0,P|187:40|223:48,1,50
250,17,48096,2,0,P|272:26|299:51,1,50,4|0,0:0|0:0,0:0:0:0:
339,38,48273,2,0,P|353:56|364:92,1,50
401,194,48449,6,0,L|446:185,1,40,4|0,0:0|0:0,0:0:0:0:
239,327,48714,1,0,0:0:0:0:
205,207,48802,2,0,P|170:220|148:234,1,50,2|0,0:0|0:0,0:0:0:0:
176,150,48979,2,0,P|148:175|134:197,1,50
127,113,49155,2,0,P|112:147|106:172,1,50,2|0,0:0|0:0,0:0:0:0:
67,98,49332,2,0,P|66:135|71:160,1,50
95,276,49508,1,8,0:0:0:0:
291,35,49684,1,4,0:0:0:0:
389,130,49861,6,2,P|394:261|314:367,1,250
329,355,50214,2,2,P|333:250|269:164,1,200
282,173,50567,2,2,P|285:256|234:325,1,150.000005722046
251,311,50920,2,2,P|252:260|222:219,1,100
158,297,51273,6,0,L|116:311,1,40,4|0,0:0|0:0,0:0:0:0:
250,313,51538,1,0,0:0:0:0:
325,248,51626,2,0,P|316:190|322:92,1,150.000005722046
241,66,51979,1,0,0:0:0:0:
181,68,52067,1,0,0:0:0:0:
125,89,52155,1,0,0:0:0:0:
88,136,52244,1,0,0:0:0:0:
75,192,52332,2,4,P|196:215|238:199,2,150.000005722046,4|0|0,0:0|0:0|0:0,0:0:0:0:
168,123,52861,5,4,0:0:0:0:
258,96,53038,2,0,P|343:82|428:119,1,150.000005722046,4|0,0:0|0:0,0:0:0:0:
263,192,53391,1,8,0:0:0:0:
451,224,53567,1,0,0:0:0:0:
341,164,53744,1,4,0:0:0:0:
180,273,53920,1,0,0:0:0:0:
276,336,54097,6,0,P|286:263|257:183,1,150.000005722046,4|0,0:0|0:0,0:0:0:0:
118,110,54361,1,4,0:0:0:0:
113,192,54449,2,8,P|165:139|109:113,1,150.000005722046,8|4,0:0|0:0,0:0:0:0:
113,192,54802,2,0,P|197:184|289:198,1,150.000005722046,8|4,0:0|0:0,0:0:0:0:
342,79,55155,1,2,0:0:0:0:
329,302,55332,1,2,0:0:0:0:
463,163,55508,6,0,L|436:251,1,75.0000028610231
256,180,55685,2,0,L|256:100,1,75.0000028610231
49,163,55861,2,0,L|76:251,1,75.0000028610231
96,331,56038,1,0,0:0:0:0:
173,258,56214,2,2,P|175:183|125:92,1,150.000005722046
86,48,56479,1,0,0:0:0:0:
62,132,56567,2,2,P|56:211|94:287,1,150.000005722046
178,348,56920,5,4,0:0:0:0:
244,203,57097,1,0,0:0:0:0:
304,353,57273,1,0,0:0:0:0:
162,142,57449,2,8,L|182:305,1,150.000005722046
276,91,57802,1,4,0:0:0:0:
372,219,57979,1,0,0:0:0:0:
186,190,58155,1,0,0:0:0:0:
168,354,58332,6,0,L|246:327,1,75.0000028610231,4|0,0:0|0:0,0:0:0:0:
321,307,58508,1,0,0:0:0:0:
117,207,58685,1,0,0:0:0:0:
268,147,58861,2,8,L|254:302,1,150.000005722046
193,147,59214,1,4,0:0:0:0:
349,302,59391,1,0,0:0:0:0:
369,102,59567,1,0,0:0:0:0:
142,295,59744,5,2,0:0:0:0:
242,154,59920,1,0,0:0:0:0:
301,277,60097,1,2,0:0:0:0:
217,100,60273,1,0,0:0:0:0:
365,113,60449,1,2,0:0:0:0:
162,92,60626,1,0,0:0:0:0:
243,232,60802,1,2,0:0:0:0:
260,21,60979,1,0,0:0:0:0:
146,195,61155,6,4,P|91:233|9:224,2,150.000005722046
250,77,61685,2,8,P|326:40|408:75,1,150.000005722046
329,156,62038,1,4,0:0:0:0:
263,369,62214,1,0,0:0:0:0:
202,184,62391,1,0,0:0:0:0:
158,297,62567,6,0,L|116:311,1,40,4|0,0:0|0:0,0:0:0:0:
136,133,62831,1,2,0:0:0:0:
219,100,62920,2,0,B|278:78|278:78|326:91,1,100
401,136,63272,1,0,0:0:0:0:
398,163,63361,1,0,0:0:0:0:
419,235,63449,1,0,0:0:0:0:
417,261,63537,1,0,0:0:0:0:
357,327,63626,2,0,B|286:296|286:296|153:328,1,200,4|0,0:0|0:0,0:0:0:0:
91,184,64155,5,10,0:0:0:0:
166,324,64331,2,0,L|275:298,1,100,4|0,0:0|0:0,0:0:0:0:
411,217,64684,5,2,0:0:0:0:
386,167,64773,1,0,0:0:0:0:
334,145,64861,1,0,0:0:0:0:
279,157,64949,1,0,0:0:0:0:
226,203,65037,5,2,0:0:0:0:
188,161,65126,1,0,0:0:0:0:
132,155,65214,1,0,0:0:0:0:
82,181,65302,1,0,0:0:0:0:
66,235,65390,6,0,L|66:275,1,40,4|0,0:0|0:0,0:0:0:0:
37,60,65655,1,0,0:0:0:0:
102,123,65743,2,0,B|171:107|171:107|189:94|189:94|212:98|212:98|295:80,1,200
277,212,66273,1,10,0:0:0:0:
293,80,66449,2,0,L|392:136,1,100,4|0,0:0|0:0,0:0:0:0:
277,212,66802,6,0,L|222:305,1,100,0|4,0:0|0:0,0:0:0:0:
192,187,67155,2,0,L|243:98,1,100,4|0,0:0|0:0,0:0:0:0:
389,156,67508,2,2,P|350:280|269:315,1,200
123,228,67861,2,2,P|162:104|243:69,1,200
287,71,68126,1,0,0:0:0:0:
351,97,68214,1,4,0:0:0:0:
330,227,68567,5,0,0:0:0:0:
372,343,68744,1,0,0:0:0:0:
319,163,68920,1,0,0:0:0:0:
207,349,69097,1,8,0:0:0:0:
194,135,69273,1,4,0:0:0:0:
315,300,69449,1,0,0:0:0:0:
116,238,69626,2,0,L|82:34,1,200,4|0,0:0|0:0,0:0:0:0:
309,148,69979,5,0,0:0:0:0:
234,330,70155,1,0,0:0:0:0:
240,165,70332,1,0,0:0:0:0:
393,306,70508,1,8,0:0:0:0:
386,98,70685,1,4,0:0:0:0:
307,301,70861,1,8,0:0:0:0:
241,113,71038,2,0,L|193:321,1,200,4|0,0:0|0:0,0:0:0:0:
347,201,71391,5,2,0:0:0:0:
140,232,71567,1,0,0:0:0:0:
307,301,71744,1,2,0:0:0:0:
140,232,71920,1,8,0:0:0:0:
287,126,72097,1,6,0:0:0:0:
123,53,72273,1,4,0:0:0:0:
140,232,72449,6,2,P|262:256|416:176,1,300.000011444092
413,179,72802,2,2,P|309:199|177:131,1,250
183,138,73155,2,2,P|271:155|383:97,1,200
369,112,73508,2,2,P|302:125|218:81,1,150.000005722046
313,7,73861,5,2,0:0:0:0:
313,7,74038,1,0,0:0:0:0:
295,218,74214,1,2,0:0:0:0:
295,218,74391,1,0,0:0:0:0:
156,114,74567,2,2,L|67:124,1,75.0000028610231
295,218,74920,2,2,L|371:208,1,75.0000028610231
134,284,75273,5,2,0:0:0:0:
134,284,75449,1,0,0:0:0:0:
347,346,75626,1,2,0:0:0:0:
347,346,75802,1,0,0:0:0:0:
248,164,75979,2,2,L|172:152,1,75.0000028610231
134,284,76332,2,2,L|216:298,1,75.0000028610231
347,188,76685,5,2,0:0:0:0:
387,366,76861,1,0,0:0:0:0:
310,290,77038,1,2,0:0:0:0:
341,87,77214,1,0,0:0:0:0:
384,192,77391,1,2,0:0:0:0:
168,130,77567,2,4,P|178:188|146:290,2,150.000005722046
298,179,78097,6,0,B|372:172|372:172|458:185,1,150.000005722046,8|0,0:0|0:0,0:0:0:0:
214,205,78449,2,0,B|140:211|140:211|54:199,1,150.000005722046,8|0,0:0|0:0,0:0:0:0:
159,80,78802,2,0,P|234:110|238:172,1,150.000005722046,8|0,0:0|0:0,0:0:0:0:
137,298,79155,1,4,0:0:0:0:
176,280,79332,2,0,P|250:268|343:284,1,150.000005722046,4|8,0:0|0:0,0:0:0:0:
399,206,79861,5,2,0:0:0:0:
379,183,80038,1,0,0:0:0:0:
411,176,80214,1,2,0:0:0:0:
371,158,80391,1,0,0:0:0:0:
400,132,80567,1,2,0:0:0:0:
340,142,80744,1,0,0:0:0:0:
362,83,80920,5,2,0:0:0:0:
306,141,81097,1,0,0:0:0:0:
283,65,81273,1,2,0:0:0:0:
260,157,81449,1,0,0:0:0:0:
192,94,81626,1,2,0:0:0:0:
228,189,81802,1,0,0:0:0:0:
133,175,81979,1,2,0:0:0:0:
234,215,82155,1,0,0:0:0:0:
151,279,82332,5,2,0:0:0:0:
370,220,82508,1,0,0:0:0:0:
249,344,82685,1,2,0:0:0:0:
304,136,82861,1,0,0:0:0:0:
151,279,83038,2,0,L|89:116,1,150.000005722046,0|4,0:0|0:0,0:0:0:0:
370,220,83391,1,8,0:0:0:0:
196,123,83567,1,4,0:0:0:0:
309,270,83744,6,2,L|361:102,1,150.000005722046,10|6,0:0|0:0,0:0:0:0:
210,196,84097,2,2,L|166:343,1,150.000005722046,10|6,0:0|0:0,0:0:0:0:
293,324,84449,1,8,0:0:0:0:
105,203,84626,1,0,0:0:0:0:
233,355,84802,1,4,0:0:0:0:
299,173,84979,1,0,0:0:0:0:
192,89,85155,5,10,0:0:0:0:
142,70,85244,1,2,0:0:0:0:
89,68,85332,1,2,0:0:0:0:
41,90,85420,1,2,0:0:0:0:
12,133,85508,1,2,0:0:0:0:
320,89,85685,5,10,0:0:0:0:
370,70,85774,1,2,0:0:0:0:
423,68,85862,1,2,0:0:0:0:
471,90,85950,1,2,0:0:0:0:
500,133,86038,1,2,0:0:0:0:
397,184,86214,2,0,L|358:337,1,150.000005722046
183,184,86567,5,10,0:0:0:0:
156,138,86655,1,2,0:0:0:0:
161,85,86744,1,2,0:0:0:0:
193,47,86832,1,2,0:0:0:0:
243,33,86920,1,2,0:0:0:0:
342,206,87097,5,10,0:0:0:0:
369,251,87185,1,2,0:0:0:0:
364,304,87274,1,2,0:0:0:0:
332,342,87362,1,2,0:0:0:0:
282,356,87450,1,2,0:0:0:0:
283,270,87626,2,0,P|211:245|136:270,1,150.000005722046
76,311,87979,5,10,0:0:0:0:
68,259,88067,1,2,0:0:0:0:
60,207,88155,1,2,0:0:0:0:
52,154,88244,1,2,0:0:0:0:
44,102,88332,1,2,0:0:0:0:
330,172,88508,5,10,0:0:0:0:
322,224,88596,1,2,0:0:0:0:
315,276,88684,1,2,0:0:0:0:
306,329,88773,1,2,0:0:0:0:
298,381,88861,1,2,0:0:0:0:
203,204,89038,2,0,L|221:38,1,150.000005722046
265,294,89391,5,10,0:0:0:0:
217,316,89479,1,2,0:0:0:0:
166,330,89567,1,2,0:0:0:0:
113,328,89655,1,2,0:0:0:0:
61,314,89744,1,2,0:0:0:0:
247,90,89920,5,10,0:0:0:0:
295,68,90008,1,2,0:0:0:0:
346,54,90096,1,2,0:0:0:0:
399,56,90184,1,2,0:0:0:0:
451,70,90273,1,2,0:0:0:0:
366,189,90449,2,0,P|384:277|454:316,1,150.000005722046
470,211,90802,5,2,0:0:0:0:
262,264,90979,1,2,0:0:0:0:
357,357,91155,1,2,0:0:0:0:
271,90,91332,1,2,0:0:0:0:
206,321,91508,1,2,0:0:0:0:
372,231,91685,1,2,0:0:0:0:
145,117,91861,1,2,0:0:0:0:
114,293,92038,1,2,0:0:0:0:
285,233,92214,6,2,P|352:180|341:94,1,150.000005722046
265,68,92567,2,2,P|201:113|201:189,1,150.000005722046
354,120,92920,2,0,P|415:154|490:117,1,150.000005722046
421,66,93273,1,8,0:0:0:0:
398,283,93449,1,4,0:0:0:0:
298,115,93626,6,2,B|235:121|235:121|138:103,1,150.000005722046
128,277,93979,1,8,0:0:0:0:
200,35,94155,1,4,0:0:0:0:
128,277,94332,2,2,B|171:210|171:210|252:196,1,150.000005722046
380,323,94685,1,0,0:0:0:0:
304,100,94861,1,0,0:0:0:0:
234,295,95038,5,6,0:0:0:0:
190,145,95214,2,0,L|288:169,1,75.0000028610231,2|2,0:0|0:0,0:0:0:0:
407,199,95391,1,2,0:0:0:0:
279,331,95567,1,2,0:0:0:0:
285,117,95744,1,2,0:0:0:0:
416,301,95920,1,2,0:0:0:0:
145,275,96097,1,2,0:0:0:0:
251,41,96273,1,2,0:0:0:0:
512,210,96449,1,14,0:0:0:0:
96,280,96802,6,0,B|9:217|9:217|1:121,1,200
105,61,97155,2,0,B|192:124|192:124|200:220,1,200
189,249,97508,6,0,B|149:150|149:150|192:64,1,200
313,69,97861,2,0,B|354:169|354:169|310:255,1,200
301,217,98214,6,0,B|320:112|320:112|403:62,1,200
502,131,98567,2,0,B|484:237|484:237|401:287,1,200
100,172,98920,5,0,0:0:0:0:
252,160,99097,1,0,0:0:0:0:
408,176,99273,1,0,0:0:0:0:
328,317,99449,2,0,L|457:284,1,100
136,318,99626,2,0,B|204:292|204:292|358:323,1,200
307,113,99979,1,0,0:0:0:0:
376,268,100155,1,0,0:0:0:0:
254,56,100332,1,0,0:0:0:0:
172,244,100508,1,0,0:0:0:0:
335,99,100685,5,4,0:0:0:0:
251,307,100861,2,0,L|198:240,1,75.0000028610231,2|2,0:0|0:0,0:0:0:0:
100,118,101038,1,2,0:0:0:0:
284,165,101214,1,2,0:0:0:0:
135,320,101391,1,2,0:0:0:0:
198,95,101567,1,2,0:0:0:0:
308,317,101744,1,2,0:0:0:0:
80,168,101920,1,2,0:0:0:0:
413,55,102097,1,14,0:0:0:0:
308,324,102449,6,0,P|394:298|433:189,1,200
342,101,102802,2,0,P|256:127|217:236,1,200
327,236,103155,6,0,P|366:154|311:52,1,200
185,61,103508,2,0,P|147:142|202:244,1,200
288,221,103861,6,0,P|254:138|141:110,1,200
63,209,104214,2,0,P|98:291|211:319,1,200
179,215,104479,5,0,0:0:0:0:
179,215,104567,2,0,L|168:51,1,150.000005722046
179,215,104920,6,2,P|382:263|457:353,2,300.000011444092
241,89,105802,1,0,0:0:0:0:
259,54,105891,1,0,0:0:0:0:
279,22,105979,2,0,L|294:184,1,150.000005722046
452,216,106332,6,2,P|324:298|178:284,2,300.000011444092
199,192,107214,1,2,0:0:0:0:
382,349,107391,1,2,0:0:0:0:
368,101,107567,1,2,0:0:0:0:
197,39,107744,6,4,B|78:6|7:143|47:264|206:295|292:199|251:104|251:104|224:148|174:150,1,600.000022888185,4|8,0:0|0:0,0:0:0:0:
235,282,108626,2,0,L|224:362,2,75.0000028610231
344,60,108979,1,0,0:0:0:0:
399,171,109155,5,0,0:0:0:0:
396,204,109332,2,0,L|388:366,1,150.000005722046
164,85,109685,1,0,0:0:0:0:
166,119,109862,2,0,L|174:275,1,150.000005722046
399,171,110214,1,0,0:0:0:0:
287,334,110391,1,0,0:0:0:0:
399,238,110567,6,0,B|460:232|501:169|469:107|418:69|351:83|312:145|338:196|338:196|292:219|239:200|210:149|210:149|224:205|174:253|174:253|173:253|173:253,1,600.000022888185,4|8,0:0|0:0,0:0:0:0:
383,378,111449,2,0,L|457:344,2,75.0000028610231
343,122,111802,1,0,0:0:0:0:
129,192,111979,6,0,B|213:224|273:198|273:198|271:268|390:334,1,300.000011444092
284,123,112508,1,2,0:0:0:0:
156,352,112685,1,0,0:0:0:0:
397,242,112861,1,2,0:0:0:0:
197,44,113038,1,2,0:0:0:0:
186,96,113126,1,2,0:0:0:0:
174,147,113214,1,2,0:0:0:0:
161,198,113302,1,2,0:0:0:0:
137,294,113391,6,4,P|270:270|356:194,1,225.000008583069
224,168,113744,2,8,P|201:92|241:16,1,150.000005722046
369,104,114097,1,2,0:0:0:0:
305,363,114449,5,0,0:0:0:0:
184,204,114626,1,0,0:0:0:0:
382,189,114802,1,0,0:0:0:0:
382,189,114979,2,0,P|391:102|373:34,1,150.000005722046
201,252,115332,1,0,0:0:0:0:
201,252,115508,2,0,P|191:147|206:90,1,150.000005722046
380,299,115861,1,0,0:0:0:0:
367,158,116214,6,2,B|212:166|257:273|89:283,2,300.000011444092
161,114,117097,2,0,L|125:40,2,75.0000028610231
260,300,117449,1,0,0:0:0:0:
332,53,117626,2,2,P|430:173|439:339,2,300.000011444092
260,300,118508,1,2,0:0:0:0:
137,107,118685,1,2,0:0:0:0:
358,163,118861,1,2,0:0:0:0:
72,263,119038,1,14,0:0:0:0:
