osu file format v14

[General]
AudioFilename: audio.mp3
AudioLeadIn: 0
PreviewTime: 167648
Countdown: 0
SampleSet: Normal
StackLeniency: 0.7
Mode: 1
LetterboxInBreaks: 0
WidescreenStoryboard: 0

[Editor]
Bookmarks: 398,12398,24398,36398,48398,60398,72398,78398,90398,102398,114398,126398,138398,150398,162398,168398,180398,192398,197648
DistanceSpacing: 0.5
BeatDivisor: 4
GridSize: 32
TimelineZoom: 1.3

[Metadata]
Title:VILLAIN feat. Madison Beer and Kim Petras
TitleUnicode:VILLAIN feat. Madison Beer and Kim Petras
Artist:K/DA
ArtistUnicode:K/DA
Creator:eiri-
Version:Kantan
Source:League of Legends
Tags:Ayyri English Pop Video Game Electronic LoL Riot Games Bekuh BOOM KDA Evelynn Kai'Sa KaiSa Ahri Akali
BeatmapID:3076505
BeatmapSetID:1348800

[Difficulty]
HPDrainRate:9
CircleSize:2
OverallDifficulty:3
ApproachRate:10
SliderMultiplier:1.4
SliderTickRate:1

[Events]
//Background and Video events
0,0,"Akali 785.jpg",0,55
Video,-10,"VILLAIN.mp4"
//Break Periods
2,72598,76448
2,192598,196448
//Storyboard Layer 0 (Background)
//Storyboard Layer 1 (Fail)
//Storyboard Layer 2 (Pass)
//Storyboard Layer 3 (Foreground)
//Storyboard Layer 4 (Overlay)
//Storyboard Sound Samples

[TimingPoints]
398,375,4,1,0,60,1,0
12351,-100,4,1,0,75,0,0
36351,-100,4,1,0,50,0,0
46851,-100,4,1,0,60,0,0
48351,-100,4,1,0,80,0,0
60398,-100,4,1,0,100,0,1
72398,-100,4,1,0,60,0,0
77601,-100,4,1,0,90,0,0
78351,-100,4,1,0,75,0,0
83601,-100,4,1,0,90,0,0
83976,-100,4,1,0,75,0,0
89976,-100,4,1,0,90,0,0
90351,-100,4,1,0,80,0,0
102351,-100,4,1,0,50,0,0
112851,-100,4,1,0,60,0,0
114351,-100,4,1,0,80,0,0
126398,-100,4,1,0,100,0,1
138398,-100,4,1,0,60,0,0
143601,-100,4,1,0,90,0,0
144351,-100,4,1,0,60,0,0
150351,-100,4,1,0,90,0,0
153351,-100,4,1,0,75,0,0
156351,-100,4,1,0,90,0,0
159351,-100,4,1,0,75,0,0
162351,-100,4,1,0,80,0,0
168351,-100,4,1,0,90,0,0
180398,-100,4,1,0,100,0,1
192398,-100,4,1,0,60,0,0
197601,-100,4,1,0,90,0,0

[HitObjects]
256,192,398,5,8,0:0:0:0:
256,192,1148,1,0,0:0:0:0:
256,192,1898,1,0,0:0:0:0:
256,192,2648,1,0,0:0:0:0:
256,192,3398,1,8,0:0:0:0:
256,192,3960,1,8,0:0:0:0:
256,192,4523,1,8,0:0:0:0:
256,192,6023,1,8,0:0:0:0:
256,192,6398,1,8,0:0:0:0:
256,192,7148,1,0,0:0:0:0:
256,192,7898,1,0,0:0:0:0:
256,192,8273,1,0,0:0:0:0:
256,192,8648,1,8,0:0:0:0:
256,192,9398,1,8,0:0:0:0:
256,192,9960,1,8,0:0:0:0:
256,192,10523,1,8,0:0:0:0:
256,192,12398,1,0,0:0:0:0:
256,192,13523,1,0,0:0:0:0:
256,192,13898,1,8,0:0:0:0:
256,192,15398,1,0,0:0:0:0:
256,192,15960,1,0,0:0:0:0:
256,192,16523,1,0,0:0:0:0:
256,192,16898,1,8,0:0:0:0:
256,192,17648,1,0,0:0:0:0:
256,192,18398,1,0,0:0:0:0:
256,192,19523,1,0,0:0:0:0:
256,192,19898,1,8,0:0:0:0:
256,192,20648,1,0,0:0:0:0:
256,192,21398,1,0,0:0:0:0:
256,192,21960,1,0,0:0:0:0:
256,192,22523,1,0,0:0:0:0:
256,192,22898,1,8,0:0:0:0:
256,192,23273,1,0,0:0:0:0:
256,192,24398,1,0,0:0:0:0:
256,192,25523,1,0,0:0:0:0:
256,192,25898,1,8,0:0:0:0:
256,192,27398,1,0,0:0:0:0:
256,192,27960,1,0,0:0:0:0:
256,192,28523,1,0,0:0:0:0:
256,192,28898,1,8,0:0:0:0:
256,192,29648,1,0,0:0:0:0:
256,192,30398,1,0,0:0:0:0:
256,192,31523,1,0,0:0:0:0:
256,192,31898,1,8,0:0:0:0:
256,192,32648,1,0,0:0:0:0:
256,192,33398,1,0,0:0:0:0:
256,192,33960,1,0,0:0:0:0:
256,192,34523,1,0,0:0:0:0:
256,192,34898,1,8,0:0:0:0:
256,192,35273,1,0,0:0:0:0:
256,192,36398,1,0,0:0:0:0:
256,192,37898,1,8,0:0:0:0:
256,192,38648,1,8,0:0:0:0:
256,192,39398,1,0,0:0:0:0:
256,192,40523,1,8,0:0:0:0:
256,192,42398,1,0,0:0:0:0:
256,192,43898,1,8,0:0:0:0:
256,192,44648,1,8,0:0:0:0:
256,192,45398,1,0,0:0:0:0:
256,192,46898,1,0,0:0:0:0:
256,192,48398,1,0,0:0:0:0:
256,192,49148,1,0,0:0:0:0:
256,192,49898,1,0,0:0:0:0:
256,192,51398,1,0,0:0:0:0:
256,192,52148,1,0,0:0:0:0:
256,192,52898,1,0,0:0:0:0:
256,192,54398,1,0,0:0:0:0:
256,192,55148,1,0,0:0:0:0:
256,192,55898,1,0,0:0:0:0:
256,192,57398,1,0,0:0:0:0:
256,192,58148,1,0,0:0:0:0:
256,192,58898,1,0,0:0:0:0:
256,192,59648,1,0,0:0:0:0:
256,192,60023,1,8,0:0:0:0:
256,192,60398,1,4,0:0:0:0:
256,192,61148,1,8,0:0:0:0:
256,192,61898,1,0,0:0:0:0:
256,192,62648,1,8,0:0:0:0:
256,192,63398,1,0,0:0:0:0:
256,192,63773,1,8,0:0:0:0:
256,192,64148,1,8,0:0:0:0:
256,192,64898,1,0,0:0:0:0:
256,192,65273,1,8,0:0:0:0:
256,192,65648,1,8,0:0:0:0:
256,192,66398,1,4,0:0:0:0:
256,192,67148,1,8,0:0:0:0:
256,192,67898,1,0,0:0:0:0:
256,192,68648,1,8,0:0:0:0:
256,192,69398,1,0,0:0:0:0:
256,192,69773,1,8,0:0:0:0:
256,192,70148,1,8,0:0:0:0:
256,192,70898,1,0,0:0:0:0:
256,192,71273,1,0,0:0:0:0:
256,192,71648,1,8,0:0:0:0:
256,192,72398,1,0,0:0:0:0:
256,192,76898,5,0,0:0:0:0:
256,192,77648,1,12,0:0:0:0:
256,192,78398,1,0,0:0:0:0:
256,192,79148,1,8,0:0:0:0:
256,192,79523,1,0,0:0:0:0:
256,192,80648,1,0,0:0:0:0:
256,192,81398,1,0,0:0:0:0:
256,192,82148,1,8,0:0:0:0:
256,192,82523,1,0,0:0:0:0:
256,192,83648,1,12,0:0:0:0:
256,192,84023,1,0,0:0:0:0:
256,192,84398,1,0,0:0:0:0:
256,192,85148,1,8,0:0:0:0:
256,192,85523,1,0,0:0:0:0:
256,192,86648,1,0,0:0:0:0:
256,192,87398,1,0,0:0:0:0:
256,192,88148,1,8,0:0:0:0:
256,192,88523,1,0,0:0:0:0:
256,192,89648,1,12,0:0:0:0:
256,192,90398,1,4,0:0:0:0:
256,192,91148,1,8,0:0:0:0:
256,192,91523,1,0,0:0:0:0:
256,192,91898,1,0,0:0:0:0:
256,192,92648,1,0,0:0:0:0:
256,192,93398,1,0,0:0:0:0:
256,192,94148,1,8,0:0:0:0:
256,192,94523,1,0,0:0:0:0:
256,192,95648,1,12,0:0:0:0:
256,192,96398,1,4,0:0:0:0:
256,192,97148,1,8,0:0:0:0:
256,192,97523,1,0,0:0:0:0:
256,192,97898,1,0,0:0:0:0:
256,192,98648,1,0,0:0:0:0:
256,192,99398,1,0,0:0:0:0:
256,192,100148,1,8,0:0:0:0:
256,192,100523,1,0,0:0:0:0:
256,192,101648,1,12,0:0:0:0:
256,192,102398,1,0,0:0:0:0:
256,192,103898,1,8,0:0:0:0:
256,192,104648,1,8,0:0:0:0:
256,192,105398,1,0,0:0:0:0:
256,192,106523,1,8,0:0:0:0:
256,192,108398,1,0,0:0:0:0:
256,192,109898,1,8,0:0:0:0:
256,192,110648,1,8,0:0:0:0:
256,192,111398,1,0,0:0:0:0:
256,192,112898,1,0,0:0:0:0:
256,192,114398,1,0,0:0:0:0:
256,192,115148,1,0,0:0:0:0:
256,192,115898,1,0,0:0:0:0:
256,192,117398,1,0,0:0:0:0:
256,192,118148,1,0,0:0:0:0:
256,192,118898,1,0,0:0:0:0:
256,192,120398,1,0,0:0:0:0:
256,192,121148,1,0,0:0:0:0:
256,192,121898,1,0,0:0:0:0:
256,192,123398,1,0,0:0:0:0:
256,192,124148,1,0,0:0:0:0:
256,192,124898,1,0,0:0:0:0:
256,192,125648,1,0,0:0:0:0:
256,192,126023,1,8,0:0:0:0:
256,192,126398,1,4,0:0:0:0:
256,192,127148,1,8,0:0:0:0:
256,192,127898,1,0,0:0:0:0:
256,192,128648,1,8,0:0:0:0:
256,192,129398,1,0,0:0:0:0:
256,192,129773,1,8,0:0:0:0:
256,192,130148,1,8,0:0:0:0:
256,192,130898,1,0,0:0:0:0:
256,192,131273,1,8,0:0:0:0:
256,192,131648,1,8,0:0:0:0:
256,192,132398,1,4,0:0:0:0:
256,192,133148,1,8,0:0:0:0:
256,192,133898,1,0,0:0:0:0:
256,192,134648,1,8,0:0:0:0:
256,192,135398,1,0,0:0:0:0:
256,192,135773,1,8,0:0:0:0:
256,192,136148,1,8,0:0:0:0:
256,192,136898,1,0,0:0:0:0:
256,192,137273,1,0,0:0:0:0:
256,192,137648,1,8,0:0:0:0:
256,192,138398,1,0,0:0:0:0:
256,192,139898,1,8,0:0:0:0:
256,192,141398,1,0,0:0:0:0:
256,192,142898,1,8,0:0:0:0:
256,192,143648,1,12,0:0:0:0:
256,192,144398,1,0,0:0:0:0:
256,192,145898,1,8,0:0:0:0:
256,192,147398,1,0,0:0:0:0:
256,192,148898,1,8,0:0:0:0:
256,192,150398,1,4,0:0:0:0:
256,192,151898,1,12,0:0:0:0:
256,192,153398,1,0,0:0:0:0:
256,192,154898,1,8,0:0:0:0:
256,192,156398,1,4,0:0:0:0:
256,192,157523,1,0,0:0:0:0:
256,192,157898,1,12,0:0:0:0:
256,192,159398,1,0,0:0:0:0:
256,192,160148,1,0,0:0:0:0:
256,192,160523,1,0,0:0:0:0:
256,192,160898,1,8,0:0:0:0:
256,192,162398,1,0,0:0:0:0:
256,192,163898,1,0,0:0:0:0:
256,192,164648,1,0,0:0:0:0:
256,192,166148,1,0,0:0:0:0:
256,192,168398,1,4,0:0:0:0:
256,192,169148,1,0,0:0:0:0:
256,192,169898,1,0,0:0:0:0:
256,192,171398,1,0,0:0:0:0:
256,192,172148,1,0,0:0:0:0:
256,192,172898,1,0,0:0:0:0:
256,192,174398,1,0,0:0:0:0:
256,192,175148,1,0,0:0:0:0:
256,192,175898,1,0,0:0:0:0:
256,192,177398,1,0,0:0:0:0:
256,192,178148,1,0,0:0:0:0:
256,192,178898,1,0,0:0:0:0:
256,192,179648,1,0,0:0:0:0:
256,192,180023,1,8,0:0:0:0:
256,192,180398,1,4,0:0:0:0:
256,192,181148,1,8,0:0:0:0:
256,192,181523,1,0,0:0:0:0:
256,192,181898,1,0,0:0:0:0:
256,192,182648,1,8,0:0:0:0:
256,192,183398,1,0,0:0:0:0:
256,192,183773,1,8,0:0:0:0:
256,192,184148,1,8,0:0:0:0:
256,192,184898,1,0,0:0:0:0:
256,192,185273,1,8,0:0:0:0:
256,192,185648,1,8,0:0:0:0:
256,192,186398,1,4,0:0:0:0:
256,192,187148,1,8,0:0:0:0:
256,192,187523,1,0,0:0:0:0:
256,192,187898,1,0,0:0:0:0:
256,192,188648,1,8,0:0:0:0:
256,192,189398,1,0,0:0:0:0:
256,192,189773,1,8,0:0:0:0:
256,192,190148,1,8,0:0:0:0:
256,192,190898,1,0,0:0:0:0:
256,192,191273,1,0,0:0:0:0:
256,192,191648,1,8,0:0:0:0:
256,192,192398,1,0,0:0:0:0:
256,192,196898,5,0,0:0:0:0:
256,192,197648,1,12,0:0:0:0:
