osu file format v14

[General]
AudioFilename: audio.mp3
AudioLeadIn: 0
PreviewTime: 149464
Countdown: 0
SampleSet: Soft
StackLeniency: 0.4
Mode: 0
LetterboxInBreaks: 0
WidescreenStoryboard: 1

[Editor]
DistanceSpacing: 1.4
BeatDivisor: 4
GridSize: 32
TimelineZoom: 1.1

[Metadata]
Title:VILLAIN feat. Madison Beer and Kim Petras
TitleUnicode:VILLAIN feat. Madison Beer and Kim Petras
Artist:K/DA
ArtistUnicode:K/DA
Creator:SMOKELIND
Version:HARD
Source:League of Legends
Tags:LoL Riot Games English Pop KDA Evelynn Elinor Eli [_Eli_] Chiga All Out
BeatmapID:2698581
BeatmapSetID:1299924

[Difficulty]
HPDrainRate:4
CircleSize:3.7
OverallDifficulty:5.7
ApproachRate:7.7
SliderMultiplier:1.47
SliderTickRate:1

[Events]
//Background and Video events
0,0,"eve.jpg",0,0
Video,222,"eve.mp4"
//Break Periods
2,36602,44607
2,72601,76857
2,102602,110607
2,162602,166857
//Storyboard Layer 0 (Background)
//Storyboard Layer 1 (Fail)
//Storyboard Layer 2 (Pass)
//Storyboard Layer 3 (Foreground)
//Storyboard Layer 4 (Overlay)
//Storyboard Sound Samples

[TimingPoints]
402,375,4,2,77,47,1,0
12402,-129.87012987013,4,2,77,57,0,0
36402,-149.253731343284,4,2,77,47,0,0
46527,-149.253731343284,4,2,77,37,0,0
46902,-149.253731343284,4,2,77,47,0,0
47652,-114.942528735632,4,2,77,57,0,0
48402,-114.942528735632,4,2,77,67,0,0
60402,-93.4579439252336,4,2,77,87,0,0
72402,-149.253731343284,4,2,77,57,0,0
72902,-149.253731343284,4,2,77,47,0,0
77652,-149.253731343284,4,2,77,57,0,0
78402,-129.87012987013,4,2,77,57,0,0
90402,-114.942528735632,4,2,77,67,0,0
102027,-114.942528735632,4,2,77,57,0,0
102402,-149.253731343284,4,2,77,47,0,0
112527,-149.253731343284,4,2,77,37,0,0
112902,-149.253731343284,4,2,77,47,0,0
113652,-114.942528735632,4,2,77,57,0,0
114402,-114.942528735632,4,2,77,67,0,0
126402,-93.4579439252336,4,2,77,87,0,0
138402,-129.87012987013,4,2,77,87,0,0
138589,-129.87012987013,4,2,77,47,0,0
144402,-129.87012987013,4,2,77,57,0,0
162402,-175.438596491229,4,2,77,57,0,0
167652,-114.942528735632,4,2,77,57,0,0
168402,-114.942528735632,4,2,77,67,0,0
180402,-93.4579439252336,4,2,77,87,0,0
192402,-175.438596491229,4,2,77,47,0,0

[Colours]
Combo1 : 187,119,255
Combo2 : 185,225,255
Combo3 : 220,176,255
Combo4 : 136,210,255

[HitObjects]
408,4,12027,5,2,1:0:0:0:
408,4,12214,1,2,0:0:0:0:
468,64,12402,2,0,P|460:125|454:188,1,113.189997754715,6|0,1:0|0:0,0:0:0:0:
394,236,12964,1,0,0:0:0:0:
394,236,13152,2,0,P|367:227|333:220,1,56.5949988773575
280,282,13527,1,0,1:0:0:0:
126,350,13902,5,10,0:0:0:0:
126,350,14089,1,2,1:0:0:0:
104,272,14277,1,2,1:0:0:0:
104,272,14464,1,2,0:0:0:0:
75,191,14652,2,0,L|11:180,1,56.5949988773575,2|0,0:0|0:0,0:0:0:0:
3,97,15027,2,0,L|58:106,1,56.5949988773575,2|0,0:0|0:0,0:0:0:0:
142,119,15402,6,0,P|174:71|228:45,1,113.189997754715,2|0,1:0|0:0,0:0:0:0:
307,46,15964,2,0,P|356:71|387:118,1,113.189997754715,0|0,1:0|1:0,0:0:0:0:
338,189,16527,2,0,P|321:215|316:249,1,56.5949988773575,0|0,1:0|0:0,0:0:0:0:
375,299,16902,5,10,0:0:0:0:
375,299,17089,1,2,1:0:0:0:
456,337,17277,1,2,0:0:0:0:
456,337,17464,1,2,0:0:0:0:
496,262,17652,2,0,L|488:199,1,56.5949988773575,2|0,1:0|1:0,0:0:0:0:
428,145,18027,2,0,L|436:82,1,56.5949988773575,2|0,0:0|0:0,0:0:0:0:
494,28,18402,6,0,P|457:59|385:27,1,113.189997754715,6|0,1:0|0:0,0:0:0:0:
320,9,18964,1,0,0:0:0:0:
320,9,19152,2,0,L|328:73,1,56.5949988773575
341,148,19527,1,0,1:0:0:0:
206,53,19902,5,10,0:0:0:0:
206,53,20089,1,2,1:0:0:0:
220,141,20277,1,2,1:0:0:0:
220,141,20464,1,2,0:0:0:0:
159,201,20652,2,0,L|80:186,1,56.5949988773575,2|0,1:0|0:0,0:0:0:0:
55,260,21027,2,0,L|110:270,1,56.5949988773575,2|0,1:0|1:0,0:0:0:0:
172,329,21402,6,0,P|199:289|283:289,1,113.189997754715,2|0,1:0|0:0,0:0:0:0:
338,245,21964,2,0,P|283:237|250:193,1,113.189997754715,0|0,1:0|0:0,0:0:0:0:
248,108,22527,2,0,P|220:89|176:89,1,56.5949988773575,0|0,1:0|0:0,0:0:0:0:
115,107,22902,1,8,0:0:0:0:
31,254,23277,1,0,1:0:0:0:
163,359,23652,2,0,L|222:342,1,56.5949988773575,0|0,1:0|1:0,0:0:0:0:
273,279,24027,1,2,0:0:0:0:
273,279,24214,1,2,0:0:0:0:
333,339,24402,6,0,L|463:353,1,113.189997754715,6|0,1:0|0:0,0:0:0:0:
488,277,24964,1,0,0:0:0:0:
488,277,25152,2,0,L|415:271,1,56.5949988773575
371,212,25527,1,0,1:0:0:0:
437,159,25714,5,0,0:0:0:0:
437,150,25808,1,0,0:0:0:0:
437,140,25902,1,10,0:0:0:0:
481,68,26089,1,2,1:0:0:0:
409,32,26277,1,2,1:0:0:0:
409,32,26464,1,2,0:0:0:0:
333,72,26652,2,0,P|299:65|255:61,1,56.5949988773575,2|0,0:0|0:0,0:0:0:0:
217,122,27027,2,0,P|188:125|161:131,1,56.5949988773575,2|0,0:0|0:0,0:0:0:0:
92,181,27402,6,0,P|123:148|118:79,1,113.189997754715,2|0,1:0|0:0,0:0:0:0:
40,53,27964,2,0,P|9:86|14:155,1,113.189997754715,0|0,1:0|1:0,0:0:0:0:
25,234,28527,1,0,1:0:0:0:
156,126,28902,6,0,P|160:153|169:180,1,56.5949988773575,10|2,0:0|1:0,0:0:0:0:
249,209,29277,2,0,P|244:236|235:263,1,56.5949988773575,2|0,0:0|0:0,0:0:0:0:
168,316,29652,2,0,P|172:343|181:370,1,56.5949988773575,2|0,1:0|1:0,0:0:0:0:
266,378,30027,1,2,0:0:0:0:
317,310,30214,5,0,0:0:0:0:
326,307,30308,1,0,0:0:0:0:
336,305,30402,2,0,P|340:241|346:183,1,113.189997754715,6|0,1:0|0:0,0:0:0:0:
425,158,30964,1,0,0:0:0:0:
425,158,31152,2,0,P|427:193|429:232,1,56.5949988773575
488,274,31527,1,0,1:0:0:0:
482,104,31902,5,10,0:0:0:0:
482,104,32089,1,2,1:0:0:0:
403,86,32277,1,2,1:0:0:0:
403,86,32464,1,2,0:0:0:0:
335,137,32652,2,0,P|315:155|265:166,1,56.5949988773575,2|0,1:0|0:0,0:0:0:0:
215,209,33027,2,0,P|188:199|167:180,1,56.5949988773575,2|0,1:0|1:0,0:0:0:0:
126,106,33402,6,0,P|147:141|103:215,1,113.189997754715,2|0,1:0|0:0,0:0:0:0:
40,225,33964,2,0,P|19:260|63:334,1,113.189997754715,0|0,1:0|0:0,0:0:0:0:
120,358,34527,1,0,1:0:0:0:
288,377,34902,5,8,0:0:0:0:
318,210,35277,6,0,P|313:252|309:294,1,84.8924983160363,0|0,1:0|0:0,0:0:0:0:
330,315,35652,1,0,1:0:0:0:
405,352,35839,1,0,1:0:0:0:
475,303,36027,2,0,P|471:264|469:234,1,56.5949988773575,2|0,1:0|0:0,0:0:0:0:
493,171,36402,5,2,0:0:0:0:
256,192,45402,12,0,46902,1:0:0:0:
35,366,47652,6,0,L|28:296,1,63.9450005366478,2|2,0:0|0:0,0:0:0:0:
91,238,48027,1,2,0:0:0:0:
91,238,48214,1,2,0:0:0:0:
154,173,48402,6,0,P|209:173|231:252,1,127.890001073296,6|0,1:0|0:0,0:0:0:0:
379,350,49152,5,2,1:0:0:0:
379,350,49339,1,2,0:0:0:0:
353,268,49527,1,2,0:0:0:0:
353,268,49714,1,2,0:0:0:0:
424,213,49902,6,0,P|435:141|448:84,1,127.890001073296,2|0,1:0|0:0,0:0:0:0:
276,32,50652,5,2,1:0:0:0:
276,32,50839,1,2,0:0:0:0:
327,112,51027,1,2,0:0:0:0:
327,112,51214,1,2,0:0:0:0:
279,188,51402,6,0,P|220:149|148:139,1,127.890001073296,2|0,1:0|0:0,0:0:0:0:
78,297,52152,5,2,1:0:0:0:
78,297,52339,1,2,0:0:0:0:
54,209,52527,1,2,0:0:0:0:
54,209,52714,1,2,0:0:0:0:
29,122,52902,6,0,P|97:115|122:189,1,127.890001073296,2|0,1:0|0:0,0:0:0:0:
158,339,53652,5,2,1:0:0:0:
158,339,53839,1,2,0:0:0:0:
247,369,54027,1,2,0:0:0:0:
247,369,54214,1,2,3:0:0:0:
313,308,54402,6,0,P|301:237|290:155,1,127.890001073296,2|0,1:0|0:0,0:0:0:0:
286,92,54964,1,0,3:0:0:0:
204,67,55152,1,2,1:0:0:0:
204,67,55339,1,2,0:0:0:0:
120,50,55527,1,2,0:0:0:0:
120,50,55714,1,2,0:0:0:0:
32,29,55902,6,0,P|22:92|12:155,1,127.890001073296,2|0,1:0|0:0,0:0:0:0:
176,225,56652,5,2,1:0:0:0:
176,225,56839,1,2,0:0:0:0:
238,161,57027,1,2,0:0:0:0:
238,161,57214,1,2,0:0:0:0:
306,218,57402,6,0,P|369:228|402:161,1,127.890001073296,2|0,1:0|0:0,0:0:0:0:
491,25,58152,5,2,1:0:0:0:
491,25,58339,1,2,0:0:0:0:
482,117,58527,1,2,0:0:0:0:
482,117,58714,1,2,0:0:0:0:
471,206,58902,6,0,P|436:147|349:147,1,127.890001073296,2|0,1:0|3:0,0:0:0:0:
318,197,59464,1,0,0:0:0:0:
248,140,59652,1,0,1:0:0:0:
201,216,59839,1,8,0:0:0:0:
194,226,59933,1,8,0:0:0:0:
181,230,60027,1,10,0:0:0:0:
94,209,60214,1,10,0:0:0:0:
52,106,60402,6,0,P|85:59|157:71,1,117.967496399918,6|0,1:0|0:0,0:0:0:0:
160,79,60777,2,0,L|149:165,1,78.6449975999451,2|0,0:0|0:0,0:0:0:0:
220,248,61152,1,10,0:0:0:0:
220,248,61339,1,2,0:0:0:0:
267,148,61527,2,0,L|313:140,3,39.3224987999726,2|0|0|0,1:0|0:0|0:0|0:0,0:0:0:0:
321,113,61902,6,0,P|355:62|431:81,1,117.967496399918,2|0,0:0|0:0,0:0:0:0:
432,89,62277,2,0,P|426:127|422:175,1,78.6449975999451,2|0,0:0|1:0,0:0:0:0:
477,268,62652,1,10,0:0:0:0:
477,268,62839,1,2,0:0:0:0:
392,338,63027,2,0,P|361:317|309:304,1,78.6449975999451,2|0,0:0|0:0,0:0:0:0:
227,362,63402,6,0,P|279:317|268:263,1,117.967496399918,6|0,1:0|0:0,0:0:0:0:
245,262,63777,2,0,L|165:248,1,78.6449975999451,2|0,0:0|0:0,0:0:0:0:
59,272,64152,1,10,0:0:0:0:
59,272,64339,1,2,0:0:0:0:
16,170,64527,2,0,L|24:113,3,39.3224987999726,2|0|0|0,1:0|0:0|0:0|0:0,0:0:0:0:
25,104,64902,6,0,L|150:129,1,117.967496399918,2|0,0:0|0:0,0:0:0:0:
160,113,65277,2,0,L|266:102,1,78.6449975999451,2|0,0:0|0:0,0:0:0:0:
316,26,65652,1,10,0:0:0:0:
316,26,65839,1,2,0:0:0:0:
384,119,66027,1,2,1:0:0:0:
384,119,66214,1,8,0:0:0:0:
483,72,66402,6,0,P|445:106|458:195,1,117.967496399918,6|0,1:0|0:0,0:0:0:0:
467,184,66777,2,0,P|495:215|488:264,1,78.6449975999451,2|0,0:0|0:0,0:0:0:0:
435,344,67152,1,10,0:0:0:0:
435,344,67339,1,2,0:0:0:0:
330,307,67527,2,0,L|338:255,3,39.3224987999726,2|0|0|0,1:0|0:0|0:0|0:0,0:0:0:0:
340,239,67902,6,0,P|304:192|223:220,1,117.967496399918,2|0,0:0|0:0,0:0:0:0:
237,217,68277,2,0,P|210:246|157:234,1,78.6449975999451,2|0,0:0|1:0,0:0:0:0:
128,149,68652,1,10,0:0:0:0:
128,149,68839,1,2,0:0:0:0:
179,51,69027,2,0,P|221:28|282:83,1,117.967496399918,2|0,0:0|0:0,0:0:0:0:
279,92,69402,6,0,P|311:142|394:128,1,117.967496399918,6|0,1:0|0:0,0:0:0:0:
375,128,69777,2,0,L|389:46,1,78.6449975999451,2|0,0:0|3:0,0:0:0:0:
493,16,70152,1,10,0:0:0:0:
493,16,70339,1,2,3:0:0:0:
483,129,70527,1,2,1:0:0:0:
483,129,70714,1,0,3:0:0:0:
461,237,70902,5,2,0:0:0:0:
452,245,70995,1,0,0:0:0:0:
441,250,71089,1,0,0:0:0:0:
350,186,71277,2,0,L|253:202,1,78.6449975999451,2|0,1:0|1:0,0:0:0:0:
164,221,71652,5,10,0:0:0:0:
164,221,71839,1,2,1:0:0:0:
60,249,72027,1,2,1:0:0:0:
60,249,72214,2,0,L|43:152,1,78.6449975999451,2|2,1:0|0:0,0:0:0:0:
319,159,77652,5,14,0:2:0:0:
319,159,78027,2,0,P|339:154|367:139,1,49.244997670601
430,86,78402,2,0,L|437:29,2,56.5949988773575,2|2|2,1:0|0:0|0:0,0:0:0:0:
448,163,78964,1,2,0:0:0:0:
473,238,79152,2,0,P|453:296|384:296,1,113.189997754715,10|2,0:0|1:0,0:0:0:0:
334,288,79714,5,2,0:0:0:0:
334,288,79902,2,0,L|340:364,2,56.5949988773575,2|2|2,0:0|0:0|0:0,0:0:0:0:
275,235,80464,1,2,0:0:0:0:
235,303,80652,2,0,P|186:338|130:311,1,113.189997754715,2|2,1:0|0:0,0:0:0:0:
106,250,81214,1,2,0:0:0:0:
106,250,81402,2,0,L|25:239,2,56.5949988773575,2|2|2,1:0|0:0|0:0,0:0:0:0:
154,187,81964,1,2,0:0:0:0:
203,127,82152,2,0,L|77:145,1,113.189997754715,10|2,0:0|1:0,0:0:0:0:
49,81,82714,5,2,0:0:0:0:
49,81,82902,2,0,L|34:21,2,56.5949988773575,2|2|2,0:0|0:0|0:0,0:0:0:0:
120,116,83464,1,2,0:0:0:0:
165,50,83652,2,0,L|238:41,1,56.5949988773575,10|2,0:0|0:0,0:0:0:0:
277,99,84027,1,2,1:0:0:0:
277,99,84214,1,2,0:0:0:0:
243,171,84402,5,2,1:0:0:0:
243,171,84589,1,2,0:0:0:0:
312,209,84777,2,0,L|322:277,1,56.5949988773575,2|0,0:0|0:0,0:0:0:0:
271,327,85152,2,0,L|203:337,1,56.5949988773575,10|0,0:0|0:0,0:0:0:0:
158,279,85527,1,2,1:0:0:0:
158,279,85714,1,2,0:0:0:0:
122,208,85902,6,0,L|47:200,1,56.5949988773575,2|2,0:0|0:0,0:0:0:0:
34,277,86277,1,2,0:0:0:0:
34,277,86464,1,2,0:0:0:0:
0,349,86652,2,0,L|122:361,1,113.189997754715,2|2,1:0|0:0,0:0:0:0:
191,369,87214,1,2,0:0:0:0:
270,369,87402,6,0,P|280:336|298:305,1,56.5949988773575,2|2,1:0|0:0,0:0:0:0:
360,278,87777,1,2,0:0:0:0:
360,278,87964,1,2,0:0:0:0:
407,341,88152,2,0,P|459:348|477:289,1,113.189997754715,10|2,0:0|1:0,0:0:0:0:
449,226,88714,1,2,0:0:0:0:
449,226,88902,6,0,P|442:192|439:157,1,56.5949988773575,2|2,0:0|0:0,0:0:0:0:
361,157,89277,2,0,P|367:123|371:88,1,56.5949988773575,2|2,0:0|0:0,0:0:0:0:
420,39,89652,1,14,0:0:0:0:
420,39,90027,2,0,P|400:23|363:23,1,56.5949988773575,2|2,0:0|0:0,0:0:0:0:
312,89,90402,6,0,P|281:143|212:133,1,127.890001073296,6|0,1:0|0:0,0:0:0:0:
180,61,90964,1,0,0:0:0:0:
175,56,91058,1,0,0:0:0:0:
168,54,91152,2,0,P|134:48|96:66,1,63.9450005366478,8|2,0:0|0:0,0:0:0:0:
74,141,91527,1,2,1:0:0:0:
74,141,91714,1,2,0:0:0:0:
45,225,91902,6,0,L|92:217,3,31.9725002683239,2|0|2|0,0:0|0:0|0:0|0:0,0:0:0:0:
111,247,92277,1,2,0:0:0:0:
156,323,92464,1,2,0:0:0:0:
209,251,92652,2,0,L|286:242,1,63.9450005366478,2|2,1:0|0:0,0:0:0:0:
304,274,92933,1,0,0:0:0:0:
304,274,93027,2,0,L|367:281,1,63.9450005366478,2|2,0:0|0:0,0:0:0:0:
432,343,93402,6,0,P|472:330|459:256,1,127.890001073296,2|0,1:0|0:0,0:0:0:0:
390,204,93964,1,0,0:0:0:0:
385,199,94058,1,0,0:0:0:0:
381,193,94152,2,0,L|390:112,1,63.9450005366478,10|0,0:0|0:0,0:0:0:0:
317,74,94527,2,0,L|305:183,1,95.9175008049717,2|0,1:0|0:0,0:0:0:0:
282,183,94902,6,0,L|287:135,3,31.9725002683239,2|0|0|0,0:0|0:0|0:0|0:0,0:0:0:0:
287,123,95277,1,0,0:0:0:0:
131,34,95652,5,14,0:0:0:0:
52,76,95839,1,2,0:0:0:0:
31,163,96027,5,2,1:2:0:0:
110,205,96214,1,2,0:0:0:0:
175,265,96402,6,0,B|187:249|203:234|203:234|193:197|185:131,1,127.890001073296,2|2,1:0|0:0,0:0:0:0:
220,65,96964,1,0,0:0:0:0:
225,61,97058,1,0,0:0:0:0:
230,58,97152,2,0,L|302:69,1,63.9450005366478,8|2,0:0|0:0,0:0:0:0:
370,21,97527,1,2,1:0:0:0:
370,21,97714,1,2,0:0:0:0:
445,70,97902,6,0,L|449:113,3,31.9725002683239,2|0|2|0,0:0|0:0|0:0|0:0,0:0:0:0:
428,142,98277,1,2,0:0:0:0:
440,230,98464,1,2,0:0:0:0:
358,192,98652,2,0,P|328:180|284:192,1,63.9450005366478,2|2,1:0|0:0,0:0:0:0:
271,210,98933,1,0,0:0:0:0:
271,210,99027,2,0,P|239:214|210:202,1,63.9450005366478,2|2,0:0|0:0,0:0:0:0:
174,120,99402,6,0,P|115:103|80:169,1,127.890001073296,2|0,1:0|0:0,0:0:0:0:
94,237,99964,1,0,0:0:0:0:
95,243,100058,1,0,0:0:0:0:
96,249,100152,2,0,P|40:275|-4:228,2,127.890001073296,10|2|2,0:0|1:0|0:0,0:0:0:0:
238,140,101277,6,0,P|299:140|321:199,1,127.890001073296,0|4,0:0|1:0,0:0:0:0:
239,312,102027,1,6,1:0:0:0:
359,379,102402,5,2,0:0:0:0:
256,192,111402,12,0,112902,1:0:0:0:
477,18,113652,6,0,L|484:88,1,63.9450005366478,2|2,0:0|0:0,0:0:0:0:
421,146,114027,1,2,0:0:0:0:
421,146,114214,1,2,0:0:0:0:
358,211,114402,6,0,P|313:182|230:166,1,127.890001073296,6|0,1:0|0:0,0:0:0:0:
79,100,115152,5,2,1:0:0:0:
79,100,115339,1,2,0:0:0:0:
159,149,115527,1,2,0:0:0:0:
159,149,115714,1,2,0:0:0:0:
84,198,115902,6,0,P|75:264|120:319,1,127.890001073296,2|0,1:0|0:0,0:0:0:0:
282,371,116652,5,2,1:0:0:0:
282,371,116839,1,2,0:0:0:0:
252,291,117027,1,2,0:0:0:0:
252,291,117214,1,2,0:0:0:0:
222,206,117402,6,0,P|242:174|334:186,1,127.890001073296,2|0,1:0|0:0,0:0:0:0:
485,94,118152,5,2,1:0:0:0:
485,96,118339,1,2,0:0:0:0:
455,183,118527,1,2,0:0:0:0:
455,183,118714,1,2,0:0:0:0:
419,265,118902,6,0,P|359:278|316:233,1,127.890001073296,2|0,1:0|0:0,0:0:0:0:
363,63,119652,5,2,1:0:0:0:
363,63,119839,1,2,0:0:0:0:
287,108,120027,1,2,0:0:0:0:
287,108,120214,1,2,3:0:0:0:
228,40,120402,6,0,P|168:48|101:59,1,127.890001073296,2|0,1:0|0:0,0:0:0:0:
49,132,120964,1,0,3:0:0:0:
119,195,121152,1,2,1:0:0:0:
119,195,121339,1,2,0:0:0:0:
67,269,121527,1,2,0:0:0:0:
67,269,121714,1,2,0:0:0:0:
116,343,121902,6,0,P|166:307|245:328,1,127.890001073296,2|0,1:0|0:0,0:0:0:0:
370,204,122652,5,2,1:0:0:0:
370,204,122839,1,2,0:0:0:0:
299,157,123027,1,2,0:0:0:0:
299,157,123214,1,2,0:0:0:0:
321,70,123402,6,0,P|280:23|218:26,1,127.890001073296,2|0,1:0|0:0,0:0:0:0:
157,197,124152,5,2,1:0:0:0:
157,197,124339,1,2,0:0:0:0:
114,277,124527,1,2,0:0:0:0:
114,277,124714,1,2,0:0:0:0:
35,232,124902,6,0,P|22:164|9:96,2,127.890001073296,2|2|0,1:0|0:0|1:0,0:0:0:0:
90,301,125839,1,8,0:0:0:0:
101,303,125933,1,8,0:0:0:0:
110,306,126027,1,10,0:0:0:0:
173,242,126214,1,10,0:0:0:0:
242,328,126402,6,0,P|282:291|376:291,1,117.967496399918,6|0,1:0|0:0,0:0:0:0:
363,309,126777,2,0,P|390:280|390:228,1,78.6449975999451,2|0,0:0|0:0,0:0:0:0:
321,166,127152,1,10,0:0:0:0:
321,166,127339,1,2,0:0:0:0:
383,74,127527,2,0,L|421:67,3,39.3224987999726,2|0|0|0,1:0|0:0|0:0|0:0,0:0:0:0:
432,41,127902,6,0,L|300:64,1,117.967496399918,2|0,0:0|0:0,0:0:0:0:
301,83,128277,2,0,L|216:70,1,78.6449975999451,2|0,0:0|1:0,0:0:0:0:
141,4,128652,1,10,0:0:0:0:
141,4,128839,1,2,0:0:0:0:
62,82,129027,2,0,L|73:159,1,78.6449975999451,2|0,0:0|0:0,0:0:0:0:
10,250,129402,6,0,P|48:215|110:253,1,117.967496399918,6|0,1:0|0:0,0:0:0:0:
110,259,129777,2,0,P|140:288|185:288,1,78.6449975999451,2|0,0:0|0:0,0:0:0:0:
257,217,130152,1,10,0:0:0:0:
257,217,130339,1,2,0:0:0:0:
178,139,130527,2,0,L|172:100,3,39.3224987999726,2|0|0|0,1:0|0:0|0:0|0:0,0:0:0:0:
165,57,130902,6,0,P|218:38|258:77,1,117.967496399918,2|0,0:0|0:0,0:0:0:0:
266,100,131277,2,0,P|309:115|334:97,1,78.6449975999451,2|0,0:0|0:0,0:0:0:0:
430,0,131652,1,10,0:0:0:0:
430,0,131839,1,2,0:0:0:0:
460,110,132027,1,2,1:0:0:0:
460,110,132214,1,8,0:0:0:0:
479,218,132402,6,0,P|460:269|382:282,1,117.967496399918,6|0,1:0|0:0,0:0:0:0:
386,269,132777,2,0,L|301:258,1,78.6449975999451,2|0,0:0|0:0,0:0:0:0:
233,340,133152,1,10,0:0:0:0:
233,340,133339,1,2,0:0:0:0:
152,264,133527,2,0,L|157:225,3,39.3224987999726,2|0|0|0,1:0|0:0|0:0|0:0,0:0:0:0:
149,204,133902,6,0,P|104:180|52:240,1,117.967496399918,2|0,0:0|0:0,0:0:0:0:
54,239,134277,2,0,L|65:324,1,78.6449975999451,2|0,0:0|1:0,0:0:0:0:
163,376,134652,1,10,0:0:0:0:
163,376,134839,1,2,0:0:0:0:
224,284,135027,2,0,L|312:271,1,78.6449975999451,2|0,1:0|0:0,0:0:0:0:
395,330,135402,6,0,P|357:311|363:233,1,117.967496399918,6|0,1:0|0:0,0:0:0:0:
380,238,135777,2,0,P|429:218|435:186,1,78.6449975999451,2|0,0:0|3:0,0:0:0:0:
380,107,136152,1,10,0:0:0:0:
380,107,136339,1,2,3:0:0:0:
277,140,136527,1,2,1:0:0:0:
277,140,136714,1,2,3:0:0:0:
178,89,136902,5,2,0:0:0:0:
174,77,136995,1,0,0:0:0:0:
170,65,137089,1,0,0:0:0:0:
106,154,137277,2,0,L|9:138,1,78.6449975999451,2|0,1:0|1:0,0:0:0:0:
17,251,137652,5,10,0:0:0:0:
17,251,137839,1,2,1:0:0:0:
113,305,138027,1,2,1:0:0:0:
113,305,138214,1,2,1:0:0:0:
217,358,138402,5,6,1:0:0:0:
398,110,139902,5,10,0:0:0:0:
398,110,141402,5,2,1:0:0:0:
398,110,142902,5,10,0:0:0:0:
263,26,143277,2,0,P|269:56|276:88,1,56.5949988773575,2|0,0:0|0:0,0:0:0:0:
218,137,143652,2,0,P|170:123|87:106,1,113.189997754715,2|0,0:0|0:0,0:0:0:0:
37,251,144402,5,0,1:0:0:0:
163,346,144777,2,0,P|188:336|216:328,1,56.5949988773575,2|0,0:0|0:0,0:0:0:0:
254,258,145152,2,0,P|226:249|129:212,1,113.189997754715,2|0,0:0|0:0,0:0:0:0:
232,85,145902,5,10,0:0:0:0:
232,85,146089,1,2,0:0:0:0:
278,149,146277,2,0,P|303:139|331:131,1,56.5949988773575,2|0,0:0|0:0,0:0:0:0:
405,172,146652,1,2,0:0:0:0:
405,172,146839,1,2,0:0:0:0:
451,107,147027,1,2,0:0:0:0:
490,260,147402,5,0,1:0:0:0:
490,260,147777,2,0,P|459:238|392:249,1,84.8924983160363,2|0,0:0|0:0,0:0:0:0:
393,272,148152,2,0,P|375:292|332:300,1,56.5949988773575,2|0,0:0|0:0,0:0:0:0:
298,238,148527,2,0,P|267:216|200:227,1,84.8924983160363,2|0,0:0|0:0,0:0:0:0:
195,245,148902,2,0,P|153:245|109:169,1,113.189997754715,10|0,0:0|0:0,0:0:0:0:
120,37,149652,6,0,P|131:64|137:95,1,56.5949988773575,2|2,0:0|0:0,0:0:0:0:
200,138,150027,1,2,0:0:0:0:
200,138,150214,1,2,0:0:0:0:
239,69,150402,6,2,B|325:12|464:81|388:164|287:268|460:338|541:255,1,452.75999101886,6|10,1:0|0:0,0:1:0:0:
43,76,153027,6,0,L|60:140,1,56.5949988773575,2|0,0:0|1:0,0:0:0:0:
124,172,153402,2,0,L|107:236,1,56.5949988773575,2|0,1:0|0:0,0:0:0:0:
146,296,153777,1,2,0:0:0:0:
146,296,154152,1,2,0:0:0:0:
302,323,154527,6,0,L|285:259,1,56.5949988773575,2|0,0:0|0:0,0:0:0:0:
221,227,154902,2,0,L|238:163,1,56.5949988773575,10|0,0:0|0:0,0:0:0:0:
199,103,155277,2,0,P|232:78|271:83,1,56.5949988773575,2|2,0:0|0:0,0:0:0:0:
305,129,155652,6,0,P|316:156|322:187,1,56.5949988773575,2|2,0:0|0:0,0:0:0:0:
385,230,156027,1,2,0:0:0:0:
385,230,156214,1,2,0:0:0:0:
454,192,156402,6,2,B|410:102|199:143|345:389|100:360,1,452.75999101886,6|10,1:0|0:0,1:1:0:0:
47,196,159027,6,0,P|64:231|95:241,1,56.5949988773575,2|0,0:0|1:0,0:0:0:0:
153,211,159402,2,0,L|139:140,1,56.5949988773575,2|0,1:0|1:0,0:0:0:0:
194,95,159777,1,2,1:0:0:0:
194,95,159964,1,2,1:0:0:0:
260,139,160152,1,2,1:0:0:0:
398,61,160527,1,2,1:0:0:0:
481,195,160902,5,10,0:0:0:0:
481,195,161089,1,2,0:0:0:0:
408,221,161277,1,2,0:0:0:0:
408,221,161464,1,2,0:0:0:0:
335,252,161652,1,10,0:0:0:0:
335,252,162402,5,2,1:0:0:0:
496,46,167652,6,0,L|489:115,1,63.9450005366478,2|2,0:0|0:0,0:0:0:0:
426,173,168027,1,2,0:0:0:0:
426,173,168214,1,2,0:0:0:0:
351,223,168402,6,0,P|296:216|284:135,1,127.890001073296,6|0,1:0|0:0,0:0:0:0:
153,20,169152,5,2,1:0:0:0:
153,20,169339,1,2,0:0:0:0:
168,104,169527,1,2,0:0:0:0:
168,104,169714,1,2,0:0:0:0:
90,149,169902,6,0,L|66:294,1,127.890001073296,2|0,1:0|0:0,0:0:0:0:
216,348,170652,5,2,1:0:0:0:
216,348,170839,1,2,0:0:0:0:
175,262,171027,1,2,0:0:0:0:
175,262,171214,1,2,0:0:0:0:
232,193,171402,6,0,P|280:246|340:209,1,127.890001073296,2|0,1:0|0:0,0:0:0:0:
445,109,172152,5,2,1:0:0:0:
445,109,172339,1,2,0:0:0:0:
458,199,172527,1,2,0:0:0:0:
458,199,172714,1,2,0:0:0:0:
472,289,172902,6,0,P|404:287|388:211,1,127.890001073296,2|0,1:0|0:0,0:0:0:0:
371,58,173652,5,2,1:0:0:0:
371,58,173839,1,2,0:0:0:0:
300,112,174027,1,2,0:0:0:0:
300,112,174214,1,2,3:0:0:0:
224,64,174402,6,0,P|162:68|143:144,1,127.890001073296,2|0,1:0|0:0,0:0:0:0:
178,201,174964,1,0,3:0:0:0:
271,195,175152,1,2,1:0:0:0:
271,195,175339,1,2,0:0:0:0:
323,274,175527,1,2,0:0:0:0:
323,274,175714,1,2,0:0:0:0:
411,260,175902,6,0,L|436:114,1,127.890001073296,2|0,1:0|0:0,0:0:0:0:
288,36,176652,5,2,1:0:0:0:
288,36,176839,1,2,0:0:0:0:
280,128,177027,1,2,0:0:0:0:
280,128,177214,1,2,0:0:0:0:
211,69,177402,6,0,P|149:69|126:138,1,127.890001073296,2|0,1:0|0:0,0:0:0:0:
154,302,178152,5,2,1:0:0:0:
154,302,178339,1,2,0:0:0:0:
73,274,178527,1,2,0:0:0:0:
73,274,178714,1,2,0:0:0:0:
33,193,178902,5,2,0:0:0:0:
235,16,179464,5,0,3:0:0:0:
245,15,179558,1,0,3:0:0:0:
254,13,179652,1,8,0:0:0:0:
321,71,179839,5,8,0:0:0:0:
330,73,179933,1,8,0:0:0:0:
340,74,180027,1,10,0:0:0:0:
413,23,180214,1,10,0:0:0:0:
477,112,180402,6,0,L|467:247,1,117.967496399918,6|0,1:0|0:0,0:0:0:0:
449,251,180777,2,0,P|416:273|363:265,1,78.6449975999451,2|0,0:0|0:0,0:0:0:0:
300,201,181152,1,10,0:0:0:0:
300,201,181339,1,2,0:0:0:0:
212,268,181527,2,0,L|216:331,3,39.3224987999726,2|0|0|0,1:0|0:0|0:0|0:0,0:0:0:0:
200,334,181902,6,0,P|144:350|96:294,1,117.967496399918,2|0,0:0|0:0,0:0:0:0:
100,288,182277,2,0,L|94:199,1,78.6449975999451,2|0,0:0|1:0,0:0:0:0:
28,128,182652,1,10,0:0:0:0:
28,128,182839,1,2,0:0:0:0:
106,50,183027,2,0,L|111:128,1,78.6449975999451,2|0,0:0|0:0,0:0:0:0:
202,190,183402,6,0,L|319:167,1,117.967496399918,6|0,1:0|0:0,0:0:0:0:
320,142,183777,2,0,L|332:54,1,78.6449975999451,2|0,0:0|0:0,0:0:0:0:
430,13,184152,1,10,0:0:0:0:
430,13,184339,1,2,0:0:0:0:
488,106,184527,2,0,L|494:144,3,39.3224987999726,2|0|0|0,1:0|0:0|0:0|0:0,0:0:0:0:
481,170,184902,6,0,P|418:156|385:201,1,117.967496399918,2|0,0:0|0:0,0:0:0:0:
385,215,185277,2,0,L|378:306,1,78.6449975999451,2|0,0:0|0:0,0:0:0:0:
282,343,185652,1,10,0:0:0:0:
282,343,185839,1,2,0:0:0:0:
195,283,186027,1,2,1:0:0:0:
195,283,186214,1,8,0:0:0:0:
100,340,186402,6,0,L|88:207,1,117.967496399918,6|0,1:0|0:0,0:0:0:0:
83,194,186777,2,0,P|127:167|168:173,1,78.6449975999451,2|0,0:0|0:0,0:0:0:0:
259,211,187152,1,10,0:0:0:0:
259,211,187339,1,2,0:0:0:0:
343,140,187527,2,0,L|351:88,3,39.3224987999726,2|0|0|0,1:0|0:0|0:0|0:0,0:0:0:0:
358,74,187902,6,0,P|323:29|265:49,1,117.967496399918,2|0,0:0|0:0,0:0:0:0:
236,80,188277,2,0,P|209:102|149:90,1,78.6449975999451,2|0,0:0|1:0,0:0:0:0:
102,18,188652,1,10,0:0:0:0:
102,18,188839,1,2,0:0:0:0:
12,82,189027,2,0,L|19:218,1,117.967496399918,2|0,0:0|0:0,0:0:0:0:
17,226,189402,6,0,P|76:186|112:226,1,117.967496399918,6|0,1:0|0:0,0:0:0:0:
109,231,189777,2,0,L|111:320,1,78.6449975999451,2|0,0:0|3:0,0:0:0:0:
208,372,190152,1,10,0:0:0:0:
208,372,190339,1,2,3:0:0:0:
303,314,190527,1,2,1:0:0:0:
303,314,190714,1,0,3:0:0:0:
398,259,190902,5,2,0:0:0:0:
399,247,190995,1,0,0:0:0:0:
400,235,191089,1,0,0:0:0:0:
421,126,191277,2,0,L|410:41,1,78.6449975999451,2|0,1:0|1:0,0:0:0:0:
306,13,191652,5,10,0:0:0:0:
306,13,191839,1,2,1:0:0:0:
226,89,192027,1,2,1:0:0:0:
226,89,192214,2,0,L|142:72,1,78.6449975999451,2|2,1:0|0:0,0:0:0:0:
