osu file format v14

[General]
AudioFilename: audio.mp3
AudioLeadIn: 0
PreviewTime: 149464
Countdown: 0
SampleSet: Soft
StackLeniency: 0.4
Mode: 0
LetterboxInBreaks: 0
WidescreenStoryboard: 1

[Editor]
Bookmarks: 12402,24402,36402,48402,60402,72402,78402,90402,102402,114402,126402,138402,150402,162402,168402,180402,192402
DistanceSpacing: 0.25
BeatDivisor: 8
GridSize: 32
TimelineZoom: 2

[Metadata]
Title:VILLAIN feat. Madison Beer and Kim Petras
TitleUnicode:VILLAIN feat. Madison Beer and Kim Petras
Artist:K/DA
ArtistUnicode:K/DA
Creator:SMOKELIND
Version:ELI'S INSANE
Source:League of Legends
Tags:LoL Riot Games English Pop KDA Evelynn Elinor Eli [_Eli_] Chiga All Out
BeatmapID:2732161
BeatmapSetID:1299924

[Difficulty]
HPDrainRate:4.4
CircleSize:3.8
OverallDifficulty:6.6
ApproachRate:8.8
SliderMultiplier:1.6
SliderTickRate:1

[Events]
//Background and Video events
0,0,"eve.jpg",0,0
Video,222,"eve.mp4"
//Break Periods
2,72602,77023
2,138602,143023
2,162602,167773
2,192602,197023
//Storyboard Layer 0 (Background)
//Storyboard Layer 1 (Fail)
//Storyboard Layer 2 (Pass)
//Storyboard Layer 3 (Foreground)
//Storyboard Layer 4 (Overlay)
//Storyboard Sound Samples

[TimingPoints]
402,375,4,2,77,47,1,0
402,-100,4,2,77,47,0,0
12402,-125,4,2,77,57,0,0
24402,-125,4,2,77,57,0,0
36402,-250,4,2,77,47,0,0
39214,-250,4,2,77,5,0,0
39402,-250,4,2,77,47,0,0
40714,-250,4,2,77,5,0,0
40902,-250,4,2,77,47,0,0
42402,-250,4,2,77,47,0,0
45214,-250,4,2,77,5,0,0
45402,-250,4,2,77,47,0,0
46339,-250,4,2,77,5,0,0
46527,-250,4,2,77,37,0,0
46902,-250,4,2,77,47,0,0
47464,-250,4,2,77,5,0,0
47652,-100,4,2,77,57,0,0
48308,-100,4,2,77,57,0,0
48402,-100,4,2,77,67,0,0
59183,-100,4,2,77,5,0,0
59277,-100,4,2,77,67,0,0
59558,-100,4,2,77,5,0,0
59652,-100,4,2,77,67,0,0
60402,-100,4,2,77,87,0,1
72402,-250,4,2,77,57,0,0
72902,-250,4,2,77,47,0,0
77652,-250,4,2,77,57,0,0
78402,-125,4,2,77,57,0,0
83933,-125,4,2,77,5,0,0
84027,-125,4,2,77,57,0,0
84308,-125,4,2,77,5,0,0
84402,-125,4,2,77,57,0,0
89652,-166.666666666667,4,2,77,57,0,0
90402,-125,4,2,77,67,0,0
100433,-125,4,2,77,5,0,0
100527,-125,4,2,77,67,0,0
100808,-125,4,2,77,5,0,0
100902,-125,4,2,77,67,0,0
102027,-125,4,2,77,57,0,0
102402,-294.117647058824,4,2,77,47,0,0
105214,-250,4,2,77,47,0,0
105402,-200,4,2,77,47,0,0
106714,-250,4,2,77,5,0,0
106902,-250,4,2,77,47,0,0
108402,-333.333333333333,4,2,77,47,0,0
111214,-250,4,2,77,47,0,0
111402,-250,4,2,77,47,0,0
112339,-250,4,2,77,5,0,0
112527,-250,4,2,77,37,0,0
112902,-250,4,2,77,47,0,0
113464,-250,4,2,77,5,0,0
113652,-100,4,2,77,57,0,0
114308,-100,4,2,77,57,0,0
114402,-100,4,2,77,67,0,0
125183,-100,4,2,77,5,0,0
125277,-100,4,2,77,67,0,0
125558,-100,4,2,77,5,0,0
125652,-100,4,2,77,67,0,0
126402,-100,4,2,77,87,0,1
138402,-250.000000000001,4,2,77,87,0,0
138589,-250.000000000001,4,2,77,47,0,0
144308,-250,4,2,77,5,0,0
144402,-125,4,2,77,57,0,0
149652,-125,4,2,77,57,0,0
150402,-200,4,2,77,57,0,0
151527,-250,4,2,77,5,0,0
151902,-125,4,2,77,57,0,0
156402,-166.666666666667,4,2,77,57,0,0
157527,-125,4,2,77,57,0,0
157902,-166.666666666667,4,2,77,57,0,0
159027,-125,4,2,77,57,0,0
162214,-125,4,2,77,5,0,0
162402,-125,4,2,77,57,0,0
168402,-100,4,2,77,67,0,0
180402,-100,4,2,77,87,0,1
192402,-100,4,2,77,47,0,0

[Colours]
Combo1 : 187,119,255
Combo2 : 185,225,255
Combo3 : 220,176,255
Combo4 : 136,210,255

[HitObjects]
60,328,12027,5,2,1:0:0:0:
60,328,12214,1,2,0:0:0:0:
136,164,12402,6,0,B|232:172|172:276|264:288,1,192,6|0,1:0|0:0,0:0:0:0:
356,264,13152,1,0,0:0:0:0:
368,260,13339,1,0,0:0:0:0:
460,348,13527,1,0,1:0:0:0:
448,344,13714,1,0,0:0:0:0:
480,168,13902,6,0,P|472:208|468:232,1,64,10|2,0:0|1:0,0:0:0:0:
392,92,14277,1,2,1:0:0:0:
392,92,14464,1,2,0:0:0:0:
336,260,14652,2,0,P|330:228|324:197,1,64,2|0,0:0|0:0,0:0:0:0:
260,76,15027,2,0,P|236:64|200:64,1,64,2|0,0:0|0:0,0:0:0:0:
96,268,15402,6,0,B|152:264|136:192|188:188,1,128,2|0,1:0|0:0,0:0:0:0:
76,44,15964,2,0,P|44:76|44:156,1,128,0|0,1:0|1:0,0:0:0:0:
96,268,16527,2,0,P|128:268|156:248,1,64,0|0,1:0|0:0,0:0:0:0:
240,72,16902,6,0,L|252:136,1,64,10|2,0:0|1:0,0:0:0:0:
336,8,17277,1,2,0:0:0:0:
336,8,17464,1,2,0:0:0:0:
392,140,17652,2,0,L|376:204,1,64,2|0,1:0|1:0,0:0:0:0:
336,32,18027,1,2,0:0:0:0:
336,32,18214,1,0,0:0:0:0:
256,232,18402,5,6,1:0:0:0:
224,235,18589,1,0,0:0:0:0:
195,222,18777,1,0,0:0:0:0:
177,196,18964,1,0,0:0:0:0:
112,112,19152,2,0,L|100:176,1,64
32,296,19527,2,0,L|20:233,1,64,0|0,1:0|0:0,0:0:0:0:
0,52,19902,6,0,P|24:32|60:32,1,64,10|2,0:0|1:0,0:0:0:0:
152,72,20277,1,2,1:0:0:0:
152,72,20464,1,2,0:0:0:0:
208,160,20652,2,0,L|195:227,1,64,2|0,1:0|0:0,0:0:0:0:
304,96,21027,2,0,L|291:33,1,64,2|0,1:0|1:0,0:0:0:0:
340,232,21402,6,0,B|392:204|400:292|452:268,1,128,2|0,1:0|0:0,0:0:0:0:
472,92,21964,2,0,B|432:104|432:104|452:188,1,128,0|0,1:0|0:0,0:0:0:0:
444,348,22527,2,0,P|408:348|380:332,1,64,0|0,1:0|0:0,0:0:0:0:
248,208,22902,6,0,L|312:192,1,64,8|0,0:0|0:0,0:0:0:0:
216,348,23277,2,0,L|152:332,1,64,0|0,1:0|0:0,0:0:0:0:
152,160,23652,1,0,1:0:0:0:
144,204,23839,1,0,1:0:0:0:
48,348,24027,1,2,0:0:0:0:
40,300,24214,1,2,0:0:0:0:
28,108,24402,6,0,B|91:96|91:96|133:130|133:130|208:116,1,192,6|0,1:0|0:0,0:0:0:0:
240,24,25152,1,0,0:0:0:0:
220,12,25339,1,0,0:0:0:0:
204,20,25527,1,0,1:0:0:0:
256,216,25714,1,0,0:0:0:0:
256,216,25808,1,0,0:0:0:0:
256,216,25902,6,0,L|320:204,1,64,10|2,0:0|1:0,0:0:0:0:
468,160,26277,1,2,1:0:0:0:
468,160,26464,1,2,0:0:0:0:
356,56,26652,2,0,L|292:44,1,64,2|0,0:0|0:0,0:0:0:0:
200,196,27027,2,0,L|264:184,1,64,2|0,0:0|0:0,0:0:0:0:
96,36,27402,6,0,P|48:80|48:140,1,128,2|0,1:0|0:0,0:0:0:0:
88,260,27964,2,0,B|140:240|148:320|200:304,1,128,0|0,1:0|1:0,0:0:0:0:
262,184,28527,2,0,P|234:168|202:168,1,64,0|0,1:0|0:0,0:0:0:0:
304,348,28902,6,0,L|368:336,1,64,10|2,0:0|1:0,0:0:0:0:
512,308,29277,1,2,0:0:0:0:
512,308,29464,1,0,0:0:0:0:
404,216,29652,2,0,L|336:200,1,64,2|0,1:0|1:0,0:0:0:0:
244,56,30027,2,0,P|272:36|304:36,1,64,2|0,0:0|0:0,0:0:0:0:
388,44,30308,1,0,0:0:0:0:
388,44,30402,6,0,B|476:52|420:168|504:176,1,192,6|0,1:0|0:0,0:0:0:0:
496,296,31152,1,0,0:0:0:0:
476,304,31339,1,0,0:0:0:0:
352,216,31527,1,0,1:0:0:0:
372,224,31714,1,0,0:0:0:0:
336,348,31902,6,0,L|272:332,1,64,10|2,0:0|1:0,0:0:0:0:
144,292,32277,1,2,1:0:0:0:
144,292,32464,1,2,0:0:0:0:
252,164,32652,2,0,P|244:200|240:228,1,64,2|0,1:0|0:0,0:0:0:0:
136,76,33027,2,0,P|143:107|147:138,1,64,2|0,1:0|1:0,0:0:0:0:
340,76,33402,6,0,P|304:28|240:28,1,128,2|0,1:0|0:0,0:0:0:0:
80,56,33964,2,0,B|48:68|48:68|68:160,1,128,0|0,1:0|0:0,0:0:0:0:
112,288,34527,2,0,L|176:272,1,64,0|0,1:0|0:0,0:0:0:0:
272,152,34902,6,0,P|244:132|212:132,1,64,8|0,0:0|0:0,0:0:0:0:
296,300,35277,2,0,P|328:299|352:279,1,64,0|0,1:0|0:0,0:0:0:0:
364,124,35652,1,0,1:0:0:0:
372,168,35839,1,0,1:0:0:0:
452,348,36027,1,2,1:0:0:0:
460,304,36214,1,0,0:0:0:0:
488,152,36402,6,0,B|556:104|556:0|444:-52|332:0|332:112|432:112|312:188|260:172|228:140,1,480,2|0,0:0|0:0,0:0:0:0:
200,32,39402,6,0,P|264:60|264:200,1,224,2|0,0:0|0:0,0:0:0:0:
200,296,40902,6,0,L|136:308,1,64
32,176,41652,2,0,L|96:188,1,64,0|2,0:0|0:0,0:0:0:0:
296,140,42402,6,0,B|344:124|344:36|300:4|240:-20|180:4|128:36|128:140|176:140|204:180|236:256,1,480,2|0,0:0|0:0,0:0:0:0:
308,348,45402,6,0,B|388:344|348:260|428:256,1,160,2|0,0:0|0:0,0:0:0:0:
484,308,46527,2,0,L|488:328,2,21.3333333333333,8|8|8,0:0|0:0|0:0,0:0:0:0:
444,156,46902,6,0,B|413:164|413:164|394:185|394:185|359:195,1,96,0|0,1:0|0:0,0:0:0:0:
304,48,47652,2,0,L|296:88,1,40,2|0,0:0|0:0,0:0:0:0:
224,232,47839,2,0,L|216:192,1,40,2|0,0:0|0:0,0:0:0:0:
160,24,48027,2,0,L|44:56,1,120,2|0,0:0|0:0,0:0:0:0:
4,132,48402,6,0,B|72:104|76:216|140:184,1,160,6|0,1:0|0:0,0:0:0:0:
224,156,48964,1,0,0:0:0:0:
284,36,49152,5,2,1:0:0:0:
296,80,49339,1,2,0:0:0:0:
356,232,49527,5,2,0:0:0:0:
368,188,49714,1,2,0:0:0:0:
452,52,49902,6,0,P|504:80|504:176,1,160,2|0,1:0|0:0,0:0:0:0:
460,248,50464,1,0,0:0:0:0:
380,328,50652,5,2,1:0:0:0:
332,312,50839,1,2,0:0:0:0:
232,232,51027,5,2,0:0:0:0:
280,216,51214,1,2,0:0:0:0:
204,352,51402,6,0,B|132:372|144:268|72:288,1,160,2|0,1:0|0:0,0:0:0:0:
0,340,51964,1,0,0:0:0:0:
192,264,52152,5,2,1:0:0:0:
181,215,52339,1,2,0:0:0:0:
68,112,52527,5,2,0:0:0:0:
57,162,52714,1,2,0:0:0:0:
316,144,52902,6,0,P|241:126|160:100,1,160,2|0,1:0|0:0,0:0:0:0:
76,72,53464,1,0,0:0:0:0:
248,20,53652,5,2,1:0:0:0:
292,36,53839,1,2,0:0:0:0:
384,152,54027,5,2,0:0:0:0:
338,164,54214,1,2,3:0:0:0:
460,28,54402,6,0,B|512:44|512:44|488:152,1,160,2|0,1:0|0:0,0:0:0:0:
456,232,54964,1,0,3:0:0:0:
344,348,55152,5,2,1:0:0:0:
332,300,55339,1,2,0:0:0:0:
236,168,55527,5,2,0:0:0:0:
224,216,55714,1,2,0:0:0:0:
168,348,55902,6,0,P|120:348|64:260,1,160,2|0,1:0|0:0,0:0:0:0:
72,176,56464,1,0,0:0:0:0:
224,232,56652,5,2,1:0:0:0:
180,248,56839,1,2,0:0:0:0:
72,92,57027,5,2,0:0:0:0:
116,108,57214,1,2,0:0:0:0:
288,152,57402,6,0,B|364:144|324:60|400:52,1,160,2|0,1:0|0:0,0:0:0:0:
488,64,57964,1,0,0:0:0:0:
460,220,58152,5,2,1:0:0:0:
412,208,58339,1,2,0:0:0:0:
292,316,58527,5,2,0:0:0:0:
340,304,58714,1,2,0:0:0:0:
200,168,58902,6,0,L|184:292,1,120,2|0,1:0|0:0,0:0:0:0:
116,348,59277,2,0,L|100:228,1,120,0|0,3:0|0:0,0:0:0:0:
80,144,59652,1,0,1:0:0:0:
192,36,59839,1,8,0:0:0:0:
192,36,59933,1,8,0:0:0:0:
192,36,60027,2,0,L|236:44,1,40,10|0,0:0|0:0,0:0:0:0:
300,124,60214,2,0,L|340:116,1,40,10|0,0:0|0:0,0:0:0:0:
484,28,60402,6,0,L|464:192,1,160,6|2,1:0|0:0,0:0:0:0:
464,186,60964,1,0,0:0:0:0:
408,352,61152,2,0,B|332:340|376:256|296:248,1,160,10|2,0:0|1:0,0:0:0:0:
116,360,61714,1,0,0:0:0:0:
116,360,61808,1,0,0:0:0:0:
116,360,61902,6,0,L|272:324,1,160,2|2,0:0|0:0,0:0:0:0:
271,324,62464,1,0,1:0:0:0:
112,108,62652,2,0,B|72:172|72:172|116:244,1,160,10|2,0:0|0:0,0:0:0:0:
324,120,63214,1,0,0:0:0:0:
324,120,63308,1,0,0:0:0:0:
324,120,63402,6,0,P|324:72|232:32,1,160,6|2,1:0|0:0,0:0:0:0:
232,31,63964,1,0,0:0:0:0:
304,240,64152,2,0,B|384:240|352:152|424:152,1,160,10|2,0:0|1:0,0:0:0:0:
448,160,64620,1,0,0:0:0:0:
468,176,64714,1,0,0:0:0:0:
480,192,64808,1,0,0:0:0:0:
492,212,64902,6,0,P|492:296|432:336,1,160,2|2,0:0|0:0,0:0:0:0:
434,335,65464,1,0,0:0:0:0:
256,344,65652,2,0,L|176:328,1,80,10|2,0:0|0:0,0:0:0:0:
76,280,66027,1,2,1:0:0:0:
160,176,66214,1,8,0:0:0:0:
32,40,66402,6,0,L|60:200,1,160,6|2,1:0|0:0,0:0:0:0:
59,197,66964,1,0,0:0:0:0:
296,172,67152,2,0,B|224:160|260:80|184:72,1,160,10|2,0:0|1:0,0:0:0:0:
336,28,67714,1,0,0:0:0:0:
336,28,67808,1,0,0:0:0:0:
336,28,67902,6,0,L|504:56,1,160,2|2,0:0|0:0,0:0:0:0:
493,54,68464,1,0,1:0:0:0:
480,236,68652,2,0,B|404:244|440:324|368:336,1,160,10|2,0:0|0:0,0:0:0:0:
304,168,69214,1,0,0:0:0:0:
304,168,69308,1,0,0:0:0:0:
304,168,69402,6,0,P|364:124|432:160,1,160,6|2,1:0|0:0,0:0:0:0:
432,160,69964,1,0,3:0:0:0:
324,348,70152,2,0,B|252:340|288:256|212:248,1,160,10|2,0:0|1:0,0:0:0:0:
212,248,70714,1,0,3:0:0:0:
20,360,70902,5,2,0:0:0:0:
20,360,70995,1,0,0:0:0:0:
20,360,71089,1,0,0:0:0:0:
196,324,71277,1,2,1:0:0:0:
56,176,71464,1,0,1:0:0:0:
112,356,71652,1,10,0:0:0:0:
184,172,71839,1,2,1:0:0:0:
32,276,72027,1,2,1:0:0:0:
208,280,72214,1,2,1:0:0:0:
64,152,72402,5,2,0:0:0:0:
360,348,77652,6,0,L|456:328,1,96,14|0,0:2|0:0,0:0:0:0:
496,148,78402,6,0,P|448:148|408:212,1,128,2|2,1:0|0:0,0:0:0:0:
407,210,78964,1,2,0:0:0:0:
324,104,79152,2,0,B|264:112|292:176|232:184,1,128,10|2,0:0|1:0,0:0:0:0:
116,160,79714,1,2,0:0:0:0:
68,48,79902,6,0,P|96:28|124:28,1,64,2|2,0:0|0:0,0:0:0:0:
272,112,80277,2,0,P|244:112|215:92,1,64,2|2,0:0|0:0,0:0:0:0:
328,8,80652,2,0,P|360:16|452:36,1,128,2|2,1:0|0:0,0:0:0:0:
500,132,81214,1,2,0:0:0:0:
440,272,81402,6,0,L|428:208,1,64,2|2,1:0|0:0,0:0:0:0:
352,112,81777,2,0,L|340:174,1,64,2|2,0:0|0:0,0:0:0:0:
312,348,82152,2,0,P|280:308|208:304,1,128,10|2,0:0|1:0,0:0:0:0:
88,344,82714,1,2,0:0:0:0:
16,256,82902,6,0,P|46:251|77:239,1,64,2|2,0:0|0:0,0:0:0:0:
212,184,83277,2,0,P|180:178|151:167,1,64,2|2,0:0|0:0,0:0:0:0:
0,72,83652,2,0,B|56:64|28:28|96:20,1,96,10|0,0:0|0:0,0:0:0:0:
160,60,84027,2,0,P|167:104|212:107,1,96,2|0,1:0|0:0,0:0:0:0:
260,32,84402,6,0,B|328:40|292:104|352:112,1,128,2|2,1:0|0:0,0:0:0:0:
349,111,84964,1,0,0:0:0:0:
496,0,85152,2,0,L|480:128,1,128,10|2,0:0|1:0,0:0:0:0:
456,232,85714,1,2,0:0:0:0:
416,332,85902,6,0,P|388:344|356:332,1,64,2|2,0:0|0:0,0:0:0:0:
284,228,86277,2,0,P|312:216|344:224,1,64,2|2,0:0|0:0,0:0:0:0:
232,348,86652,2,0,B|168:340|204:284|136:276,1,128,2|2,1:0|0:0,0:0:0:0:
32,300,87214,1,2,0:0:0:0:
24,192,87402,6,0,L|84:172,1,64,2|2,1:0|0:0,0:0:0:0:
240,228,87777,2,0,L|180:208,1,64,2|2,0:0|0:0,0:0:0:0:
144,56,88152,2,0,B|188:64|188:64|212:88|212:88|260:96,1,128,10|2,0:0|1:0,0:0:0:0:
368,116,88714,1,2,0:0:0:0:
368,16,88902,6,0,P|344:0|308:0,1,64,2|2,0:0|0:0,0:0:0:0:
392,152,89277,2,0,P|424:152|452:132,1,64,2|2,0:0|0:0,0:0:0:0:
260,96,89652,2,0,L|292:236,1,143.999995605469,14|2,0:0|0:0,0:0:0:0:
492,324,90402,6,0,B|428:316|460:252|400:244,1,128,6|0,1:0|0:0,0:0:0:0:
384,248,90870,1,0,0:0:0:0:
368,256,90964,1,0,0:0:0:0:
244,364,91152,2,0,L|368:336,1,128,8|2,0:0|1:0,0:0:0:0:
512,240,91714,1,2,0:0:0:0:
440,92,91902,5,2,0:0:0:0:
428,88,91995,1,0,0:0:0:0:
416,84,92089,1,2,0:0:0:0:
404,80,92183,1,0,0:0:0:0:
392,80,92277,2,0,P|364:80|332:100,1,64,2|2,0:0|0:0,0:0:0:0:
256,212,92652,2,0,P|224:212|198:193,1,64,2|2,1:0|0:0,0:0:0:0:
124,40,93027,1,2,0:0:0:0:
248,132,93214,1,2,0:0:0:0:
92,304,93402,6,0,L|68:172,1,128,2|0,1:0|0:0,0:0:0:0:
67,164,93870,1,0,0:0:0:0:
65,152,93964,1,0,0:0:0:0:
208,28,94152,2,0,B|248:32|248:32|280:60|280:60|328:64,1,128,10|2,0:0|1:0,0:0:0:0:
452,36,94714,1,0,0:0:0:0:
477,155,94902,5,2,0:0:0:0:
478,163,94995,1,0,0:0:0:0:
478,171,95089,1,0,0:0:0:0:
477,178,95183,1,0,0:0:0:0:
476,186,95277,2,0,L|464:249,1,64
384,352,95652,2,0,P|352:332|312:320,1,64,14|2,0:0|0:0,0:0:0:0:
228,288,96027,1,2,1:2:0:0:
344,212,96214,1,2,0:0:0:0:
220,120,96402,6,0,B|156:124|188:196|128:200,1,128,2|2,1:0|0:0,0:0:0:0:
131,199,96964,1,0,0:0:0:0:
32,32,97152,2,0,P|40:60|48:96,1,64,8|2,0:0|0:0,0:0:0:0:
131,199,97527,2,0,P|137:167|146:136,1,64,2|2,1:0|0:0,0:0:0:0:
262,33,97902,5,2,0:0:0:0:
267,38,97995,1,0,0:0:0:0:
272,43,98089,1,2,0:0:0:0:
279,47,98183,1,0,0:0:0:0:
284,52,98277,2,0,P|316:68|344:68,1,64,2|2,0:0|0:0,0:0:0:0:
484,144,98652,2,0,P|456:144|424:160,1,64,2|2,1:0|0:0,0:0:0:0:
352,324,99027,1,2,0:0:0:0:
472,220,99214,1,2,0:0:0:0:
304,160,99402,6,0,B|248:164|272:236|216:240,1,128,2|0,1:0|0:0,0:0:0:0:
88,164,99964,1,0,0:0:0:0:
88,164,100058,1,0,0:0:0:0:
88,164,100152,2,0,P|96:188|112:260,1,96,10|0,0:0|0:0,0:0:0:0:
191,332,100527,2,0,P|200:284|214:239,1,96,2|0,1:0|0:0,0:0:0:0:
304,176,100902,6,0,P|348:176|376:296,1,192,2|0,0:0|0:0,0:0:0:0:
376,68,101652,2,0,P|412:68|436:84,1,64,4|0,1:0|0:0,0:0:0:0:
312,212,102027,2,0,P|288:232|252:232,1,64,6|0,1:0|0:0,0:0:0:0:
112,128,102402,6,0,B|40:160|-12:64|24:-36|236:-12|140:104|172:160|280:140,1,408.000002490234,2|0,0:0|0:0,0:0:0:0:
304,28,105402,6,0,P|224:72|224:244,1,280,2|0,0:0|0:0,0:0:0:0:
320,344,106902,2,0,L|384:332,1,64
488,268,107652,2,0,L|424:256,1,64,0|2,0:0|0:0,0:0:0:0:
308,48,108402,6,0,B|396:4|396:4|472:144|472:144|380:192,1,359.999989013672,2|0,0:0|0:0,0:0:0:0:
272,288,111402,6,0,B|200:280|240:192|164:184,1,160,2|0,0:0|0:0,0:0:0:0:
44,220,112527,2,0,L|48:240,2,21.3333333333333,8|8|8,0:0|0:0|0:0,0:0:0:0:
32,108,112902,6,0,B|60:100|60:100|92:112|92:112|124:104,1,96,0|0,1:0|0:0,0:0:0:0:
396,84,113652,2,0,L|356:76,1,40,2|0,0:0|0:0,0:0:0:0:
292,200,113839,2,0,L|332:192,1,40,2|0,0:0|0:0,0:0:0:0:
192,40,114027,2,0,P|200:84|212:160,1,120,2|0,0:0|0:0,0:0:0:0:
220,248,114402,6,0,P|180:304|100:288,1,160,6|0,1:0|0:0,0:0:0:0:
48,216,114964,1,0,0:0:0:0:
152,108,115152,5,2,1:0:0:0:
148,148,115339,1,2,0:0:0:0:
32,76,115527,5,2,0:0:0:0:
28,36,115714,1,2,0:0:0:0:
168,12,115902,6,0,B|236:-8|236:96|308:64,1,160,2|0,1:0|0:0,0:0:0:0:
388,36,116464,1,0,0:0:0:0:
476,192,116652,5,2,1:0:0:0:
436,180,116839,1,2,0:0:0:0:
312,304,117027,5,2,0:0:0:0:
352,292,117214,1,2,0:0:0:0:
288,144,117402,6,0,P|240:144|196:236,1,160,2|0,1:0|0:0,0:0:0:0:
220,320,117964,1,0,0:0:0:0:
80,348,118152,5,2,1:0:0:0:
32,336,118339,1,2,0:0:0:0:
0,200,118527,5,2,0:0:0:0:
48,188,118714,1,2,0:0:0:0:
260,136,118902,6,0,P|164:116|104:100,1,160,2|0,1:0|0:0,0:0:0:0:
20,72,119464,1,0,0:0:0:0:
180,12,119652,5,2,1:0:0:0:
228,4,119839,1,2,0:0:0:0:
264,168,120027,5,2,0:0:0:0:
216,160,120214,1,2,3:0:0:0:
344,48,120402,6,0,B|392:60|392:60|372:172,1,160,2|0,1:0|0:0,0:0:0:0:
352,256,120964,1,0,3:0:0:0:
160,348,121152,5,2,1:0:0:0:
168,300,121339,1,2,0:0:0:0:
248,160,121527,5,2,0:0:0:0:
256,208,121714,1,2,0:0:0:0:
312,348,121902,6,0,B|400:340|348:260|428:252,1,160,2|0,1:0|0:0,0:0:0:0:
512,264,122464,1,0,0:0:0:0:
340,208,122652,5,2,1:0:0:0:
300,196,122839,1,2,0:0:0:0:
188,80,123027,5,2,0:0:0:0:
228,68,123214,1,2,0:0:0:0:
412,32,123402,6,0,P|460:56|460:156,1,160,2|0,1:0|0:0,0:0:0:0:
412,228,123964,1,0,0:0:0:0:
288,336,124152,5,2,1:0:0:0:
280,288,124339,1,2,0:0:0:0:
172,160,124527,5,2,0:0:0:0:
168,208,124714,1,2,0:0:0:0:
140,364,124902,6,0,P|88:348|20:332,1,120,2|0,1:0|0:0,0:0:0:0:
8,248,125277,2,0,P|66:234|123:216,1,120,2|0,0:0|0:0,0:0:0:0:
208,192,125652,1,0,1:0:0:0:
40,52,125839,1,8,0:0:0:0:
40,52,125933,1,8,0:0:0:0:
40,52,126027,2,0,L|47:93,1,40,10|0,0:0|0:0,0:0:0:0:
128,184,126214,2,0,L|134:145,1,40,10|0,0:0|0:0,0:0:0:0:
212,36,126402,6,0,B|276:12|276:128|348:96,1,160,6|2,1:0|0:0,0:0:0:0:
344,97,126964,1,0,0:0:0:0:
488,16,127152,2,0,B|444:68|444:68|488:152,1,160,10|2,0:0|1:0,0:0:0:0:
480,284,127714,5,0,0:0:0:0:
480,284,127808,1,0,0:0:0:0:
480,284,127902,2,0,P|396:256|328:236,1,160,2|2,0:0|0:0,0:0:0:0:
327,235,128464,1,0,1:0:0:0:
112,216,128652,2,0,B|184:228|160:124|236:140,1,160,10|2,0:0|0:0,0:0:0:0:
400,96,129214,5,0,0:0:0:0:
400,96,129308,1,0,0:0:0:0:
400,96,129402,2,0,P|320:96|276:32,1,160,6|2,1:0|0:0,0:0:0:0:
276,35,129964,1,0,0:0:0:0:
56,160,130152,2,0,P|119:144|212:116,1,160,10|2,0:0|1:0,0:0:0:0:
240,120,130620,1,0,0:0:0:0:
268,136,130714,1,0,0:0:0:0:
284,160,130808,1,0,0:0:0:0:
292,192,130902,6,0,B|220:200|264:288|188:300,1,160,2|2,0:0|0:0,0:0:0:0:
189,299,131464,1,0,0:0:0:0:
44,348,131652,2,0,L|28:264,1,80,10|2,0:0|0:0,0:0:0:0:
160,136,132027,1,2,1:0:0:0:
128,236,132214,1,8,0:0:0:0:
4,112,132402,6,0,P|40:44|116:44,1,160,6|2,1:0|0:0,0:0:0:0:
116,44,132964,1,0,0:0:0:0:
245,181,133152,2,0,B|325:173|281:85|357:77,1,160,10|2,0:0|1:0,0:0:0:0:
484,148,133714,5,0,0:0:0:0:
484,148,133808,1,0,0:0:0:0:
484,148,133902,2,0,P|471:215|456:308,1,160,2|2,0:0|0:0,0:0:0:0:
456,305,134464,1,0,1:0:0:0:
324,40,134652,2,0,P|336:107|352:200,1,160,10|2,0:0|1:0,0:0:0:0:
296,344,135214,5,0,0:0:0:0:
296,344,135308,1,0,0:0:0:0:
296,344,135402,2,0,P|260:284|176:284,1,160,6|2,1:0|0:0,0:0:0:0:
176,283,135964,1,0,3:0:0:0:
32,348,136152,2,0,B|-12:280|-12:280|32:212,1,160,10|2,0:0|1:0,0:0:0:0:
30,213,136714,1,2,3:0:0:0:
220,136,136902,5,2,0:0:0:0:
220,136,136995,1,0,0:0:0:0:
220,136,137089,1,0,0:0:0:0:
188,352,137277,1,2,1:0:0:0:
104,148,137464,1,0,1:0:0:0:
192,328,137652,1,10,0:0:0:0:
304,160,137839,1,2,1:0:0:0:
112,260,138027,1,2,1:0:0:0:
292,348,138214,1,2,1:0:0:0:
204,152,138402,5,6,1:0:0:0:
204,152,143652,6,0,L|316:128,1,112,2|0,0:0|0:0,0:0:0:0:
400,152,144402,6,0,P|408:184|400:216,1,64,0|0,1:0|0:0,0:0:0:0:
348,344,144777,1,2,0:0:0:0:
340,352,145152,2,0,B|284:360|288:280|236:288,1,128,2|0,0:0|0:0,0:0:0:0:
104,352,145902,6,0,L|40:336,1,64,10|2,0:0|0:0,0:0:0:0:
16,332,146277,1,2,0:0:0:0:
104,196,146652,2,0,L|168:180,1,64,2|2,0:0|0:0,0:0:0:0:
192,176,147027,1,2,0:0:0:0:
392,96,147402,6,0,P|392:64|372:36,1,64,0|0,1:0|0:0,0:0:0:0:
272,16,147777,1,2,0:0:0:0:
252,20,148152,2,0,P|168:40|128:48,1,128,2|2,0:0|0:0,0:0:0:0:
32,184,148902,2,0,P|94:196|220:232,1,192,10|0,0:0|0:0,0:0:0:0:
284,312,149652,2,0,P|316:312|344:296,1,64,2|2,0:0|0:0,0:0:0:0:
432,184,150027,2,0,P|404:168|372:168,1,64,2|2,0:0|0:0,0:0:0:0:
195,146,150402,6,2,P|241:14|374:41,1,300,6|2,1:0|1:0,1:0:0:0:
373,40,151902,1,10,0:0:0:0:
476,304,153027,6,0,L|412:288,1,64,2|0,0:0|1:0,0:0:0:0:
288,204,153402,1,2,1:0:0:0:
288,204,153589,1,0,0:0:0:0:
212,344,153777,2,0,L|280:328,1,64,2|0,0:0|0:0,0:0:0:0:
274,329,154152,1,2,0:0:0:0:
344,140,154527,6,0,P|320:120|288:120,1,64,2|0,0:0|0:0,0:0:0:0:
200,176,154902,1,10,0:0:0:0:
200,176,155089,1,0,0:0:0:0:
136,312,155277,2,0,P|104:312|80:291,1,64,2|2,0:0|0:0,0:0:0:0:
32,184,155652,5,2,0:0:0:0:
40,156,155839,1,2,0:0:0:0:
156,64,156027,5,2,0:0:0:0:
160,92,156214,1,2,0:0:0:0:
196,272,156402,6,2,B|270:307|338:251|274:195|362:131|426:179,1,287.999991210938,6|2,1:0|1:0,1:0:0:0:
440,64,157902,5,10,0:0:0:0:
356,348,159214,5,0,1:0:0:0:
268,256,159402,1,2,1:0:0:0:
252,292,159589,1,0,1:0:0:0:
152,352,159777,2,0,P|122:343|88:336,1,64,2|2,1:0|1:0,0:0:0:0:
8,248,160152,2,0,P|34:242|72:232,1,64,2|0,1:0|0:0,0:0:0:0:
200,156,160527,5,2,1:0:0:0:
200,156,160620,1,0,0:0:0:0:
200,156,160714,1,0,0:0:0:0:
200,156,160808,1,0,0:0:0:0:
200,156,160902,2,0,P|264:176|324:192,1,128,10|2,0:0|0:0,0:0:0:0:
322,191,161464,1,2,0:0:0:0:
480,108,161652,2,0,B|392:132|416:12|320:36,1,192,10|0,0:0|0:0,0:0:0:0:
296,48,162402,5,2,1:0:0:0:
296,48,168402,6,0,B|324:208,1,160,6|0,1:0|0:0,0:0:0:0:
340,292,168964,1,0,0:0:0:0:
204,352,169152,5,2,1:0:0:0:
160,340,169339,1,2,0:0:0:0:
24,232,169527,5,2,0:0:0:0:
68,220,169714,1,2,0:0:0:0:
200,148,169902,6,0,B|276:152|236:248|308:252,1,160,2|0,1:0|0:0,0:0:0:0:
392,236,170464,1,0,0:0:0:0:
460,36,170652,5,2,1:0:0:0:
412,52,170839,1,2,0:0:0:0:
312,132,171027,5,2,0:0:0:0:
360,148,171214,1,2,0:0:0:0:
304,24,171402,6,0,P|248:24|208:108,1,160,2|0,1:0|0:0,0:0:0:0:
228,196,171964,1,0,0:0:0:0:
360,348,172152,5,2,1:0:0:0:
311,337,172339,1,2,0:0:0:0:
208,224,172527,5,2,0:0:0:0:
258,213,172714,1,2,0:0:0:0:
476,144,172902,6,0,P|399:119|322:100,1,160,2|0,1:0|0:0,0:0:0:0:
240,76,173464,1,0,0:0:0:0:
196,204,173652,5,2,1:0:0:0:
188,252,173839,1,2,0:0:0:0:
56,344,174027,5,2,0:0:0:0:
48,296,174214,1,2,3:0:0:0:
100,128,174402,6,0,B|156:116|156:116|196:132|196:132|256:120,1,160,2|0,1:0|0:0,0:0:0:0:
336,96,174964,1,0,3:0:0:0:
200,4,175152,5,2,1:0:0:0:
212,52,175339,1,2,0:0:0:0:
308,224,175527,5,2,0:0:0:0:
320,176,175714,1,2,0:0:0:0:
392,24,175902,6,0,P|460:24|496:100,1,160,2|0,1:0|0:0,0:0:0:0:
492,188,176464,1,0,0:0:0:0:
288,152,176652,5,2,1:0:0:0:
332,136,176839,1,2,0:0:0:0:
440,292,177027,5,2,0:0:0:0:
396,276,177214,1,2,0:0:0:0:
224,232,177402,6,0,B|148:240|188:324|112:332,1,160,2|0,1:0|0:0,0:0:0:0:
24,320,177964,1,0,0:0:0:0:
96,168,178152,5,2,1:0:0:0:
144,180,178339,1,2,0:0:0:0:
264,72,178527,5,2,0:0:0:0:
216,84,178714,1,2,0:0:0:0:
356,316,178902,6,0,P|404:280|404:180,1,160,2|0,0:0|0:0,0:0:0:0:
332,32,179464,1,0,3:0:0:0:
332,32,179558,1,0,3:0:0:0:
332,32,179652,2,0,L|252:56,1,80,8|8,0:0|0:0,0:0:0:0:
168,124,179933,1,8,0:0:0:0:
168,124,180027,2,0,L|208:132,1,40,10|0,0:0|0:0,0:0:0:0:
328,200,180214,2,0,L|288:208,1,40,10|0,0:0|0:0,0:0:0:0:
128,352,180402,6,0,B|56:348|96:260|16:256,1,160,6|2,1:0|0:0,0:0:0:0:
15,255,180964,1,0,0:0:0:0:
52,72,181152,2,0,P|131:55|212:36,1,160,10|2,0:0|1:0,0:0:0:0:
404,192,181714,5,0,0:0:0:0:
404,192,181808,1,0,0:0:0:0:
404,192,181902,2,0,B|336:232|336:232|264:192,1,160,2|2,0:0|0:0,0:0:0:0:
265,192,182464,1,0,1:0:0:0:
344,36,182652,2,0,B|416:20|408:120|476:104,1,160,10|2,0:0|0:0,0:0:0:0:
324,148,183214,5,0,0:0:0:0:
324,148,183308,1,0,0:0:0:0:
324,148,183402,2,0,P|330:215|340:308,1,160,6|2,1:0|0:0,0:0:0:0:
339,307,183964,1,0,0:0:0:0:
144,340,184152,2,0,P|72:340|28:272,1,160,10|2,0:0|1:0,0:0:0:0:
24,252,184620,1,0,0:0:0:0:
28,232,184714,1,0,0:0:0:0:
36,212,184808,1,0,0:0:0:0:
52,200,184902,6,0,P|135:182|212:168,1,160,2|2,0:0|0:0,0:0:0:0:
208,168,185464,1,0,0:0:0:0:
372,272,185652,2,0,L|292:256,1,80,10|2,0:0|0:0,0:0:0:0:
144,312,186027,1,2,1:0:0:0:
228,348,186214,1,8,0:0:0:0:
316,112,186402,6,0,B|240:120|276:200|200:208,1,160,6|2,1:0|0:0,0:0:0:0:
200,207,186964,1,0,0:0:0:0:
24,124,187152,2,0,P|24:76|116:36,1,160,10|2,0:0|1:0,0:0:0:0:
292,164,187714,1,0,0:0:0:0:
292,164,187808,1,0,0:0:0:0:
292,164,187902,6,0,P|216:144|136:128,1,160,2|2,0:0|0:0,0:0:0:0:
136,128,188464,1,0,1:0:0:0:
48,344,188652,2,0,B|124:336|88:256|160:244,1,160,10|2,0:0|0:0,0:0:0:0:
360,340,189214,1,0,0:0:0:0:
360,340,189308,1,0,0:0:0:0:
360,340,189402,6,0,P|292:340|252:264,1,160,6|2,1:0|0:0,0:0:0:0:
251,266,189964,1,0,3:0:0:0:
356,92,190152,2,0,B|400:144|400:144|356:224,1,160,10|2,0:0|1:0,0:0:0:0:
355,224,190714,1,0,3:0:0:0:
132,40,190902,5,2,0:0:0:0:
132,40,190995,1,0,0:0:0:0:
132,40,191089,1,0,0:0:0:0:
308,152,191277,1,2,1:0:0:0:
124,248,191464,1,0,1:0:0:0:
244,36,191652,1,10,0:0:0:0:
252,260,191839,1,2,1:0:0:0:
80,144,192027,1,2,1:0:0:0:
316,72,192214,1,2,1:0:0:0:
184,296,192402,5,2,0:0:0:0:
184,296,197652,5,2,0:0:0:0:
