osu file format v14

[General]
AudioFilename: audio.mp3
AudioLeadIn: 0
PreviewTime: 149464
Countdown: 0
SampleSet: Soft
StackLeniency: 0.4
Mode: 0
LetterboxInBreaks: 0
WidescreenStoryboard: 0

[Editor]
DistanceSpacing: 1.4
BeatDivisor: 4
GridSize: 32
TimelineZoom: 1.5

[Metadata]
Title:VILLAIN feat. Madison Beer and Kim Petras
TitleUnicode:VILLAIN feat. Madison Beer and Kim Petras
Artist:K/DA
ArtistUnicode:K/DA
Creator:SMOKELIND
Version:DIE
Source:League of Legends
Tags:LoL Riot Games English Pop KDA Evelynn Elinor Eli [_Eli_] Chiga All Out
BeatmapID:2696658
BeatmapSetID:1299924

[Difficulty]
HPDrainRate:4.7
CircleSize:4.4
OverallDifficulty:7
ApproachRate:9
SliderMultiplier:1.47
SliderTickRate:1

[Events]
//Background and Video events
0,0,"eve.jpg",0,0
Video,222,"eve.mp4"
//Break Periods
2,162602,167052
2,192507,197052
//Storyboard Layer 0 (Background)
//Storyboard Layer 1 (Fail)
//Storyboard Layer 2 (Pass)
//Storyboard Layer 3 (Foreground)
//Storyboard Layer 4 (Overlay)
//Storyboard Sound Samples

[TimingPoints]
402,375,4,2,77,47,1,0
11652,-212.765957446809,4,2,77,47,0,0
11933,-212.765957446809,4,2,77,7,0,0
12027,-212.765957446809,4,2,77,47,0,0
12402,-114.942528735632,4,2,77,57,0,0
15402,-103.092783505155,4,2,77,57,0,0
15683,-212.765957446809,4,2,77,7,0,0
15777,-212.765957446809,4,2,77,57,0,0
15964,-93.4579439252339,4,2,77,57,0,0
16245,-212.765957446809,4,2,77,7,0,0
16339,-212.765957446809,4,2,77,57,0,0
16527,-85.4700854700855,4,2,77,57,0,0
16808,-212.765957446809,4,2,77,7,0,0
16902,-114.942528735632,4,2,77,57,0,0
21402,-103.092783505155,4,2,77,57,0,0
21683,-212.765957446809,4,2,77,7,0,0
21777,-103.092783505155,4,2,77,57,0,0
21964,-93.4579439252339,4,2,77,57,0,0
22245,-212.765957446809,4,2,77,7,0,0
22339,-103.092783505155,4,2,77,57,0,0
22527,-85.4700854700855,4,2,77,57,0,0
22808,-212.765957446809,4,2,77,7,0,0
22902,-85.4700854700857,4,2,77,57,0,0
23277,-114.942528735632,4,2,77,57,0,0
23558,-212.765957446809,4,2,77,7,0,0
23652,-103.092783505155,4,2,77,57,0,0
24402,-114.942528735632,4,2,77,57,0,0
27402,-103.092783505155,4,2,77,57,0,0
27683,-212.765957446809,4,2,77,7,0,0
27777,-103.092783505155,4,2,77,57,0,0
27964,-93.4579439252339,4,2,77,57,0,0
28245,-212.765957446809,4,2,77,7,0,0
28339,-103.092783505155,4,2,77,57,0,0
28527,-85.4700854700855,4,2,77,57,0,0
28808,-212.765957446809,4,2,77,7,0,0
28902,-114.942528735632,4,2,77,57,0,0
33402,-103.092783505155,4,2,77,57,0,0
33683,-212.765957446809,4,2,77,7,0,0
33777,-103.092783505155,4,2,77,57,0,0
33964,-93.4579439252339,4,2,77,57,0,0
34245,-212.765957446809,4,2,77,7,0,0
34339,-103.092783505155,4,2,77,57,0,0
34527,-85.4700854700855,4,2,77,57,0,0
34808,-212.765957446809,4,2,77,7,0,0
34902,-85.4700854700855,4,2,77,57,0,0
35277,-114.942528735632,4,2,77,57,0,0
35558,-212.765957446809,4,2,77,7,0,0
35652,-114.942528735632,4,2,77,57,0,0
36402,-212.765957446808,4,2,77,47,0,0
39308,-212.765957446809,4,2,77,7,0,0
39402,-212.765957446808,4,2,77,47,0,0
45308,-212.765957446809,4,2,77,7,0,0
45402,-212.765957446808,4,2,77,47,0,0
46433,-212.765957446809,4,2,77,7,0,0
46527,-212.765957446808,4,2,77,37,0,0
46902,-588.235294117644,4,2,77,47,0,0
47558,-212.765957446809,4,2,77,7,0,0
47652,-114.942528735632,4,2,77,57,0,0
47745,-212.765957446809,4,2,77,7,0,0
47839,-114.942528735632,4,2,77,57,0,0
47933,-212.765957446809,4,2,77,7,0,0
48027,-114.942528735632,4,2,77,57,0,0
48120,-212.765957446809,4,2,77,7,0,0
48214,-114.942528735632,4,2,77,57,0,0
48308,-212.765957446809,4,2,77,7,0,0
48402,-78.7401574803149,4,2,77,67,0,0
48683,-212.765957446809,4,2,77,7,0,0
48777,-78.7401574803149,4,2,77,67,0,0
50183,-212.765957446809,4,2,77,7,0,0
50277,-78.7401574803149,4,2,77,67,0,0
51683,-212.765957446809,4,2,77,7,0,0
51777,-78.7401574803149,4,2,77,67,0,0
53183,-212.765957446809,4,2,77,7,0,0
53277,-78.7401574803149,4,2,77,67,0,0
54683,-212.765957446809,4,2,77,7,0,0
54777,-78.7401574803149,4,2,77,67,0,0
56183,-212.765957446809,4,2,77,7,0,0
56277,-78.7401574803149,4,2,77,67,0,0
57683,-212.765957446809,4,2,77,7,0,0
57777,-78.7401574803149,4,2,77,67,0,0
58902,-63.6942675159236,4,2,77,67,0,0
59183,-212.765957446809,4,2,77,7,0,0
59277,-129.87012987013,4,2,77,67,0,0
60402,-38.9105058365759,4,2,77,87,0,0
60683,-212.765957446809,4,2,77,7,0,0
60777,-129.87012987013,4,2,77,87,0,0
61058,-212.765957446809,4,2,77,7,0,0
61152,-68.0272108843537,4,2,77,87,0,0
61245,-212.765957446809,4,2,77,7,0,0
61339,-68.0272108843537,4,2,77,87,0,0
61902,-93.4579439252336,4,2,77,87,0,0
62183,-212.765957446809,4,2,77,7,0,0
62277,-129.87012987013,4,2,77,87,0,0
62370,-212.765957446809,4,2,77,7,0,0
62464,-129.87012987013,4,2,77,87,0,0
62652,-68.0272108843537,4,2,77,87,0,0
62745,-212.765957446809,4,2,77,7,0,0
62839,-68.0272108843537,4,2,77,87,0,0
63027,-93.4579439252336,4,2,77,87,0,0
63402,-38.9105058365759,4,2,77,87,0,0
63683,-212.765957446809,4,2,77,7,0,0
63777,-129.87012987013,4,2,77,87,0,0
64058,-212.765957446809,4,2,77,7,0,0
64152,-68.0272108843537,4,2,77,87,0,0
64902,-93.4579439252336,4,2,77,87,0,0
65183,-212.765957446809,4,2,77,7,0,0
65277,-129.87012987013,4,2,77,87,0,0
65652,-68.0272108843537,4,2,77,87,0,0
65745,-212.765957446809,4,2,77,7,0,0
65839,-68.0272108843537,4,2,77,87,0,0
66120,-212.765957446809,4,2,77,7,0,0
66214,-68.0272108843537,4,2,77,87,0,0
66308,-212.765957446809,4,2,77,7,0,0
66402,-38.9105058365759,4,2,77,87,0,0
66683,-212.765957446809,4,2,77,7,0,0
66777,-129.87012987013,4,2,77,87,0,0
67058,-212.765957446809,4,2,77,7,0,0
67152,-68.0272108843537,4,2,77,87,0,0
67245,-212.765957446809,4,2,77,7,0,0
67339,-68.0272108843537,4,2,77,87,0,0
67902,-93.4579439252336,4,2,77,87,0,0
68183,-212.765957446809,4,2,77,7,0,0
68277,-129.87012987013,4,2,77,87,0,0
68370,-212.765957446809,4,2,77,7,0,0
68464,-129.87012987013,4,2,77,87,0,0
68652,-68.0272108843537,4,2,77,87,0,0
68745,-212.765957446809,4,2,77,7,0,0
68839,-68.0272108843537,4,2,77,87,0,0
69027,-93.4579439252336,4,2,77,87,0,0
69402,-38.9105058365759,4,2,77,87,0,0
69683,-212.765957446809,4,2,77,7,0,0
69777,-129.87012987013,4,2,77,87,0,0
70152,-68.0272108843537,4,2,77,87,0,0
70902,-93.4579439252336,4,2,77,87,0,0
71277,-68.0272108843538,4,2,77,87,0,0
71370,-212.765957446809,4,2,77,7,0,0
71464,-56.4971751412429,4,2,77,87,0,0
71558,-212.765957446809,4,2,77,7,0,0
71652,-48.3091787439614,4,2,77,87,0,0
71745,-212.765957446809,4,2,77,7,0,0
71839,-56.4971751412429,4,2,77,87,0,0
72402,-175.438596491228,4,2,77,57,0,0
72902,-175.438596491228,4,2,77,47,0,0
77652,-56.4971751412429,4,2,77,57,0,0
77675,-212.765957446809,4,2,77,7,0,0
78402,-212.765957446809,4,2,77,57,0,0
79433,-212.765957446809,4,2,77,7,0,0
79527,-212.765957446809,4,2,77,57,0,0
80933,-212.765957446809,4,2,77,7,0,0
81027,-212.765957446809,4,2,77,57,0,0
81402,-149.253731343284,4,2,77,57,0,0
82433,-212.765957446809,4,2,77,7,0,0
82527,-149.253731343284,4,2,77,57,0,0
83745,-212.765957446809,4,2,77,7,0,0
83839,-212.765957446809,4,2,77,57,0,0
84402,-114.942528735632,4,2,77,57,0,0
85433,-212.765957446809,4,2,77,7,0,0
85527,-114.942528735632,4,2,77,57,0,0
86933,-212.765957446809,4,2,77,7,0,0
87027,-114.942528735632,4,2,77,57,0,0
87402,-93.4579439252336,4,2,77,57,0,0
88433,-212.765957446809,4,2,77,7,0,0
88527,-93.4579439252336,4,2,77,57,0,0
89652,-56.4971751412429,4,2,77,57,0,0
89675,-212.765957446809,4,2,77,7,0,0
90027,-56.4971751412429,4,2,77,57,0,0
90402,-78.7401574803149,4,2,77,67,0,0
93027,-129.87012987013,4,2,77,67,0,0
93402,-78.7401574803149,4,2,77,67,0,0
95652,-68.0272108843537,4,2,77,67,0,0
95745,-212.765957446809,4,2,77,7,0,0
95839,-68.0272108843537,4,2,77,67,0,0
96120,-212.765957446809,4,2,77,7,0,0
96214,-68.0272108843537,4,2,77,67,0,0
97152,-78.7401574803149,4,2,77,67,0,0
99027,-129.87012987013,4,2,77,67,0,0
99402,-78.7401574803149,4,2,77,67,0,0
101652,-56.4971751412429,4,2,77,67,0,0
102027,-78.7401574803149,4,2,77,57,0,0
102308,-212.765957446809,4,2,77,7,0,0
102402,-175.438596491228,4,2,77,47,0,0
112433,-212.765957446809,4,2,77,7,0,0
112527,-175.438596491228,4,2,77,37,0,0
112902,-588.235294117644,4,2,77,47,0,0
113558,-212.765957446809,4,2,77,7,0,0
113652,-114.942528735632,4,2,77,57,0,0
113745,-212.765957446809,4,2,77,7,0,0
113839,-114.942528735632,4,2,77,57,0,0
113933,-212.765957446809,4,2,77,7,0,0
114027,-114.942528735632,4,2,77,57,0,0
114120,-212.765957446809,4,2,77,7,0,0
114214,-114.942528735632,4,2,77,57,0,0
114308,-212.765957446809,4,2,77,7,0,0
114402,-78.7401574803149,4,2,77,67,0,0
114683,-212.765957446809,4,2,77,7,0,0
114777,-78.7401574803149,4,2,77,67,0,0
116183,-212.765957446809,4,2,77,7,0,0
116277,-78.7401574803149,4,2,77,67,0,0
117683,-212.765957446809,4,2,77,7,0,0
117777,-78.7401574803149,4,2,77,67,0,0
119183,-212.765957446809,4,2,77,7,0,0
119277,-78.7401574803149,4,2,77,67,0,0
120683,-212.765957446809,4,2,77,7,0,0
120777,-78.7401574803149,4,2,77,67,0,0
122183,-212.765957446809,4,2,77,7,0,0
122277,-78.7401574803149,4,2,77,67,0,0
123683,-212.765957446809,4,2,77,7,0,0
123777,-78.7401574803149,4,2,77,67,0,0
125183,-212.765957446809,4,2,77,7,0,0
125277,-93.4579439252336,4,2,77,67,0,0
125558,-212.765957446809,4,2,77,7,0,0
125652,-93.4579439252336,4,2,77,67,0,0
126402,-37.4531835205993,4,2,77,87,0,0
126683,-212.765957446809,4,2,77,7,0,0
126777,-114.942528735632,4,2,77,87,0,0
127058,-212.765957446809,4,2,77,7,0,0
127152,-63.6942675159236,4,2,77,87,0,0
127245,-212.765957446809,4,2,77,7,0,0
127339,-63.6942675159236,4,2,77,87,0,0
127902,-85.4700854700855,4,2,77,87,0,0
128183,-212.765957446809,4,2,77,7,0,0
128277,-114.942528735632,4,2,77,87,0,0
128370,-212.765957446809,4,2,77,7,0,0
128464,-114.942528735632,4,2,77,87,0,0
128652,-63.6942675159236,4,2,77,87,0,0
128745,-212.765957446809,4,2,77,7,0,0
128839,-63.6942675159236,4,2,77,87,0,0
129027,-85.4700854700855,4,2,77,87,0,0
129402,-37.4531835205993,4,2,77,87,0,0
129683,-212.765957446809,4,2,77,7,0,0
129777,-114.942528735632,4,2,77,87,0,0
130058,-212.765957446809,4,2,77,7,0,0
130152,-63.6942675159236,4,2,77,87,0,0
130902,-85.4700854700855,4,2,77,87,0,0
131183,-212.765957446809,4,2,77,7,0,0
131277,-114.942528735632,4,2,77,87,0,0
131652,-63.6942675159236,4,2,77,87,0,0
131745,-212.765957446809,4,2,77,7,0,0
131839,-63.6942675159236,4,2,77,87,0,0
132120,-212.765957446809,4,2,77,7,0,0
132214,-63.6942675159236,4,2,77,87,0,0
132308,-212.765957446809,4,2,77,7,0,0
132402,-37.4531835205993,4,2,77,87,0,0
132683,-212.765957446809,4,2,77,7,0,0
132777,-114.942528735632,4,2,77,87,0,0
133058,-212.765957446809,4,2,77,7,0,0
133152,-63.6942675159236,4,2,77,87,0,0
133245,-212.765957446809,4,2,77,7,0,0
133339,-63.6942675159236,4,2,77,87,0,0
133902,-85.4700854700855,4,2,77,87,0,0
134183,-212.765957446809,4,2,77,7,0,0
134277,-114.942528735632,4,2,77,87,0,0
134370,-212.765957446809,4,2,77,7,0,0
134464,-114.942528735632,4,2,77,87,0,0
134652,-63.6942675159236,4,2,77,87,0,0
134745,-212.765957446809,4,2,77,7,0,0
134839,-212.765957446808,4,2,77,87,0,0
135027,-85.4700854700855,4,2,77,87,0,0
135402,-37.4531835205993,4,2,77,87,0,0
135683,-212.765957446809,4,2,77,7,0,0
135777,-114.942528735632,4,2,77,87,0,0
136152,-63.6942675159236,4,2,77,87,0,0
136902,-85.4700854700855,4,2,77,87,0,0
137277,-63.6942675159236,4,2,77,87,0,0
137370,-212.765957446809,4,2,77,7,0,0
137464,-53.475935828877,4,2,77,87,0,0
137558,-212.765957446809,4,2,77,7,0,0
137652,-46.0829493087558,4,2,77,87,0,0
137745,-212.765957446809,4,2,77,7,0,0
137839,-53.475935828877,4,2,77,87,0,0
138402,-37.4531835205993,4,2,77,87,0,0
138589,-37.4531835205993,4,2,77,47,0,0
143277,-129.87012987013,4,2,77,47,0,0
144402,-129.87012987013,4,2,77,57,0,0
145058,-212.765957446809,4,2,77,7,0,0
145152,-129.87012987013,4,2,77,57,0,0
149464,-175.438596491228,4,2,77,57,0,0
149745,-212.765957446809,4,2,77,7,0,0
149839,-114.942528735632,4,2,77,57,0,0
149933,-212.765957446809,4,2,77,7,0,0
150027,-85.4700854700854,4,2,77,57,0,0
150120,-212.765957446809,4,2,77,7,0,0
150214,-68.0272108843537,4,2,77,57,0,0
150308,-212.765957446809,4,2,77,7,0,0
150402,-588.235294117647,4,2,77,57,0,0
151808,-212.765957446809,4,2,77,7,0,0
151902,-588.235294117647,4,2,77,57,0,0
153027,-175.438596491228,4,2,77,57,0,0
155745,-212.765957446809,4,2,77,7,0,0
155839,-114.942528735632,4,2,77,57,0,0
155933,-212.765957446809,4,2,77,7,0,0
156027,-85.4700854700854,4,2,77,57,0,0
156120,-212.765957446809,4,2,77,7,0,0
156214,-68.0272108843537,4,2,77,57,0,0
156308,-212.765957446809,4,2,77,7,0,0
156402,-588.235294117647,4,2,77,57,0,0
157808,-212.765957446809,4,2,77,7,0,0
157902,-588.235294117647,4,2,77,57,0,0
159402,-175.438596491228,4,2,77,57,0,0
167652,-114.942528735632,4,2,77,57,0,0
167745,-212.765957446809,4,2,77,7,0,0
167839,-114.942528735632,4,2,77,57,0,0
167933,-212.765957446809,4,2,77,7,0,0
168027,-114.942528735632,4,2,77,57,0,0
168120,-212.765957446809,4,2,77,7,0,0
168214,-114.942528735632,4,2,77,57,0,0
168308,-212.765957446809,4,2,77,7,0,0
168402,-78.7401574803149,4,2,77,67,0,0
168683,-212.765957446809,4,2,77,7,0,0
168777,-78.7401574803149,4,2,77,67,0,0
170183,-212.765957446809,4,2,77,7,0,0
170277,-78.7401574803149,4,2,77,67,0,0
171683,-212.765957446809,4,2,77,7,0,0
171777,-78.7401574803149,4,2,77,67,0,0
173183,-212.765957446809,4,2,77,7,0,0
173277,-78.7401574803149,4,2,77,67,0,0
174683,-212.765957446809,4,2,77,7,0,0
174777,-78.7401574803149,4,2,77,67,0,0
176183,-212.765957446809,4,2,77,7,0,0
176277,-78.7401574803149,4,2,77,67,0,0
177683,-212.765957446809,4,2,77,7,0,0
177777,-78.7401574803149,4,2,77,67,0,0
180402,-34.8432055749129,4,2,77,87,0,0
180683,-212.765957446809,4,2,77,7,0,0
180777,-53.475935828877,4,2,77,87,0,0
181058,-212.765957446809,4,2,77,7,0,0
181152,-53.475935828877,4,2,77,87,0,0
181902,-72.992700729927,4,2,77,87,0,0
182183,-212.765957446809,4,2,77,7,0,0
182277,-103.092783505155,4,2,77,87,0,0
182370,-212.765957446809,4,2,77,7,0,0
182464,-212.765957446809,4,2,77,87,0,0
182652,-59.8802395209581,4,2,77,87,0,0
182745,-212.765957446809,4,2,77,7,0,0
182839,-59.8802395209581,4,2,77,87,0,0
183027,-78.7401574803149,4,2,77,87,0,0
183402,-36.101083032491,4,2,77,87,0,0
183683,-212.765957446809,4,2,77,7,0,0
183777,-103.092783505155,4,2,77,87,0,0
184058,-212.765957446809,4,2,77,7,0,0
184152,-59.8802395209581,4,2,77,87,0,0
184902,-78.7401574803149,4,2,77,87,0,0
185183,-212.765957446809,4,2,77,7,0,0
185277,-103.092783505155,4,2,77,87,0,0
185652,-63.6942675159236,4,2,77,87,0,0
185745,-212.765957446809,4,2,77,7,0,0
185839,-63.6942675159236,4,2,77,87,0,0
186120,-212.765957446809,4,2,77,7,0,0
186214,-63.6942675159236,4,2,77,87,0,0
186308,-212.765957446809,4,2,77,7,0,0
186402,-36.101083032491,4,2,77,87,0,0
186683,-212.765957446809,4,2,77,7,0,0
186777,-103.092783505155,4,2,77,87,0,0
187058,-212.765957446809,4,2,77,7,0,0
187152,-59.8802395209581,4,2,77,87,0,0
187902,-78.7401574803149,4,2,77,87,0,0
188183,-212.765957446809,4,2,77,7,0,0
188277,-103.092783505155,4,2,77,87,0,0
188370,-212.765957446809,4,2,77,7,0,0
188464,-103.092783505155,4,2,77,87,0,0
188652,-59.8802395209581,4,2,77,87,0,0
188745,-212.765957446809,4,2,77,7,0,0
188839,-59.8802395209581,4,2,77,87,0,0
189027,-78.7401574803149,4,2,77,87,0,0
189402,-36.101083032491,4,2,77,87,0,0
189683,-212.765957446809,4,2,77,7,0,0
189777,-103.092783505155,4,2,77,87,0,0
190058,-212.765957446809,4,2,77,7,0,0
190152,-59.8802395209581,4,2,77,87,0,0
190902,-78.7401574803149,4,2,77,87,0,0
191277,-59.8802395209581,4,2,77,87,0,0
191370,-212.765957446809,4,2,77,7,0,0
191464,-50.761421319797,4,2,77,87,0,0
191558,-212.765957446809,4,2,77,7,0,0
191652,-44.0528634361233,4,2,77,87,0,0
191745,-212.765957446809,4,2,77,7,0,0
191839,-50.761421319797,4,2,77,87,0,0
192402,-36.101083032491,4,2,77,47,0,0
197652,-56.4971751412429,4,2,77,47,0,0
197675,-212.765957446809,4,2,77,7,0,0

[Colours]
Combo1 : 187,119,255
Combo2 : 185,225,255
Combo3 : 220,176,255
Combo4 : 136,210,255

[HitObjects]
57,37,11652,6,0,L|51:99,1,60.453749077549
50,110,12027,1,2,1:0:0:0:
109,150,12214,1,2,0:0:0:0:
244,30,12402,5,6,1:0:0:0:
242,41,12589,1,0,0:0:0:0:
241,53,12777,1,0,0:0:0:0:
239,65,12964,1,0,0:0:0:0:
238,77,13152,1,0,0:0:0:0:
236,89,13339,1,0,0:0:0:0:
358,205,13527,1,0,1:0:0:0:
356,192,13714,1,0,0:0:0:0:
198,294,13902,5,10,0:0:0:0:
295,143,14089,1,2,1:0:0:0:
446,249,14277,1,2,1:0:0:0:
370,234,14464,5,2,0:0:0:0:
276,360,14652,2,0,P|306:343|338:332,1,63.9450005366478,2|0,0:0|0:0,0:0:0:0:
225,235,15027,1,2,0:0:0:0:
205,306,15214,1,0,0:0:0:0:
315,182,15402,6,0,P|273:150|196:144,1,124.766252950862,2|0,1:0|0:0,0:0:0:0:
193,150,15777,1,0,0:0:0:0:
95,295,15964,2,0,P|131:267|97:282,1,137.628745799904,0|0,1:0|0:0,0:0:0:0:
122,292,16339,1,0,1:0:0:0:
19,143,16527,2,0,B|0:123|10:88|49:64|86:88|120:138,1,150.491250574079,0|0,1:0|0:0,0:0:0:0:
110,138,16902,5,10,0:0:0:0:
254,39,17089,1,2,1:0:0:0:
230,108,17277,1,2,0:0:0:0:
260,176,17464,1,2,0:0:0:0:
473,230,17652,5,2,1:0:0:0:
332,151,17839,1,0,1:0:0:0:
249,250,18027,1,2,0:0:0:0:
178,221,18214,1,0,0:0:0:0:
304,356,18402,5,6,1:0:0:0:
310,344,18589,1,0,0:0:0:0:
319,333,18777,1,0,0:0:0:0:
328,325,18964,1,0,0:0:0:0:
340,319,19152,1,0,0:0:0:0:
353,315,19339,1,0,0:0:0:0:
426,161,19527,1,0,1:0:0:0:
422,148,19714,1,0,0:0:0:0:
231,40,19902,5,10,0:0:0:0:
340,227,20089,1,2,1:0:0:0:
487,65,20277,1,2,1:0:0:0:
420,33,20464,21,2,0:0:0:0:
237,141,20652,2,0,P|227:94|216:58,1,63.9450005366478,2|0,1:0|0:0,0:0:0:0:
161,180,21027,1,2,1:0:0:0:
311,103,21214,1,0,1:0:0:0:
53,22,21402,22,0,B|73:40|73:40|44:77|40:134,1,124.766252950862,2|0,1:0|0:0,0:0:0:0:
50,141,21777,1,0,0:0:0:0:
177,285,21964,2,0,P|137:239|59:269,1,137.628745799904,0|0,1:0|0:0,0:0:0:0:
66,271,22339,1,0,0:0:0:0:
236,360,22527,2,0,P|270:303|363:276,1,150.491250574079,0|0,1:0|0:0,0:0:0:0:
349,291,22902,2,0,P|377:269|343:258,1,85.9950003280449,8|0,0:0|0:0,0:0:0:0:
477,109,23277,2,0,P|461:165|449:226,1,111.903750939134,0|0,1:0|0:0,0:0:0:0:
454,229,23652,5,0,1:0:0:0:
320,167,23839,1,0,1:0:0:0:
194,289,24027,5,2,0:0:0:0:
261,265,24214,1,2,0:0:0:0:
86,132,24402,5,6,1:0:0:0:
84,143,24589,1,0,0:0:0:0:
83,155,24777,1,0,0:0:0:0:
81,167,24964,1,0,0:0:0:0:
80,179,25152,1,0,0:0:0:0:
78,191,25339,1,0,0:0:0:0:
200,307,25527,1,0,1:0:0:0:
240,248,25714,5,0,0:0:0:0:
247,246,25808,1,0,0:0:0:0:
254,245,25902,1,10,0:0:0:0:
422,366,26089,1,2,1:0:0:0:
485,177,26277,1,2,1:0:0:0:
429,233,26464,21,2,0:0:0:0:
304,98,26652,2,0,P|335:83|371:74,1,63.9450005366478,2|0,0:0|0:0,0:0:0:0:
281,166,27027,1,2,0:0:0:0:
319,20,27214,1,0,0:0:0:0:
212,184,27402,22,0,P|169:149|100:153,1,124.766252950862,2|0,1:0|0:0,0:0:0:0:
97,161,27777,1,0,0:0:0:0:
309,197,27964,2,0,P|301:137|239:94,1,137.628745799904,0|0,1:0|0:0,0:0:0:0:
226,103,28339,1,0,1:0:0:0:
327,292,28527,2,0,P|394:234|396:178,1,150.491250574079,0|0,1:0|0:0,0:0:0:0:
381,171,28902,5,10,0:0:0:0:
237,305,29089,1,2,1:0:0:0:
170,281,29277,1,2,0:0:0:0:
105,257,29464,1,0,0:0:0:0:
291,355,29652,5,2,1:0:0:0:
447,237,29839,1,0,1:0:0:0:
304,188,30027,1,2,0:0:0:0:
364,222,30214,5,0,0:0:0:0:
364,215,30308,1,0,0:0:0:0:
365,208,30402,1,6,1:0:0:0:
445,144,30589,1,0,0:0:0:0:
433,150,30776,1,0,0:0:0:0:
421,153,30964,1,0,0:0:0:0:
408,152,31151,1,0,0:0:0:0:
396,148,31339,1,0,0:0:0:0:
446,10,31527,1,0,1:0:0:0:
448,22,31714,1,0,0:0:0:0:
274,153,31902,5,10,0:0:0:0:
133,55,32089,1,2,1:0:0:0:
11,168,32277,1,2,1:0:0:0:
80,151,32464,21,2,0:0:0:0:
224,254,32652,2,0,L|212:321,1,63.9450005366478,2|0,1:0|0:0,0:0:0:0:
302,212,33027,1,2,1:0:0:0:
141,291,33214,1,0,1:0:0:0:
347,357,33402,22,0,P|380:308|453:298,1,124.766252950862,2|0,1:0|0:0,0:0:0:0:
447,307,33777,1,0,0:0:0:0:
323,177,33964,2,0,P|380:164|442:209,1,137.628745799904,0|0,1:0|0:0,0:0:0:0:
440,222,34339,1,0,0:0:0:0:
403,2,34527,2,0,P|457:36|472:117,1,150.491250574079,0|0,1:0|0:0,0:0:0:0:
456,116,34902,6,0,P|465:147|472:110,1,85.9950003280449,8|0,0:0|0:0,0:0:0:0:
316,47,35277,2,0,P|280:89|222:89,1,111.903750939134,0|0,1:0|0:0,0:0:0:0:
220,77,35652,1,0,1:0:0:0:
266,197,35839,1,0,1:0:0:0:
107,300,36027,5,2,1:0:0:0:
121,234,36214,1,0,0:0:0:0:
192,151,36402,6,0,B|231:95|135:63|71:95|71:223|167:287|266:196|266:196|308:302|408:274,1,535.44749182972,2|0,0:0|0:0,0:0:0:0:
410,168,39402,2,0,P|338:163|406:188,1,207.269996837311,2|0,0:0|0:0,0:0:0:0:
508,45,40902,6,0,L|428:57,1,69.0899989457703
262,18,41652,2,0,L|306:29,1,34.5449994728851
184,98,42027,2,0,L|171:54,1,34.5449994728851,2|0,0:0|0:0,0:0:0:0:
248,130,42402,22,0,B|280:194|216:226|152:194|184:98|184:98|32:128|32:288|112:357,1,535.44749182972,2|0,0:0|0:0,0:0:0:0:
169,337,45402,2,0,P|217:278|327:308,1,189.997497100868,2|0,0:0|0:0,0:0:0:0:
358,354,46527,2,0,L|363:385,2,23.0299996485901,8|8|8,0:0|0:0|0:0,0:0:0:0:
386,290,46902,6,0,L|390:247,1,43.732500266922,0|0,1:0|0:0,0:0:0:0:
425,186,47652,6,0,P|444:181|463:179,1,31.9725002683239,2|0,0:0|0:0,0:0:0:0:
353,86,47839,2,0,P|347:104|340:122,1,31.9725002683239,2|0,0:0|0:0,0:0:0:0:
471,73,48027,2,0,P|457:58|445:43,1,31.9725002683239,2|0,0:0|0:0,0:0:0:0:
430,179,48214,2,0,P|449:174|468:172,1,31.9725002683239,2|0,0:0|0:0,0:0:0:0:
348,77,48402,22,0,P|321:156|290:235,1,163.35374875371,6|0,1:0|0:0,0:0:0:0:
282,238,48777,1,0,0:0:0:0:
210,257,48964,1,0,0:0:0:0:
120,95,49152,5,2,1:0:0:0:
140,166,49339,1,2,0:0:0:0:
11,271,49527,5,2,0:0:0:0:
31,200,49714,1,2,0:0:0:0:
132,341,49902,38,0,B|223:360|185:272|275:293,1,163.35374875371,2|0,1:0|0:0,0:0:0:0:
282,304,50277,1,0,0:0:0:0:
300,376,50464,1,0,0:0:0:0:
462,276,50652,5,2,1:0:0:0:
388,264,50839,1,2,0:0:0:0:
200,158,51027,5,2,0:0:0:0:
274,147,51214,1,2,0:0:0:0:
124,82,51402,38,0,P|164:112|100:193,1,163.35374875371,2|0,1:0|0:0,0:0:0:0:
104,187,51777,1,0,0:0:0:0:
31,168,51964,1,0,0:0:0:0:
19,329,52152,5,2,1:0:0:0:
92,305,52339,1,2,0:0:0:0:
224,234,52527,5,2,0:0:0:0:
151,210,52714,1,2,0:0:0:0:
51,69,52902,38,0,P|93:21|165:66,1,163.35374875371,2|0,1:0|0:0,0:0:0:0:
162,82,53277,1,0,0:0:0:0:
137,155,53464,1,0,0:0:0:0:
235,292,53652,5,2,1:0:0:0:
219,221,53839,1,2,0:0:0:0:
380,134,54027,5,2,0:0:0:0:
364,205,54214,1,2,3:0:0:0:
495,347,54402,38,0,P|472:305|453:192,1,163.35374875371,2|0,1:0|0:0,0:0:0:0:
460,182,54777,1,0,0:0:0:0:
491,106,54964,1,0,3:0:0:0:
325,30,55152,5,2,1:0:0:0:
254,46,55339,1,2,0:0:0:0:
126,149,55527,5,2,0:0:0:0:
197,165,55714,1,2,0:0:0:0:
49,215,55902,38,0,B|40:192|17:182|17:182|46:139|61:76,1,163.35374875371,2|0,1:0|0:0,0:0:0:0:
53,68,56277,1,0,0:0:0:0:
123,118,56464,1,0,0:0:0:0:
294,30,56652,5,2,1:0:0:0:
275,103,56839,1,2,0:0:0:0:
140,192,57027,5,2,0:0:0:0:
159,265,57214,1,2,0:0:0:0:
271,123,57402,38,0,B|362:104|324:192|414:170,1,163.35374875371,2|0,1:0|0:0,0:0:0:0:
414,158,57777,1,0,0:0:0:0:
393,85,57964,1,0,0:0:0:0:
282,198,58152,5,2,1:0:0:0:
263,271,58339,1,2,0:0:0:0:
437,354,58527,5,2,0:0:0:0:
418,281,58714,1,2,0:0:0:0:
216,374,58902,22,0,P|164:323|40:283,1,201.941250770345,2|0,1:0|0:0,0:0:0:0:
40,298,59277,2,0,P|29:285|56:276,1,56.5949988773575,0|0,3:0|0:0,0:0:0:0:
187,383,59652,1,0,1:0:0:0:
298,340,59839,1,8,0:0:0:0:
292,307,59933,1,8,0:0:0:0:
286,278,60027,1,10,0:0:0:0:
375,142,60214,1,10,0:0:0:0:
332,209,60402,6,0,B|150:148|211:328|30:268,1,330.566238398707,6|0,1:0|0:0,0:0:0:0:
35,260,60777,2,0,P|63:269|122:269,1,84.8924983160363,2|0,0:0|0:0,0:0:0:0:
69,57,61152,2,0,P|49:92|49:147,1,81.0337462287456,10|0,0:0|0:0,0:0:0:0:
52,137,61339,1,2,0:0:0:0:
208,27,61527,1,2,1:0:0:0:
206,37,61620,1,0,0:0:0:0:
154,84,61714,1,0,0:0:0:0:
156,94,61807,1,0,0:0:0:0:
216,139,61902,6,0,L|362:119,1,137.628745799904,2|0,0:0|0:0,0:0:0:0:
359,129,62277,2,0,L|309:136,1,42.4462491580181,2|0,0:0|0:0,0:0:0:0:
308,139,62464,1,0,1:0:0:0:
453,239,62652,2,0,P|427:209|419:164,1,81.0337462287456,10|0,0:0|0:0,0:0:0:0:
425,162,62839,1,2,0:0:0:0:
464,332,63027,2,0,P|408:330|369:284,1,117.967496399918,2|0,0:0|0:0,0:0:0:0:
258,96,63402,38,0,B|241:140|197:155|197:155|325:215|269:358,1,330.566238398707,6|0,1:0|0:0,0:0:0:0:
281,355,63777,2,0,P|255:351|275:348,1,84.8924983160363,2|0,0:0|0:0,0:0:0:0:
341,164,64152,1,10,0:0:0:0:
276,192,64339,1,2,0:0:0:0:
378,43,64527,1,2,1:0:0:0:
387,45,64620,1,0,0:0:0:0:
438,96,64714,1,0,0:0:0:0:
447,94,64807,1,0,0:0:0:0:
503,54,64902,6,0,P|464:98|472:176,1,137.628745799904,2|0,0:0|0:0,0:0:0:0:
481,171,65277,2,0,P|487:185|460:179,1,56.5949988773575,2|0,0:0|0:0,0:0:0:0:
269,128,65652,2,0,P|238:107|186:94,1,81.0337462287456,10|0,0:0|0:0,0:0:0:0:
191,104,65839,1,2,0:0:0:0:
125,264,66027,2,0,P|155:243|209:229,1,81.0337462287456,2|0,1:0|0:0,0:0:0:0:
203,241,66214,2,0,P|221:260|256:268,1,54.0224974858304,8|0,0:0|0:0,0:0:0:0:
470,258,66402,6,0,B|278:209|374:400|183:352,1,330.566238398707,6|0,1:0|0:0,0:0:0:0:
180,342,66777,2,0,P|141:321|98:341,1,84.8924983160363,2|0,0:0|0:0,0:0:0:0:
244,265,67152,2,0,P|261:229|270:167,1,81.0337462287456,10|0,0:0|0:0,0:0:0:0:
262,183,67339,1,2,0:0:0:0:
400,333,67527,1,2,1:0:0:0:
410,331,67620,1,0,0:0:0:0:
439,264,67714,1,0,0:0:0:0:
429,262,67807,1,0,0:0:0:0:
367,222,67902,6,0,L|507:204,1,137.628745799904,2|0,0:0|0:0,0:0:0:0:
506,195,68277,2,0,L|462:201,1,42.4462491580181,2|0,0:0|0:0,0:0:0:0:
453,200,68464,1,0,1:0:0:0:
308,98,68652,2,0,L|227:86,1,81.0337462287456,10|0,0:0|0:0,0:0:0:0:
216,85,68839,1,2,0:0:0:0:
77,166,69027,2,0,P|118:141|94:82,1,117.967496399918,2|0,0:0|0:0,0:0:0:0:
0,238,69402,6,0,B|65:311|145:253|145:253|189:342|297:304,1,330.566238398707,6|0,1:0|0:0,0:0:0:0:
290,295,69777,2,0,L|303:228,1,56.5949988773575,2|0,0:0|3:0,0:0:0:0:
449,91,70152,5,10,0:0:0:0:
409,160,70339,1,2,3:0:0:0:
212,63,70527,5,2,1:0:0:0:
317,28,70714,1,0,3:0:0:0:
369,230,70902,5,2,0:0:0:0:
338,225,70995,1,0,0:0:0:0:
306,221,71089,1,0,0:0:0:0:
54,161,71277,6,0,P|36:181|24:205,1,54.0224974858304,2|0,1:0|0:0,0:0:0:0:
156,348,71464,6,0,P|138:327|127:288,1,65.0475021091605,0|0,1:0|0:0,0:0:0:0:
295,187,71652,6,0,P|277:207|264:267,1,76.072502118413,10|0,0:0|0:0,0:0:0:0:
420,164,71839,6,0,L|451:172,2,32.5237510545802,2|0|0,1:0|0:0|0:0,0:0:0:0:
370,85,72027,6,0,L|393:62,2,32.5237510545802,2|0|0,1:0|0:0|0:0,0:0:0:0:
282,62,72214,6,0,L|273:30,2,32.5237510545802,2|0|0,1:0|0:0|0:0,0:0:0:0:
103,172,72777,5,0,0:0:0:0:
95,144,72902,2,0,L|42:134,1,27.9299996590576
144,92,73152,1,2,0:0:0:0:
182,235,73527,5,0,0:0:0:0:
165,165,73714,1,0,0:0:0:0:
253,180,73902,5,0,0:0:0:0:
270,110,74089,1,0,0:0:0:0:
366,116,74277,5,0,0:0:0:0:
349,46,74464,1,0,0:0:0:0:
448,153,74652,5,2,0:0:0:0:
482,272,75027,5,0,0:0:0:0:
414,251,75214,1,0,0:0:0:0:
340,324,75402,5,0,0:0:0:0:
272,345,75589,1,0,0:0:0:0:
222,267,75777,5,0,0:0:0:0:
154,246,75964,1,0,0:0:0:0:
83,116,76152,5,2,0:0:0:0:
83,116,76527,5,0,0:0:0:0:
119,50,76714,1,0,0:0:0:0:
264,15,76902,5,2,0:0:0:0:
264,15,77652,6,0,L|262:32,1,16.2618755272901,14|0,0:2|0:0,0:0:0:0:
62,9,78402,5,2,1:0:0:0:
77,13,78589,1,2,0:0:0:0:
136,90,78777,5,2,0:0:0:0:
151,94,78964,1,2,0:0:0:0:
334,65,79152,6,0,L|271:47,1,60.453749077549,10|0,0:0|0:0,0:0:0:0:
274,59,79527,1,2,1:0:0:0:
279,74,79714,1,2,0:0:0:0:
347,156,79902,5,2,0:0:0:0:
342,171,80089,1,2,0:0:0:0:
264,226,80277,5,2,0:0:0:0:
269,241,80464,1,2,0:0:0:0:
377,347,80652,6,0,P|396:334|437:334,1,60.453749077549,2|0,1:0|0:0,0:0:0:0:
436,342,81027,1,2,0:0:0:0:
437,326,81214,1,2,0:0:0:0:
298,349,81402,5,2,1:0:0:0:
288,347,81589,1,2,0:0:0:0:
185,363,81777,5,2,0:0:0:0:
175,361,81964,1,2,0:0:0:0:
19,270,82152,6,0,L|106:253,1,86.1787459235518,10|0,0:0|0:0,0:0:0:0:
117,252,82527,1,2,1:0:0:0:
119,242,82714,1,2,0:0:0:0:
216,272,82902,5,2,0:0:0:0:
214,262,83089,1,2,0:0:0:0:
291,194,83277,5,2,0:0:0:0:
280,193,83464,1,2,0:0:0:0:
122,63,83652,6,0,P|143:66|163:81,1,36.9337482529508,10|0,0:0|0:0,0:0:0:0:
159,84,83839,1,2,0:0:0:0:
380,204,84027,5,2,1:0:0:0:
352,106,84214,1,2,0:0:0:0:
407,305,84402,5,2,1:0:0:0:
332,290,84589,1,2,0:0:0:0:
493,171,84777,2,0,P|486:201|479:238,1,63.9450005366478,2|0,0:0|0:0,0:0:0:0:
345,81,85152,6,0,P|294:69|234:57,1,111.903750939134,10|0,0:0|0:0,0:0:0:0:
227,65,85527,1,2,1:0:0:0:
242,137,85714,1,2,0:0:0:0:
95,168,85902,5,2,0:0:0:0:
149,119,86089,1,2,0:0:0:0:
258,237,86277,5,2,0:0:0:0:
188,214,86464,1,2,0:0:0:0:
35,328,86652,6,0,B|65:307|65:307|98:329|145:340,1,111.903750939134,2|0,1:0|0:0,0:0:0:0:
145,330,87027,1,2,0:0:0:0:
204,287,87214,1,2,0:0:0:0:
371,360,87402,5,2,1:0:0:0:
302,346,87589,1,2,0:0:0:0:
407,243,87777,5,2,0:0:0:0:
349,283,87964,1,2,0:0:0:0:
307,69,88152,6,0,P|329:131|349:214,1,137.628745799904,10|0,0:0|0:0,0:0:0:0:
342,209,88527,1,2,1:0:0:0:
412,168,88714,1,2,0:0:0:0:
441,18,88902,5,2,0:0:0:0:
512,33,89089,1,2,0:0:0:0:
343,117,89277,1,2,0:0:0:0:
338,102,89370,1,0,0:0:0:0:
332,87,89464,1,2,0:0:0:0:
153,167,89652,6,0,L|155:150,1,16.2618755272901,14|0,0:0|0:0,0:0:0:0:
207,262,90027,5,2,0:0:0:0:
207,262,90214,5,2,0:0:0:0:
188,61,90402,6,0,P|123:35|66:98,1,140.017498931751,6|0,1:0|0:0,0:0:0:0:
23,184,90777,1,0,0:0:0:0:
25,192,90870,1,0,0:0:0:0:
27,201,90964,1,0,0:0:0:0:
29,210,91058,1,0,0:0:0:0:
31,218,91152,2,0,L|125:236,1,93.3449992878342,8|2,0:0|0:0,0:0:0:0:
242,371,91527,1,2,1:0:0:0:
210,279,91714,1,2,0:0:0:0:
344,188,91902,5,2,0:0:0:0:
343,197,91995,1,0,0:0:0:0:
341,206,92089,2,0,L|333:253,1,46.6724996439171,2|0,0:0|0:0,0:0:0:0:
263,98,92277,1,2,0:0:0:0:
349,87,92464,1,2,0:0:0:0:
232,192,92652,1,2,1:0:0:0:
171,152,92839,1,2,0:0:0:0:
168,143,92933,1,0,0:0:0:0:
166,137,93027,1,2,0:0:0:0:
267,27,93214,1,2,0:0:0:0:
422,144,93402,6,0,L|396:304,1,140.017498931751,2|0,1:0|0:0,0:0:0:0:
272,358,93777,1,0,0:0:0:0:
264,350,93870,1,0,0:0:0:0:
257,345,93964,1,0,0:0:0:0:
249,341,94058,1,0,0:0:0:0:
241,335,94152,2,0,P|286:319|316:284,1,93.3449992878342,10|0,0:0|0:0,0:0:0:0:
171,175,94527,2,0,P|196:215|237:236,1,93.3449992878342,2|0,1:0|0:0,0:0:0:0:
271,100,94902,5,2,0:0:0:0:
263,105,94995,1,0,0:0:0:0:
260,112,95089,1,0,0:0:0:0:
259,122,95183,1,0,0:0:0:0:
260,130,95277,1,0,0:0:0:0:
50,192,95652,6,0,P|40:150|30:110,1,81.0337462287456,14|0,0:0|0:0,0:0:0:0:
19,106,95839,1,2,0:0:0:0:
150,360,96027,6,0,P|159:318|170:278,1,81.0337462287456,2|0,1:2|0:0,0:0:0:0:
179,273,96214,1,2,0:0:0:0:
19,263,96402,6,0,B|146:289|87:169|211:199,1,216.089989943322,2|2,1:0|0:0,0:0:0:0:
343,291,96964,1,0,0:0:0:0:
335,282,97058,1,0,0:0:0:0:
331,273,97152,1,8,0:0:0:0:
351,198,97339,1,2,0:0:0:0:
448,51,97527,1,2,1:0:0:0:
370,37,97714,1,2,0:0:0:0:
474,171,97902,5,2,0:0:0:0:
482,180,97996,1,0,0:0:0:0:
486,189,98089,2,0,L|477:247,1,46.6724996439171,2|0,0:0|0:0,0:0:0:0:
383,375,98277,1,2,0:0:0:0:
460,344,98464,1,2,0:0:0:0:
282,269,98652,1,2,1:0:0:0:
232,322,98839,1,2,0:0:0:0:
222,322,98933,1,0,0:0:0:0:
212,322,99027,2,0,P|205:290|191:244,1,56.5949988773575,2|2,0:0|0:0,0:0:0:0:
110,116,99402,6,0,P|123:177|43:157,1,140.017498931751,2|0,1:0|0:0,0:0:0:0:
68,29,99777,1,0,0:0:0:0:
77,30,99870,1,0,0:0:0:0:
86,31,99964,1,0,0:0:0:0:
95,32,100058,1,0,0:0:0:0:
103,35,100152,2,0,P|149:20|195:7,1,93.3449992878342,10|0,0:0|0:0,0:0:0:0:
293,181,100527,2,0,P|246:166|201:153,1,93.3449992878342,2|0,1:0|0:0,0:0:0:0:
395,55,100902,5,2,0:0:0:0:
391,63,100995,1,0,0:0:0:0:
389,72,101089,1,0,0:0:0:0:
386,81,101183,1,0,0:0:0:0:
383,90,101277,1,0,0:0:0:0:
415,162,101464,1,0,0:0:0:0:
273,304,101652,6,0,B|270:323|259:349|259:349|310:266|407:266,1,195.142506327481,4|0,1:0|0:0,0:0:0:0:
478,364,102027,2,0,P|431:323|335:339,1,163.35374875371,6|0,1:0|0:0,0:0:0:0:
332,347,102402,6,0,P|344:369|335:332,1,167.579997954346,2|0,0:0|0:0,0:0:0:0:
136,377,103527,6,0,P|132:352|128:331,1,41.8949994885864,2|0,0:0|0:0,0:0:0:0:
45,223,103902,2,0,P|68:232|88:239,1,41.8949994885864,2|0,0:0|0:0,0:0:0:0:
211,224,104277,2,0,P|191:239|175:253,1,41.8949994885864,2|0,0:0|0:0,0:0:0:0:
321,300,104652,2,0,P|317:275|313:254,1,41.8949994885864,2|0,0:0|0:0,0:0:0:0:
202,352,105027,2,0,P|225:361|245:368,1,41.8949994885864,2|0,0:0|0:0,0:0:0:0:
417,262,105402,6,0,B|393:238|440:191|534:262|487:379|253:355|417:215|253:238,1,307.229996249634,2|0,0:0|0:0,0:0:0:0:
189,223,106902,6,0,P|194:202|199:181,1,41.8949994885864
295,150,107277,2,0,P|289:129|285:108,1,41.8949994885864
167,75,107652,2,0,P|172:54|177:33,1,41.8949994885864
132,156,108027,2,0,P|111:150|90:146,1,41.8949994885864,2|0,0:0|0:0,0:0:0:0:
25,81,108402,6,0,B|43:61|51:28|51:28|21:144|77:228,1,251.369996931519,2|2,0:0|0:0,0:0:0:0:
68,214,109902,6,0,P|90:201|108:190,1,41.8949994885864,2|0,0:0|0:0,0:0:0:0:
172,284,110277,2,0,P|194:296|212:307,1,41.8949994885864,2|0,0:0|0:0,0:0:0:0:
331,262,110652,2,0,P|318:239|307:221,1,41.8949994885864,2|0,0:0|0:0,0:0:0:0:
401,158,111027,2,0,P|413:135|424:117,1,41.8949994885864,2|0,0:0|0:0,0:0:0:0:
316,27,111402,6,0,B|183:-6|249:126|116:93,1,230.422497187225,2|0,0:0|0:0,0:0:0:0:
62,45,112527,2,0,L|58:9,2,27.9299996590576,8|8|8,0:0|0:0|0:0,0:0:0:0:
34,113,112902,6,0,L|29:160,1,43.732500266922,0|0,1:0|0:0,0:0:0:0:
76,219,113652,6,0,P|92:213|112:206,1,31.9725002683239,2|0,0:0|0:0,0:0:0:0:
182,306,113839,2,0,P|197:311|212:316,1,31.9725002683239,2|0,0:0|0:0,0:0:0:0:
304,198,114027,2,0,P|288:203|273:208,1,31.9725002683239,2|0,0:0|0:0,0:0:0:0:
215,307,114214,2,0,P|200:301|184:296,1,31.9725002683239,2|0,0:0|0:0,0:0:0:0:
331,333,114402,6,0,B|339:340|348:359|348:359|363:285|409:239,1,163.35374875371,6|0,1:0|0:0,0:0:0:0:
417,241,114777,1,0,0:0:0:0:
435,237,114964,1,0,0:0:0:0:
454,61,115152,5,2,1:0:0:0:
450,79,115339,1,2,0:0:0:0:
300,177,115527,5,2,0:0:0:0:
297,158,115714,1,2,0:0:0:0:
121,23,115902,6,0,P|180:69|239:6,1,163.35374875371,2|0,1:0|0:0,0:0:0:0:
238,10,116277,1,0,0:0:0:0:
243,27,116464,1,0,0:0:0:0:
127,178,116652,5,2,1:0:0:0:
108,173,116839,1,2,0:0:0:0:
164,292,117027,5,2,0:0:0:0:
146,296,117214,1,2,0:0:0:0:
267,346,117402,6,0,P|276:301|336:190,1,163.35374875371,2|0,1:0|0:0,0:0:0:0:
340,193,117777,1,0,0:0:0:0:
357,187,117964,1,0,0:0:0:0:
395,319,118152,5,2,1:0:0:0:
390,300,118339,1,2,0:0:0:0:
477,147,118527,5,2,0:0:0:0:
481,129,118714,1,2,0:0:0:0:
310,2,118902,6,0,B|220:-27|250:61|160:31,1,163.35374875371,2|0,1:0|0:0,0:0:0:0:
157,22,119277,1,0,0:0:0:0:
163,39,119464,1,0,0:0:0:0:
320,108,119652,5,2,1:0:0:0:
305,119,119839,1,2,0:0:0:0:
190,213,120027,5,2,0:0:0:0:
172,206,120214,1,2,3:0:0:0:
55,121,120402,6,0,P|-9:159|15:230,1,163.35374875371,2|0,1:0|0:0,0:0:0:0:
28,228,120777,1,0,0:0:0:0:
44,219,120964,1,0,3:0:0:0:
92,346,121152,5,2,1:0:0:0:
95,327,121339,1,2,0:0:0:0:
222,383,121527,5,2,0:0:0:0:
219,364,121714,1,2,0:0:0:0:
290,260,121902,6,0,B|319:228|319:228|360:273|427:281,1,163.35374875371,2|0,1:0|0:0,0:0:0:0:
434,274,122277,1,0,0:0:0:0:
430,292,122464,1,0,0:0:0:0:
485,180,122652,5,2,1:0:0:0:
468,187,122839,1,2,0:0:0:0:
361,92,123027,5,2,0:0:0:0:
378,99,123214,1,2,0:0:0:0:
220,136,123402,6,0,P|270:91|208:27,1,163.35374875371,2|0,1:0|0:0,0:0:0:0:
207,28,123777,1,0,0:0:0:0:
201,45,123964,1,0,0:0:0:0:
315,165,124152,5,2,1:0:0:0:
300,90,124339,1,2,0:0:0:0:
121,144,124527,5,2,0:0:0:0:
106,219,124714,1,2,0:0:0:0:
243,338,124902,6,0,P|284:328|233:328,1,163.35374875371,2|0,1:0|0:0,0:0:0:0:
246,333,125277,2,0,P|276:296|237:324,1,137.628745799904,2|0,0:0|0:0,0:0:0:0:
249,326,125652,1,0,1:0:0:0:
390,274,125839,1,8,0:0:0:0:
393,246,125933,1,8,0:0:0:0:
398,219,126027,1,10,0:0:0:0:
228,64,126214,1,10,0:0:0:0:
358,112,126402,6,0,B|310:118|291:163|291:163|228:46|65:65,1,343.428761921698,6|0,1:0|0:0,0:0:0:0:
69,74,126777,2,0,L|54:171,1,95.9175008049717,2|0,0:0|0:0,0:0:0:0:
89,343,127152,2,0,P|126:319|172:296,1,86.5462503301477,10|0,0:0|0:0,0:0:0:0:
169,309,127339,1,2,0:0:0:0:
319,370,127527,1,2,1:0:0:0:
314,360,127620,1,0,0:0:0:0:
350,296,127714,1,0,0:0:0:0:
345,286,127807,1,0,0:0:0:0:
277,246,127902,6,0,P|299:181|312:98,1,150.491250574079,2|0,0:0|0:0,0:0:0:0:
301,99,128277,2,0,P|302:121|296:154,1,47.9587504024859,2|0,0:0|0:0,0:0:0:0:
290,162,128464,1,0,1:0:0:0:
130,25,128652,2,0,P|180:38|230:54,1,86.5462503301477,10|0,0:0|0:0,0:0:0:0:
217,58,128839,1,2,0:0:0:0:
407,215,129027,2,0,P|349:228|279:249,1,128.992500492067,2|0,0:0|0:0,0:0:0:0:
41,240,129402,6,0,B|238:190|139:388|337:338,1,343.428761921698,6|0,1:0|0:0,0:0:0:0:
342,331,129777,2,0,P|371:320|445:311,1,95.9175008049717,2|0,0:0|0:0,0:0:0:0:
463,156,130152,1,10,0:0:0:0:
494,223,130339,1,2,0:0:0:0:
457,53,130527,1,2,1:0:0:0:
448,52,130620,1,0,0:0:0:0:
385,90,130714,1,0,0:0:0:0:
376,92,130807,1,0,0:0:0:0:
323,152,130902,6,0,P|357:110|290:54,1,150.491250574079,2|0,0:0|0:0,0:0:0:0:
291,59,131277,2,0,P|259:54|231:36,1,63.9450005366478,2|0,0:0|0:0,0:0:0:0:
126,150,131652,2,0,P|107:123|111:68,1,86.5462503301477,10|0,0:0|0:0,0:0:0:0:
116,65,131839,1,2,0:0:0:0:
87,249,132027,2,0,P|55:244|16:204,1,86.5462503301477,2|0,1:0|0:0,0:0:0:0:
13,191,132214,2,0,L|6:118,1,57.6975002200985,8|0,0:0|0:0,0:0:0:0:
54,353,132402,6,0,B|157:370|184:265|184:265|262:342|370:265,1,343.428761921698,6|0,1:0|0:0,0:0:0:0:
332,302,132777,2,0,P|354:274|320:285,1,95.9175008049717,2|0,0:0|0:0,0:0:0:0:
443,370,133152,2,0,P|472:332|470:280,1,86.5462503301477,10|0,0:0|0:0,0:0:0:0:
469,285,133339,1,2,0:0:0:0:
392,95,133527,1,2,1:0:0:0:
390,105,133620,1,0,0:0:0:0:
340,157,133714,1,0,0:0:0:0:
342,167,133807,1,0,0:0:0:0:
288,224,133902,6,0,P|245:175|174:118,1,150.491250574079,2|0,0:0|0:0,0:0:0:0:
163,121,134277,2,0,P|186:123|177:106,1,47.9587504024859,2|0,0:0|0:0,0:0:0:0:
165,99,134464,1,0,1:0:0:0:
64,267,134652,2,0,P|41:269|64:239,1,86.5462503301477,10|0,0:0|0:0,0:0:0:0:
84,253,134839,1,2,0:0:0:0:
246,287,135027,2,0,P|262:244|233:279,1,128.992500492067,2|0,1:0|0:0,0:0:0:0:
402,374,135402,6,0,B|378:336|321:324|321:324|432:242|433:84,1,343.428761921698,6|0,1:0|0:0,0:0:0:0:
423,111,135777,2,0,P|420:146|412:182,1,63.9450005366478,2|0,0:0|3:0,0:0:0:0:
262,54,136152,5,10,0:0:0:0:
344,31,136339,1,2,3:0:0:0:
221,219,136527,5,2,1:0:0:0:
116,184,136714,1,2,3:0:0:0:
35,31,136902,5,2,0:0:0:0:
39,63,136996,1,0,0:0:0:0:
44,94,137089,1,0,0:0:0:0:
17,281,137277,6,0,P|45:269|88:255,1,57.6975002200985,2|0,1:0|0:0,0:0:0:0:
224,354,137464,6,0,P|196:342|153:328,1,68.7224986367913,0|0,1:0|0:0,0:0:0:0:
227,165,137652,6,0,P|266:148|307:134,1,79.7474977792483,10|0,0:0|0:0,0:0:0:0:
460,198,137839,6,0,P|451:216|447:235,2,34.3612493183956,2|0|0,1:0|0:0|0:0,0:0:0:0:
362,251,138027,6,0,P|369:269|380:285,2,34.3612493183956,2|0|0,1:0|0:0|0:0,0:0:0:0:
332,369,138214,6,0,P|350:376|369:379,2,34.3612493183956,2|0|0,1:0|0:0|0:0,0:0:0:0:
443,335,138402,5,6,1:0:0:0:
133,241,139902,5,10,0:0:0:0:
456,85,141402,5,2,1:0:0:0:
94,17,142902,5,10,0:0:0:0:
94,17,143277,6,0,P|87:44|81:72,1,56.5949988773575,2|0,0:0|0:0,0:0:0:0:
158,178,143652,2,0,P|137:158|116:139,1,56.5949988773575,2|0,0:0|0:0,0:0:0:0:
296,44,144402,5,0,1:0:0:0:
296,44,144777,6,0,P|340:64|352:113,1,99.0412480353756,2|0,0:0|0:0,0:0:0:0:
359,111,145152,2,0,P|346:58|296:37,1,113.189997754715,2|0,0:0|0:0,0:0:0:0:
401,205,145902,5,10,0:0:0:0:
394,195,146089,1,2,0:0:0:0:
326,302,146277,1,2,0:0:0:0:
326,302,146652,5,2,0:0:0:0:
244,328,146839,1,2,0:0:0:0:
109,219,147027,1,2,0:0:0:0:
489,94,147402,5,0,1:0:0:0:
489,94,147777,2,0,P|482:126|478:162,1,56.5949988773575,2|0,0:0|0:0,0:0:0:0:
341,213,148152,2,0,P|319:195|297:177,1,56.5949988773575,2|0,0:0|0:0,0:0:0:0:
336,37,148527,2,0,P|362:28|389:18,1,56.5949988773575,2|0,0:0|0:0,0:0:0:0:
286,189,148902,5,10,0:0:0:0:
40,122,149277,5,0,0:0:0:0:
40,122,149652,6,0,L|45:149,1,20.9474997442932,2|0,0:0|0:0,0:0:0:0:
130,228,149839,2,0,L|136:194,1,31.9725002683239,2|0,0:0|0:0,0:0:0:0:
228,87,150027,2,0,L|238:144,1,42.9975001640224,2|0,0:0|0:0,0:0:0:0:
336,248,150214,2,0,L|347:186,1,54.0224974858304,2|0,0:0|0:0,0:0:0:0:
479,64,150402,6,2,P|447:96|401:90,1,93.7125005719757,6|2,1:0|0:1,0:1:0:0:
358,13,151902,5,10,0:0:0:0:
93,296,153027,5,2,0:0:0:0:
233,218,153214,1,0,1:0:0:0:
119,107,153402,5,2,1:0:0:0:
143,127,153527,2,0,L|182:116,1,27.9299996590576
219,54,153777,5,2,0:0:0:0:
219,54,154152,1,2,0:0:0:0:
327,195,154527,5,2,0:0:0:0:
453,82,154902,5,10,0:0:0:0:
429,102,155027,2,0,L|390:91,1,27.9299996590576,2|0,0:0|0:0,0:0:0:0:
324,138,155277,5,2,0:0:0:0:
397,224,155464,1,2,0:0:0:0:
264,336,155652,6,0,L|226:324,1,20.9474997442932,2|0,0:0|0:0,0:0:0:0:
140,269,155839,2,0,L|178:257,1,31.9725002683239,2|0,0:0|0:0,0:0:0:0:
302,192,156027,2,0,L|250:175,1,42.9975001640224,2|0,0:0|0:0,0:0:0:0:
117,109,156214,2,0,L|168:92,1,54.0224974858304,2|0,0:0|0:0,0:0:0:0:
341,37,156402,6,2,P|297:50|281:92,1,93.7125005719757,6|0,1:0|1:1,1:1:0:0:
356,164,157902,5,10,0:0:0:0:
299,371,159027,5,2,0:0:0:0:
408,331,159214,1,0,1:0:0:0:
203,222,159402,5,2,1:0:0:0:
318,283,159589,1,0,1:0:0:0:
421,104,159777,5,2,1:0:0:0:
306,165,159964,1,2,1:0:0:0:
130,16,160152,6,0,P|134:42|140:73,1,41.8949994885864,2|0,1:0|0:0,0:0:0:0:
2,165,160527,2,0,P|5:144|9:123,1,41.8949994885864,2|0,1:0|0:0,0:0:0:0:
119,270,160902,5,10,0:0:0:0:
39,240,161089,1,2,0:0:0:0:
203,265,161277,5,2,0:0:0:0:
155,336,161464,1,2,0:0:0:0:
268,208,161652,5,10,0:0:0:0:
268,208,162402,5,2,1:0:0:0:
401,131,167652,6,0,P|386:124|366:124,1,31.9725002683239,2|0,0:0|0:0,0:0:0:0:
272,233,167839,2,0,P|257:239|241:240,1,31.9725002683239,2|0,0:0|0:0,0:0:0:0:
218,88,168027,2,0,P|233:81|253:81,1,31.9725002683239,2|0,0:0|0:0,0:0:0:0:
347,190,168214,2,0,P|361:196|377:197,1,31.9725002683239,2|0,0:0|0:0,0:0:0:0:
223,5,168402,6,0,B|132:1|172:73|82:73,1,163.35374875371,6|0,1:0|0:0,0:0:0:0:
84,90,168777,1,0,0:0:0:0:
106,163,168964,1,0,0:0:0:0:
22,297,169152,5,2,1:0:0:0:
93,277,169339,1,2,0:0:0:0:
212,377,169527,5,2,0:0:0:0:
141,357,169714,1,2,0:0:0:0:
272,228,169902,6,0,B|363:209|325:297|415:276,1,163.35374875371,2|0,1:0|0:0,0:0:0:0:
423,264,170277,1,0,0:0:0:0:
405,191,170464,1,0,0:0:0:0:
189,41,170652,5,2,1:0:0:0:
263,29,170839,1,2,0:0:0:0:
168,182,171027,5,2,0:0:0:0:
94,171,171214,1,2,0:0:0:0:
248,114,171402,6,0,P|208:144|272:225,1,163.35374875371,2|0,1:0|0:0,0:0:0:0:
270,221,171777,1,0,0:0:0:0:
325,270,171964,1,0,0:0:0:0:
377,88,172152,5,2,1:0:0:0:
341,155,172339,1,2,0:0:0:0:
417,7,172527,5,2,0:0:0:0:
453,74,172714,1,2,0:0:0:0:
489,228,172902,6,0,P|450:196|385:264,1,163.35374875371,2|0,1:0|0:0,0:0:0:0:
389,275,173277,1,0,0:0:0:0:
363,352,173464,1,0,0:0:0:0:
202,270,173652,5,2,1:0:0:0:
231,341,173839,1,2,0:0:0:0:
67,278,174027,5,2,0:0:0:0:
96,207,174214,1,2,3:0:0:0:
193,33,174402,6,0,P|119:63|31:78,1,163.35374875371,2|0,1:0|0:0,0:0:0:0:
27,68,174777,1,0,0:0:0:0:
87,111,174964,1,0,3:0:0:0:
221,169,175152,5,2,1:0:0:0:
262,107,175339,1,2,0:0:0:0:
311,249,175527,5,2,0:0:0:0:
293,176,175714,1,2,0:0:0:0:
226,326,175902,6,0,P|178:354|108:291,1,163.35374875371,2|0,1:0|0:0,0:0:0:0:
110,277,176277,1,0,0:0:0:0:
155,203,176464,1,0,0:0:0:0:
296,340,176652,5,2,1:0:0:0:
365,314,176839,1,2,0:0:0:0:
416,174,177027,5,2,0:0:0:0:
485,200,177214,1,2,0:0:0:0:
318,61,177402,6,0,B|305:80|282:92|282:92|303:146|313:219,1,163.35374875371,2|0,1:0|0:0,0:0:0:0:
302,213,177777,1,0,0:0:0:0:
231,189,177964,1,0,0:0:0:0:
368,114,178152,5,2,1:0:0:0:
294,100,178339,1,2,0:0:0:0:
137,205,178527,5,2,0:0:0:0:
63,219,178714,1,2,0:0:0:0:
85,149,178902,1,2,0:0:0:0:
296,82,179464,5,0,3:0:0:0:
295,91,179558,1,0,3:0:0:0:
294,100,179652,1,8,0:0:0:0:
139,211,179839,5,8,0:0:0:0:
135,179,179933,1,8,0:0:0:0:
131,147,180027,1,10,0:0:0:0:
321,301,180214,1,10,0:0:0:0:
385,199,180402,6,0,B|171:145|277:357|65:305,1,369.1537614065,6|0,1:0|0:0,0:0:0:0:
63,292,180777,2,0,P|54:207|1:96,1,206.167495910374,2|0,0:0|0:0,0:0:0:0:
189,21,181152,5,10,0:0:0:0:
145,132,181339,1,2,0:0:0:0:
281,269,181527,5,2,1:0:0:0:
274,237,181620,1,0,0:0:0:0:
320,175,181714,1,0,0:0:0:0:
327,143,181807,1,0,0:0:0:0:
271,78,181902,6,0,P|334:127|390:65,1,176.216254974366,2|0,0:0|0:0,0:0:0:0:
388,56,182277,2,0,P|411:36|444:39,1,53.4712512646551,2|0,0:0|0:0,0:0:0:0:
446,47,182464,1,0,1:0:0:0:
384,204,182652,2,0,L|395:264,1,61.3724980802365,10|0,0:0|0:0,0:0:0:0:
335,351,182839,1,2,0:0:0:0:
238,187,183027,5,2,0:0:0:0:
193,243,183214,1,0,0:0:0:0:
170,238,183308,1,0,0:0:0:0:
105,272,183402,6,0,P|156:219|80:273,1,356.291261688632,6|0,1:0|0:0,0:0:0:0:
35,260,183777,2,0,P|18:234|34:154,1,106.94250252931,2|0,0:0|0:0,0:0:0:0:
206,116,184152,1,10,0:0:0:0:
88,88,184339,1,2,0:0:0:0:
161,332,184527,5,2,1:0:0:0:
189,321,184620,1,0,0:0:0:0:
240,369,184714,1,0,0:0:0:0:
268,380,184807,1,0,0:0:0:0:
334,347,184902,6,0,P|360:264|436:274,1,163.35374875371,2|0,0:0|0:0,0:0:0:0:
415,269,185277,2,0,P|394:265|341:295,1,71.2950016862069,2|0,0:0|0:0,0:0:0:0:
460,184,185652,2,0,P|466:155|479:130,1,57.6975002200985,10|0,0:0|0:0,0:0:0:0:
391,39,185839,1,2,0:0:0:0:
116,158,186027,6,0,P|124:188|131:233,1,57.6975002200985,2|0,1:0|0:0,0:0:0:0:
310,74,186214,2,0,P|315:45|322:17,1,57.6975002200985,8|0,0:0|0:0,0:0:0:0:
364,171,186402,6,0,B|159:222|261:17|56:68,1,356.291261688632,6|0,1:0|0:0,0:0:0:0:
59,46,186777,2,0,P|27:67|75:84,1,106.94250252931,2|0,0:0|0:0,0:0:0:0:
249,11,187152,1,10,0:0:0:0:
220,108,187339,1,2,0:0:0:0:
329,237,187527,5,2,1:0:0:0:
361,244,187620,1,0,0:0:0:0:
423,198,187714,1,0,0:0:0:0:
455,191,187807,1,0,0:0:0:0:
494,121,187902,6,0,P|418:104|315:85,1,163.35374875371,2|0,0:0|0:0,0:0:0:0:
325,96,188277,2,0,P|361:103|392:111,1,53.4712512646551,2|0,0:0|0:0,0:0:0:0:
389,113,188464,1,0,1:0:0:0:
250,220,188652,2,0,P|247:188|226:152,1,61.3724980802365,10|0,0:0|0:0,0:0:0:0:
135,98,188839,1,2,0:0:0:0:
344,233,189027,1,2,0:0:0:0:
271,330,189214,5,0,0:0:0:0:
257,327,189308,1,0,0:0:0:0:
191,357,189402,2,0,P|68:305|199:283,1,356.291261688632,6|0,1:0|0:0,0:0:0:0:
206,281,189777,2,0,P|180:247|117:237,1,106.94250252931,2|0,0:0|0:0,0:0:0:0:
24,92,190152,5,10,0:0:0:0:
89,152,190339,1,2,3:0:0:0:
216,3,190527,5,2,1:0:0:0:
100,60,190714,1,0,3:0:0:0:
282,206,190902,5,2,0:0:0:0:
276,178,190995,1,0,0:0:0:0:
270,150,191089,1,0,0:0:0:0:
160,273,191277,6,0,P|125:273|97:245,1,61.3724980802365,2|0,1:0|0:0,0:0:0:0:
238,324,191464,6,0,P|218:353|180:367,1,72.3975001657047,0|0,1:0|0:0,0:0:0:0:
326,273,191652,6,0,P|340:304|333:357,1,83.42249879072,10|0,0:0|0:0,0:0:0:0:
375,187,191839,6,0,P|355:176|322:179,2,36.1987500828524,2|0|0,1:0|0:0|0:0,0:0:0:0:
309,87,192027,6,0,P|287:94|267:120,2,36.1987500828524,2|0|0,1:0|0:0|0:0,0:0:0:0:
203,55,192214,6,0,P|193:75|198:108,2,36.1987500828524,2|0|0,1:0|0:0|0:0,0:0:0:0:
245,297,197652,6,0,L|242:319,1,16.2618755272901,2|0,0:0|0:0,0:0:0:0:
