osu file format v14

[General]
AudioFilename: audio.mp3
AudioLeadIn: 0
PreviewTime: 149464
Countdown: 0
SampleSet: Soft
StackLeniency: 0.4
Mode: 0
LetterboxInBreaks: 0
WidescreenStoryboard: 1

[Editor]
DistanceSpacing: 1
BeatDivisor: 4
GridSize: 32
TimelineZoom: 0.9999999

[Metadata]
Title:VILLAIN feat. Madison Beer and Kim Petras
TitleUnicode:VILLAIN feat. Madison Beer and Kim Petras
Artist:K/DA
ArtistUnicode:K/DA
Creator:SMOKELIND
Version:CHIGA'S NORMAL
Source:League of Legends
Tags:LoL Riot Games English Pop KDA Evelynn Elinor Eli [_Eli_] Chiga All Out
BeatmapID:2732350
BeatmapSetID:1299924

[Difficulty]
HPDrainRate:3
CircleSize:3.2
OverallDifficulty:4
ApproachRate:5
SliderMultiplier:1.07
SliderTickRate:1

[Events]
//Background and Video events
0,0,"eve.jpg",0,0
Video,222,"eve.mp4"
//Break Periods
2,36602,44202
2,72414,76452
2,102602,110202
2,162602,166452
//Storyboard Layer 0 (Background)
//Storyboard Layer 1 (Fail)
//Storyboard Layer 2 (Pass)
//Storyboard Layer 3 (Foreground)
//Storyboard Layer 4 (Overlay)
//Storyboard Sound Samples

[TimingPoints]
402,375,4,2,77,47,1,0
12027,-111.111111111111,4,2,77,47,0,0
12402,-111.111111111111,4,2,77,57,0,0
36402,-111.111111111111,4,2,77,47,0,0
46527,-111.111111111111,4,2,77,37,0,0
46902,-111.111111111111,4,2,77,47,0,0
47652,-111.111111111111,4,2,77,57,0,0
48402,-111.111111111111,4,2,77,67,0,0
60402,-111.111111111111,4,2,77,87,0,0
61339,-99.9999999999999,4,2,77,87,0,0
72402,-99.9999999999999,4,2,77,57,0,0
72902,-99.9999999999999,4,2,77,47,0,0
77652,-99.9999999999999,4,2,77,57,0,0
78402,-111.111111111111,4,2,77,57,0,0
90402,-111.111111111111,4,2,77,67,0,0
102027,-111.111111111111,4,2,77,57,0,0
102402,-111.111111111111,4,2,77,47,0,0
112527,-111.111111111111,4,2,77,37,0,0
112902,-111.111111111111,4,2,77,47,0,0
113652,-111.111111111111,4,2,77,57,0,0
114402,-111.111111111111,4,2,77,67,0,0
126402,-99.9999999999999,4,2,77,87,0,0
138589,-99.9999999999999,4,2,77,47,0,0
139902,-99.9999999999999,4,2,77,47,0,0
143277,-111.111111111111,4,2,77,47,0,0
144402,-111.111111111111,4,2,77,57,0,0
150402,-125,4,2,77,57,0,0
167652,-111.111111111111,4,2,77,57,0,0
168402,-111.111111111111,4,2,77,67,0,0
180402,-100,4,2,77,87,0,0
192402,-100,4,2,77,47,0,0

[Colours]
Combo1 : 187,119,255
Combo2 : 185,225,255
Combo3 : 220,176,255
Combo4 : 136,210,255

[HitObjects]
109,62,12027,6,0,L|101:123,1,48.1499985305786,2|2,1:0|0:0,0:0:0:0:
79,152,12402,2,0,B|129:128|180:162|183:217|183:217|187:285|257:289,1,240.749992652893,6|0,1:0|0:0,0:0:0:0:
280,266,13527,1,0,1:0:0:0:
375,275,13902,2,0,P|376:253|357:209,2,48.1499985305786,10|2|2,0:0|1:0|1:0,0:0:0:0:
354,320,14464,1,2,0:0:0:0:
354,320,14652,1,2,0:0:0:0:
445,350,15027,1,2,0:0:0:0:
492,266,15402,6,0,B|497:193|497:193|501:189|501:189|506:122,1,144.449995591736,2|0,1:0|1:0,0:0:0:0:
424,72,16339,2,0,L|418:137,1,48.1499985305787,0|0,1:0|1:0,0:0:0:0:
328,154,16902,2,0,P|300:142|263:148,2,48.1499985305787,10|2|2,0:0|1:0|0:0,0:0:0:0:
363,195,17464,1,2,0:0:0:0:
363,195,17652,1,2,1:0:0:0:
337,289,18027,1,2,0:0:0:0:
307,380,18402,6,0,B|267:390|221:365|220:314|220:314|193:277|142:275|112:301,1,240.749992652893,6|0,1:0|0:0,0:0:0:0:
93,338,19527,1,0,1:0:0:0:
38,258,19902,2,0,P|44:238|34:194,2,48.1499985305787,10|2|2,0:0|1:0|1:0,0:0:0:0:
9,296,20464,1,2,0:0:0:0:
9,296,20652,1,2,1:0:0:0:
93,338,21027,1,2,1:0:0:0:
154,264,21402,6,0,P|209:222|276:242,1,144.449995591736,2|0,1:0|1:0,0:0:0:0:
384,323,22527,1,0,1:0:0:0:
461,265,22902,2,0,P|469:218|486:151,2,96.2999970611573,8|0|0,0:0|1:0|1:0,0:0:0:0:
384,323,24027,2,0,P|360:317|336:313,1,48.1499985305787,2|2,0:0|0:0,0:0:0:0:
293,334,24402,6,0,B|230:357|167:315|178:247|178:247|190:285|232:294,1,240.749992652893,6|0,1:0|0:0,0:0:0:0:
259,261,25527,1,0,1:0:0:0:
338,207,25902,2,0,P|347:160|326:120,1,96.2999970611573,10|2,0:0|1:0,0:0:0:0:
281,117,26464,1,2,0:0:0:0:
281,117,26652,1,2,0:0:0:0:
189,147,27027,1,2,0:0:0:0:
118,80,27402,6,0,B|81:73|57:100|57:100|48:149|95:184,1,144.449995591736,2|0,1:0|1:0,0:0:0:0:
61,265,28339,2,0,P|99:265|124:249,1,48.1499985305787,0|0,1:0|1:0,0:0:0:0:
177,193,28902,2,0,P|216:166|263:171,2,96.2999970611573,10|2|2,0:0|0:0|1:0,0:0:0:0:
107,261,30027,2,0,P|115:295|121:327,1,48.1499985305787,2|0,0:0|0:0,0:0:0:0:
113,356,30402,6,0,B|216:332|216:332|244:339|244:339|352:316,1,240.749992652893,6|0,1:0|0:0,0:0:0:0:
391,337,31527,1,0,1:0:0:0:
434,251,31902,2,0,P|407:249|389:238,2,48.1499985305787,10|2|2,0:0|1:0|1:0,0:0:0:0:
480,232,32464,1,2,0:0:0:0:
480,232,32652,1,2,1:0:0:0:
433,147,33027,1,2,1:0:0:0:
491,70,33402,6,0,B|426:58|426:58|422:53|422:53|350:41,1,144.449995591736,2|0,1:0|1:0,0:0:0:0:
252,166,34527,1,0,0:0:0:0:
157,212,34902,2,0,P|139:174|175:114,2,96.2999970611573,8|0|0,0:0|1:0|1:0,0:0:0:0:
200,252,35839,1,0,1:0:0:0:
200,252,36027,2,0,P|192:284|187:318,1,48.1499985305787,2|0,1:0|0:0,0:0:0:0:
190,352,36402,5,2,0:0:0:0:
256,192,45402,12,0,46902,1:0:0:0:
220,311,47652,6,0,P|196:305|169:302,1,48.1499985305787,2|2,0:0|0:0,0:0:0:0:
124,304,48027,1,2,0:0:0:0:
44,357,48402,6,0,P|24:324|44:258,1,96.2999970611573,6|0,1:0|0:0,0:0:0:0:
102,200,49152,2,0,P|108:174|96:134,2,48.1499985305787,2|2|2,1:0|0:0|0:0,0:0:0:0:
142,235,49714,1,2,0:0:0:0:
142,235,49902,2,0,P|192:226|257:222,1,96.2999970611573,2|0,1:0|0:0,0:0:0:0:
291,302,50652,2,0,P|313:312|348:309,1,48.1499985305787,2|2,1:0|0:0,0:0:0:0:
384,320,51027,2,0,P|402:304|414:271,1,48.1499985305787,2|2,0:0|0:0,0:0:0:0:
454,259,51402,6,0,P|431:203|378:195,1,96.2999970611573,2|0,1:0|0:0,0:0:0:0:
308,162,52152,2,0,P|313:191|318:223,2,48.1499985305787,2|2|2,1:0|0:0|0:0,0:0:0:0:
325,119,52714,1,2,0:0:0:0:
325,119,52902,2,0,P|373:112|421:100,1,96.2999970611573,2|0,1:0|0:0,0:0:0:0:
476,22,53652,2,0,P|452:8|414:10,1,48.1499985305787,2|2,1:0|0:0,0:0:0:0:
388,25,54027,2,0,P|359:32|337:35,1,48.1499985305787,2|2,0:0|3:0,0:0:0:0:
299,9,54402,6,0,B|246:3|246:3|224:23|232:54,1,96.2999970611573,2|0,1:0|0:0,0:0:0:0:
140,76,55152,2,0,P|152:104|179:122,2,48.1499985305787,2|2|2,1:0|0:0|0:0,0:0:0:0:
138,32,55714,1,2,0:0:0:0:
138,32,55902,2,0,P|91:31|55:74,1,96.2999970611573,2|0,1:0|0:0,0:0:0:0:
10,147,56652,2,0,P|18:174|24:204,1,48.1499985305787,2|2,1:0|0:0,0:0:0:0:
66,213,57027,2,0,P|89:205|112:199,1,48.1499985305787,2|2,0:0|0:0,0:0:0:0:
153,223,57402,6,0,P|200:224|236:181,1,96.2999970611573,2|0,1:0|0:0,0:0:0:0:
327,171,58152,2,0,P|321:150|314:103,2,48.1499985305787,2|2|2,1:0|0:0|0:0,0:0:0:0:
373,206,58714,1,2,0:0:0:0:
373,206,58902,2,0,P|360:252|351:299,1,96.2999970611573,2|0,1:0|3:0,0:0:0:0:
272,355,59652,2,0,P|250:355|219:336,1,48.1499985305787,0|8,1:0|0:0,0:0:0:0:
182,343,60027,1,10,0:0:0:0:
182,343,60214,1,10,0:0:0:0:
182,343,60402,6,0,B|170:298|170:298|198:258,1,96.2999970611573,6|2,1:0|0:0,0:0:0:0:
234,170,61152,1,10,0:0:0:0:
234,170,61339,2,0,B|185:174|185:174|182:171|182:171|128:177,1,107,2|0,0:0|0:0,0:0:0:0:
101,130,61902,1,2,0:0:0:0:
17,197,62277,2,0,P|11:232|24:268,1,53.5,2|0,0:0|1:0,0:0:0:0:
0,300,62652,1,10,0:0:0:0:
0,300,62839,2,0,P|54:337|108:315,1,107,2|0,0:0|0:0,0:0:0:0:
119,283,63402,5,6,1:0:0:0:
222,254,63777,2,0,P|217:281|213:316,1,53.5,2|0,0:0|0:0,0:0:0:0:
257,347,64152,1,10,0:0:0:0:
257,347,64339,2,0,P|309:319|314:274,1,107,2|0,0:0|0:0,0:0:0:0:
301,223,64902,1,2,0:0:0:0:
407,237,65277,2,0,P|433:232|455:217,1,53.5,2|0,0:0|0:0,0:0:0:0:
476,165,65652,1,10,0:0:0:0:
476,165,65839,2,0,P|466:114|406:90,1,107,2|8,0:0|0:0,0:0:0:0:
374,117,66402,6,0,P|368:63|359:11,1,107,6|2,1:0|0:0,0:0:0:0:
256,26,67151,1,10,0:0:0:0:
256,26,67339,2,0,P|265:78|270:131,1,107,2|0,0:0|0:0,0:0:0:0:
227,165,67902,1,2,0:0:0:0:
128,123,68277,2,0,P|116:166|123:189,1,53.5,2|0,0:0|1:0,0:0:0:0:
86,218,68652,1,10,0:0:0:0:
86,218,68839,2,0,P|116:259|189:252,1,107,2|0,0:0|0:0,0:0:0:0:
205,223,69402,5,6,1:0:0:0:
281,298,69777,2,0,P|304:293|335:291,1,53.5,2|0,0:0|3:0,0:0:0:0:
360,246,70152,1,10,0:0:0:0:
360,246,70339,2,0,P|413:240|485:226,1,107,2|0,3:0|3:0,0:0:0:0:
487,181,70902,1,2,0:0:0:0:
391,133,71277,2,0,P|364:137|338:140,1,53.5,2|0,1:0|1:0,0:0:0:0:
292,112,71652,5,10,0:0:0:0:
292,112,71839,2,0,B|281:89|281:89|285:60,1,53.5,2|2,1:0|1:0,0:0:0:0:
317,18,72214,1,2,1:0:0:0:
249,15,77652,5,14,0:2:0:0:
163,186,78402,2,0,P|88:176|65:110,1,144.449995591736,2|2,1:0|0:0,0:0:0:0:
77,72,79152,2,0,P|129:71|152:115,1,96.2999970611573,10|2,0:0|1:0,0:0:0:0:
244,129,79902,2,0,B|253:93|238:61|238:61|274:82|318:64,1,144.449995591736,2|2,0:0|0:0,0:0:0:0:
340,28,80652,2,0,P|392:27|415:71,1,96.2999970611573,2|2,1:0|0:0,0:0:0:0:
478,131,81402,6,0,P|416:142|335:160,1,144.449995591736,2|2,1:0|0:0,0:0:0:0:
304,195,82152,2,0,P|308:248|352:266,1,96.2999970611573,10|2,0:0|1:0,0:0:0:0:
438,279,82902,2,0,B|397:259|361:285|361:285|364:330|330:355,1,144.449995591736,2|2,0:0|0:0,0:0:0:0:
295,351,83652,1,10,0:0:0:0:
220,289,84027,2,0,P|187:297|168:319,1,48.1499985305787,2|2,1:0|0:0,0:0:0:0:
142,340,84402,6,0,L|120:223,1,96.2999970611573,2|2,1:0|0:0,0:0:0:0:
202,194,85152,2,0,L|224:311,1,96.2999970611573,10|2,0:0|1:0,0:0:0:0:
257,318,85714,1,2,0:0:0:0:
257,318,85902,1,2,0:0:0:0:
319,244,86277,2,0,P|341:240|377:229,1,48.1499985305787,2|2,0:0|0:0,0:0:0:0:
411,248,86652,2,0,P|445:197|426:159,1,96.2999970611573,2|2,1:0|0:0,0:0:0:0:
344,134,87402,6,0,P|320:140|297:144,2,48.1499985305787,2|2|2,1:0|0:0|0:0,0:0:0:0:
367,93,87964,1,2,0:0:0:0:
367,93,88152,2,0,P|335:40|292:41,1,96.2999970611573,10|2,0:0|1:0,0:0:0:0:
210,22,88902,2,0,P|216:46|220:69,1,48.1499985305787,2|2,0:0|0:0,0:0:0:0:
195,110,89277,2,0,P|171:116|148:120,1,48.1499985305787,2|2,0:0|0:0,0:0:0:0:
107,94,89652,2,0,P|76:145|97:186,1,96.2999970611573,14|2,0:0|0:0,0:0:0:0:
46,263,90402,6,0,B|113:256|113:256|119:260|119:260|188:253,1,144.449995591736,6|0,1:0|0:0,0:0:0:0:
231,275,91152,1,8,0:0:0:0:
223,370,91527,2,0,L|287:364,1,48.1499985305787,2|2,1:0|0:0,0:0:0:0:
317,377,91902,2,0,P|356:331|348:286,1,96.2999970611573,2|2,0:0|0:0,0:0:0:0:
325,265,92464,1,2,0:0:0:0:
325,265,92652,1,2,1:0:0:0:
398,203,93027,2,0,P|370:175|349:171,1,48.1499985305787,2|2,0:0|0:0,0:0:0:0:
338,129,93402,6,0,B|292:119|292:119|256:152,1,96.2999970611573,2|0,1:0|0:0,0:0:0:0:
174,201,94152,2,0,P|164:159|143:90,2,96.2999970611573,10|2|2,0:0|1:0|0:0,0:0:0:0:
107,270,95277,1,0,0:0:0:0:
192,313,95652,2,0,P|183:340|177:368,2,48.1499985305787,14|2|2,0:0|0:0|1:2,0:0:0:0:
228,281,96214,1,2,0:0:0:0:
228,281,96402,6,0,P|304:280|336:334,1,144.449995591736,2|0,1:0|0:0,0:0:0:0:
326,380,97152,1,8,0:0:0:0:
421,364,97527,2,0,P|424:340|430:317,1,48.1499985305787,2|2,1:0|0:0,0:0:0:0:
472,292,97902,2,0,P|425:261|384:224,1,96.2999970611573,2|2,0:0|0:0,0:0:0:0:
330,163,98652,2,0,P|346:148|384:142,2,48.1499985305787,2|2|2,1:0|0:0|0:0,0:0:0:0:
304,203,99214,1,2,0:0:0:0:
304,203,99402,6,0,P|263:168|264:117,1,96.2999970611573,2|0,1:0|0:0,0:0:0:0:
296,38,100152,2,0,P|245:48|179:56,2,96.2999970611573,10|2|2,0:0|1:0|0:0,0:0:0:0:
385,1,101277,1,0,0:0:0:0:
369,96,101652,1,4,1:0:0:0:
433,167,102027,1,6,1:0:0:0:
398,256,102402,5,2,0:0:0:0:
256,192,111402,12,0,112902,1:0:0:0:
311,384,113652,6,0,P|305:368|297:331,1,48.1499985305787,2|2,0:0|0:0,0:0:0:0:
254,316,114027,2,0,P|259:292|267:269,1,48.1499985305787,2|2,0:0|0:0,0:0:0:0:
253,223,114402,6,0,P|298:198|348:224,1,96.2999970611573,6|0,1:0|0:0,0:0:0:0:
370,121,115152,2,0,P|343:118|314:94,2,48.1499985305787,2|2|2,1:0|0:0|0:0,0:0:0:0:
404,88,115714,1,2,0:0:0:0:
404,88,115902,2,0,P|379:37|331:32,1,96.2999970611573,2|0,1:0|0:0,0:0:0:0:
249,10,116652,2,0,P|245:39|238:66,1,48.1499985305787,2|2,1:0|0:0,0:0:0:0:
264,99,117027,2,0,P|254:127|243:152,1,48.1499985305787,2|2,0:0|0:0,0:0:0:0:
244,192,117402,6,0,P|199:173|154:157,1,96.2999970611573,2|0,1:0|0:0,0:0:0:0:
140,252,118152,2,0,P|162:260|184:269,2,48.1499985305787,2|2|2,1:0|0:0|0:0,0:0:0:0:
96,262,118714,1,2,0:0:0:0:
96,262,118902,2,0,P|61:315|75:356,1,96.2999970611573,2|0,1:0|0:0,0:0:0:0:
155,380,119652,2,0,P|181:365|193:343,1,48.1499985305787,2|2,1:0|0:0,0:0:0:0:
235,331,120027,2,0,P|232:301|217:280,1,48.1499985305787,2|2,0:0|3:0,0:0:0:0:
186,254,120402,6,0,P|253:236|271:205,1,96.2999970611573,2|0,1:0|0:0,0:0:0:0:
349,167,121152,2,0,P|353:199|361:229,2,48.1499985305787,2|2|2,1:0|0:0|0:0,0:0:0:0:
323,133,121714,1,2,0:0:0:0:
323,133,121902,2,0,P|377:125|427:112,1,96.2999970611573,2|0,1:0|0:0,0:0:0:0:
495,171,122652,2,0,P|507:202|504:227,1,48.1499985305787,2|2,1:0|0:0,0:0:0:0:
504,264,123027,2,0,P|480:287|457:295,1,48.1499985305787,2|2,0:0|0:0,0:0:0:0:
446,337,123402,6,0,P|408:336|371:282,1,96.2999970611573,2|0,1:0|0:0,0:0:0:0:
286,336,124152,2,0,P|301:355|306:378,2,48.1499985305787,2|2|2,1:0|0:0|0:0,0:0:0:0:
241,337,124714,1,2,0:0:0:0:
241,337,124902,2,0,P|194:348|146:355,1,96.2999970611573,2|2,1:0|0:0,0:0:0:0:
155,259,125652,2,0,P|178:255|202:250,1,48.1499985305787,0|8,1:0|0:0,0:0:0:0:
241,221,126027,1,10,0:0:0:0:
241,221,126214,1,10,0:0:0:0:
241,221,126402,6,0,B|241:167|241:167|185:141,1,107,6|2,1:0|0:0,0:0:0:0:
112,65,127152,1,10,0:0:0:0:
112,65,127339,2,0,P|67:91|72:154,1,107,2|0,0:0|0:0,0:0:0:0:
96,191,127902,1,2,0:0:0:0:
51,281,128277,2,0,P|74:284|107:293,1,53.5,2|0,0:0|1:0,0:0:0:0:
140,338,128652,1,10,0:0:0:0:
140,338,128839,2,0,P|199:351|259:360,1,107,2|0,0:0|0:0,0:0:0:0:
293,337,129402,5,6,1:0:0:0:
245,241,129777,2,0,P|247:206|272:177,1,53.5,2|0,0:0|0:0,0:0:0:0:
247,142,130152,1,10,0:0:0:0:
247,142,130339,2,0,P|296:117|354:155,1,107,2|0,0:0|0:0,0:0:0:0:
352,187,130902,1,2,0:0:0:0:
458,198,131277,2,0,P|450:230|447:262,1,53.5,2|0,0:0|0:0,0:0:0:0:
475,302,131652,1,10,0:0:0:0:
475,302,131839,2,0,P|415:287|356:281,1,107,2|8,0:0|0:0,0:0:0:0:
336,324,132402,6,0,P|296:363|241:353,1,107,6|2,1:0|0:0,0:0:0:0:
146,345,133152,1,10,0:0:0:0:
146,345,133339,2,0,P|143:284|189:258,1,107,2|0,0:0|0:0,0:0:0:0:
227,274,133902,1,2,0:0:0:0:
304,199,134277,2,0,P|311:174|298:138,1,53.5,2|0,0:0|1:0,0:0:0:0:
273,111,134652,1,10,0:0:0:0:
273,111,134839,2,0,P|222:126|152:137,1,107,2|0,0:0|0:0,0:0:0:0:
120,112,135402,5,6,1:0:0:0:
173,19,135777,2,0,P|199:13|224:5,1,53.5,2|0,0:0|3:0,0:0:0:0:
282,9,136152,1,10,0:0:0:0:
282,9,136339,2,0,P|346:21|361:74,1,107,2|2,3:0|3:0,0:0:0:0:
356,107,136902,1,2,0:0:0:0:
462,105,137277,2,0,P|460:148|437:172,1,53.5,2|0,1:0|1:0,0:0:0:0:
468,212,137652,5,10,0:0:0:0:
468,212,137839,2,0,B|446:226|446:226|405:224,1,53.5,2|2,1:0|1:0,0:0:0:0:
378,259,138214,2,0,B|356:244|356:244|340:206,1,53.5,2|6,1:0|1:0,0:0:0:0:
17,17,139902,5,10,0:0:0:0:
387,122,141402,1,2,1:0:0:0:
153,311,142902,1,10,0:0:0:0:
88,240,143277,2,0,P|57:274|57:321,1,96.2999970611573,2|2,0:0|0:0,0:0:0:0:
227,155,144402,5,0,1:0:0:0:
149,97,144777,2,0,P|105:109|48:120,1,96.2999970611573,2|2,0:0|0:0,0:0:0:0:
232,43,145902,2,0,P|237:66|244:89,2,48.1499985305787,10|2|2,0:0|0:0|0:0,0:0:0:0:
325,67,146652,2,0,P|317:43|312:20,2,48.1499985305787,2|2|2,0:0|0:0|0:0,0:0:0:0:
413,105,147402,5,0,1:0:0:0:
368,190,147777,2,0,P|354:243|384:285,2,96.2999970611573,2|2|2,0:0|0:0|0:0,0:0:0:0:
464,187,148902,2,0,P|484:229|469:273,1,96.2999970611573,10|0,0:0|0:0,0:0:0:0:
409,357,149652,2,0,P|433:360|456:369,2,48.1499985305787,2|2|2,0:0|0:0|0:0,0:0:0:0:
389,313,150214,1,2,0:0:0:0:
389,313,150402,6,2,B|344:330|291:310|279:255|279:255|265:170|178:148|119:194,1,342.4,6|10,1:0|0:0,0:1:0:0:
463,105,153027,1,2,0:0:0:0:
387,160,153402,2,0,P|393:185|397:214,2,42.8,2|0|2,1:0|0:0|0:0,0:0:0:0:
309,105,154152,2,0,P|265:97|226:127,1,85.6
140,93,154902,2,0,P|134:123|144:151,1,42.8
165,171,155277,1,0,0:0:0:0:
110,248,155652,2,0,P|89:254|68:258,2,42.8
147,285,156214,1,0,0:0:0:0:
147,285,156402,6,2,B|189:303|244:281|256:226|256:226|270:141|357:120|408:160,1,342.4,6|10,1:0|0:0,1:0:0:0:
392,364,159027,1,2,0:0:0:0:
345,292,159402,2,0,P|306:283|260:321,1,85.6,2|2,1:0|1:0,0:0:0:0:
261,347,159964,1,2,1:0:0:0:
261,347,160152,1,2,1:0:0:0:
178,325,160527,1,2,1:0:0:0:
95,300,160902,6,0,P|88:328|81:353,2,42.8,10|2|2,0:0|0:0|0:0,0:0:0:0:
94,261,161464,1,2,0:0:0:0:
94,261,161652,1,10,0:0:0:0:
297,202,162402,5,2,1:0:0:0:
51,9,167652,6,0,P|40:35|42:72,1,48.1499985305787,2|2,0:0|0:0,0:0:0:0:
7,91,168027,2,0,P|25:111|60:125,1,48.1499985305787,2|2,0:0|0:0,0:0:0:0:
65,164,168402,6,0,B|108:142|108:142|158:163,1,96.2999970611573,6|0,1:0|0:0,0:0:0:0:
224,224,169152,2,0,P|232:199|251:163,2,48.1499985305787,2|2|2,1:0|0:0|0:0,0:0:0:0:
235,275,169714,1,2,0:0:0:0:
235,275,169902,2,0,P|266:306|333:298,1,96.2999970611573,2|0,1:0|0:0,0:0:0:0:
402,351,170652,2,0,P|418:333|423:299,1,48.1499985305787,2|2,1:0|0:0,0:0:0:0:
447,267,171027,2,0,P|437:244|408:225,1,48.1499985305787,2|2,0:0|0:0,0:0:0:0:
373,214,171402,6,0,P|381:166|388:100,1,96.2999970611573,2|0,1:0|0:0,0:0:0:0:
290,122,172152,2,0,P|287:145|283:169,2,48.1499985305787,2|2|2,1:0|0:0|0:0,0:0:0:0:
262,82,172714,1,2,0:0:0:0:
262,82,172902,2,0,P|211:88|166:47,1,96.2999970611573,2|0,1:0|0:0,0:0:0:0:
111,135,173652,2,0,P|133:151|144:186,1,48.1499985305787,2|2,1:0|0:0,0:0:0:0:
177,202,174027,2,0,P|171:228|144:253,1,48.1499985305787,2|2,0:0|3:0,0:0:0:0:
126,280,174402,6,0,B|178:277|170:306|219:307,1,96.2999970611573,2|0,1:0|0:0,0:0:0:0:
310,288,175152,2,0,P|307:268|284:243,2,48.1499985305787,2|2|2,1:0|0:0|0:0,0:0:0:0:
348,325,175714,1,2,0:0:0:0:
348,325,175902,2,0,P|393:312|404:257,1,96.2999970611573,2|0,1:0|0:0,0:0:0:0:
498,217,176652,2,0,P|488:198|476:163,1,48.1499985305787,2|2,1:0|0:0,0:0:0:0:
442,141,177027,2,0,P|450:118|461:96,1,48.1499985305787,2|2,0:0|0:0,0:0:0:0:
494,61,177402,6,0,P|444:45|394:13,1,96.2999970611573,2|0,1:0|0:0,0:0:0:0:
321,67,178152,2,0,P|313:90|302:112,2,48.1499985305787,2|2|2,1:0|0:0|0:0,0:0:0:0:
309,20,178714,1,2,0:0:0:0:
309,20,178902,1,2,0:0:0:0:
261,226,179652,6,0,P|244:209|200:200,1,48.1499985305787,8|8,0:0|0:0,0:0:0:0:
203,167,180027,1,10,0:0:0:0:
203,167,180214,1,10,0:0:0:0:
203,167,180402,6,0,P|150:168|127:218,1,107,6|2,1:0|0:0,0:0:0:0:
45,280,181152,1,10,0:0:0:0:
45,280,181339,2,0,B|82:317|82:317|141:314,1,107,2|0,0:0|0:0,0:0:0:0:
179,282,181902,1,2,0:0:0:0:
254,357,182277,2,0,P|284:339|312:341,1,53.5,2|0,0:0|1:0,0:0:0:0:
355,362,182652,1,10,0:0:0:0:
355,362,182839,2,0,P|343:325|330:254,1,107,2|0,0:0|0:0,0:0:0:0:
346,207,183402,5,6,1:0:0:0:
239,208,183777,2,0,P|243:181|251:156,1,53.5,2|0,0:0|0:0,0:0:0:0:
296,125,184152,1,10,0:0:0:0:
296,125,184339,2,0,P|232:117|207:64,1,107,2|0,0:0|0:0,0:0:0:0:
219,32,184902,1,2,0:0:0:0:
321,1,185277,2,0,P|347:5|372:29,1,53.5,2|0,0:0|0:0,0:0:0:0:
369,79,185652,1,10,0:0:0:0:
369,79,185839,2,0,P|421:93|475:115,1,107,2|8,0:0|0:0,0:0:0:0:
512,78,186402,6,0,B|484:121|484:121|494:179,1,107,6|2,1:0|0:0,0:0:0:0:
467,284,187152,1,10,0:0:0:0:
467,284,187339,2,0,P|417:264|365:250,1,107,2|0,0:0|0:0,0:0:0:0:
338,204,187902,1,2,0:0:0:0:
276,291,188277,2,0,P|249:307|216:304,1,53.5,2|0,0:0|1:0,0:0:0:0:
178,303,188652,1,10,0:0:0:0:
178,303,188839,2,0,P|133:254|148:212,1,107,2|0,0:0|0:0,0:0:0:0:
184,188,189402,5,6,1:0:0:0:
89,137,189777,2,0,P|95:113|100:77,1,53.5,2|0,0:0|3:0,0:0:0:0:
83,38,190152,1,10,0:0:0:0:
83,38,190339,2,0,P|133:50|209:61,1,107,2|0,3:0|3:0,0:0:0:0:
241,47,190902,1,2,0:0:0:0:
252,153,191277,2,0,P|280:145|324:139,1,53.5,2|0,1:0|1:0,0:0:0:0:
354,161,191652,5,10,0:0:0:0:
354,161,191839,2,0,B|371:184|371:184|371:222,1,53.5,2|2,1:0|1:0,0:0:0:0:
339,252,192214,1,2,1:0:0:0:
