osu file format v14

[General]
AudioFilename: audio.mp3
AudioLeadIn: 0
PreviewTime: 89809
Countdown: 0
SampleSet: Soft
StackLeniency: 0.5
Mode: 0
LetterboxInBreaks: 0
WidescreenStoryboard: 0

[Editor]
Bookmarks: 1009,13809,26609,39409,52209,65009,77809,90609,103409,129009,141809,161009
DistanceSpacing: 1.6
BeatDivisor: 4
GridSize: 32
TimelineZoom: 5.199998

[Metadata]
Title:THE BADDEST feat. (G)I-DLE, Bea Miller, Wolftyla
TitleUnicode:THE BADDEST feat. (G)I-DLE, Bea Miller, Wolftyla
Artist:K/DA
ArtistUnicode:K/DA
Creator:Sylas
Version:AYYNNA'S EXTRA
Source:League of Legends
Tags:eiri- ayyri trynna nelliel thekoala saltylucario saltking salty jamesjan3 lol riot games music team kda reunion pre-release true damage popstars pop/stars worlds 2020 evelynn kai'sa kaisa ahri akali english korean pop kpop k-pop hip-hop hiphop jeon soyeon so-yeon 전소연 cho miyeon mi-yeon 조미연 beatrice annika 울프타일라 bekuh boom (여자)아이들 rap video game electronic
BeatmapID:2590940
BeatmapSetID:1246543

[Difficulty]
HPDrainRate:5
CircleSize:4
OverallDifficulty:8.5
ApproachRate:9
SliderMultiplier:2
SliderTickRate:1

[Events]
//Background and Video events
0,0,"Ayynna.jpg",0,0
//Break Periods
//Storyboard Layer 0 (Background)
//Storyboard Layer 1 (Fail)
//Storyboard Layer 2 (Pass)
//Storyboard Layer 3 (Foreground)
//Storyboard Layer 4 (Overlay)
//Storyboard Sound Samples

[TimingPoints]
1009,400,4,2,2,40,1,0
12409,-66.6666666666667,4,2,2,40,0,0
12609,-50,4,2,2,40,0,0
12809,-40,4,2,2,40,0,0
13409,-40,4,2,1,40,0,0
13809,-58.8235294117647,4,2,1,60,0,1
14609,-66.6666666666667,4,2,1,60,0,1
16209,-58.8235294117647,4,2,1,60,0,1
16409,-66.6666666666667,4,2,1,60,0,1
16609,-58.8235294117647,4,2,1,60,0,1
16809,-66.6666666666667,4,2,1,60,0,1
17009,-58.8235294117647,4,2,1,60,0,1
17809,-66.6666666666667,4,2,1,60,0,1
18209,-58.8235294117647,4,2,1,60,0,1
19809,-50,4,2,1,60,0,1
20209,-66.6666666666667,4,2,1,60,0,1
23009,-52.6315789473684,4,2,1,60,0,1
23409,-45.4545454545455,4,2,1,60,0,1
23809,-66.6666666666667,4,2,1,60,0,1
24209,-58.8235294117647,4,2,1,60,0,1
25409,-66.6666666666667,4,2,1,60,0,1
25809,-66.6666666666667,4,2,1,60,0,0
26609,-57.1428571428571,4,2,1,65,0,1
27409,-66.6666666666667,4,2,1,65,0,1
29009,-58.8235294117647,4,2,1,65,0,1
29809,-57.1428571428571,4,2,1,65,0,1
33009,-66.6666666666667,4,2,1,65,0,1
35809,-52.6315789473684,4,2,1,65,0,1
36209,-45.4545454545455,4,2,1,65,0,1
36609,-66.6666666666667,4,2,1,65,0,1
37009,-57.1428571428571,4,2,1,65,0,1
37809,-66.6666666666667,4,2,1,65,0,1
38609,-57.1428571428571,4,2,1,60,0,1
39409,-80,4,2,2,60,0,0
45809,-66.6666666666667,4,2,2,60,0,0
46609,-80,4,2,2,60,0,0
50609,-111.111111111111,4,2,2,60,0,0
51809,-58.8235294117647,4,2,2,60,0,0
52209,-50,4,2,1,70,0,0
52609,-66.6666666666667,4,2,1,70,0,0
64609,-57.1428571428571,4,2,1,70,0,0
65009,-50,4,2,1,70,0,0
65409,-66.6666666666667,4,2,1,70,0,0
65809,-57.1428571428571,4,2,1,70,0,0
66209,-51.2820512820513,4,2,1,70,0,0
66609,-57.1428571428571,4,2,1,70,0,0
67809,-66.6666666666667,4,2,1,70,0,0
68209,-51.2820512820513,4,2,1,70,0,0
69009,-57.1428571428571,4,2,1,70,0,0
69409,-66.6666666666667,4,2,1,70,0,0
70609,-52.6315789473684,4,2,1,70,0,0
71009,-57.1428571428571,4,2,1,70,0,0
72609,-51.2820512820513,4,2,1,70,0,0
73009,-66.6666666666667,4,2,1,70,0,0
73809,-51.2820512820513,4,2,1,70,0,0
74209,-66.6666666666667,4,2,1,70,0,0
74609,-57.1428571428571,4,2,1,70,0,0
75809,-51.2820512820513,4,2,1,70,0,0
76209,-66.6666666666667,4,2,1,70,0,0
77009,-57.1428571428571,4,2,1,70,0,0
77809,-100,4,2,1,50,0,0
90209,-50,4,2,1,50,0,0
90409,-40,4,2,1,50,0,0
90609,-40,4,2,1,80,0,1
91009,-58.8235294117647,4,2,1,80,0,1
93009,-58.8235294117647,4,2,1,80,0,1
93209,-66.6666666666667,4,2,1,80,0,1
93409,-58.8235294117647,4,2,1,80,0,1
93609,-66.6666666666667,4,2,1,80,0,1
93809,-58.8235294117647,4,2,1,80,0,1
94609,-66.6666666666667,4,2,1,80,0,1
95009,-58.8235294117647,4,2,1,80,0,1
96609,-50,4,2,1,80,0,1
97009,-66.6666666666667,4,2,1,80,0,1
99809,-52.6315789473684,4,2,1,80,0,1
100209,-45.4545454545455,4,2,1,80,0,1
100609,-66.6666666666667,4,2,1,80,0,1
101009,-58.8235294117647,4,2,1,80,0,1
102209,-66.6666666666667,4,2,1,80,0,1
102609,-66.6666666666667,4,2,1,80,0,0
103409,-57.1428571428571,4,2,1,80,0,1
104209,-66.6666666666667,4,2,1,80,0,1
105809,-58.8235294117647,4,2,1,80,0,1
106609,-57.1428571428571,4,2,1,80,0,1
109809,-66.6666666666667,4,2,1,80,0,1
112609,-52.6315789473684,4,2,1,80,0,1
113009,-45.4545454545455,4,2,1,80,0,1
113409,-66.6666666666667,4,2,1,80,0,1
113809,-57.1428571428571,4,2,1,80,0,1
114609,-66.6666666666667,4,2,1,80,0,1
115409,-57.1428571428571,4,2,1,80,0,1
116209,-200,4,2,1,50,0,0
116342,-200,4,2,2,50,0,0
128209,-400,4,2,2,50,0,0
129009,-100,4,2,2,50,0,0
129809,-100,4,2,1,50,0,0
130209,-76.9230769230769,4,2,1,65,0,0
131409,-58.8235294117647,4,2,1,65,0,0
131809,-76.9230769230769,4,2,1,65,0,0
141809,-100,4,2,1,50,0,0
154609,-133.333333333333,4,2,1,50,0,0
155009,-133.333333333333,4,2,1,40,0,0

[Colours]
Combo1 : 135,222,189
Combo2 : 243,217,137
Combo3 : 217,151,244
Combo4 : 107,204,241

[HitObjects]
448,96,409,5,2,0:0:0:0:
447,102,476,1,2,0:0:0:0:
446,108,542,1,2,0:0:0:0:
445,114,609,6,2,L|450:154,1,25,10|0,1:2|0:0,0:1:0:0:
441,129,709,6,2,L|446:169,1,25,10|0,1:2|0:0,0:1:0:0:
426,159,809,6,2,L|421:199,1,25,10|0,1:2|0:0,0:1:0:0:
430,174,909,6,2,L|425:214,1,25,10|0,1:2|0:0,0:1:0:0:
480,288,1009,5,14,1:2:0:0:
384,352,1409,1,10,0:2:0:0:
224,320,1609,1,10,0:2:0:0:
224,320,1709,1,10,0:2:0:0:
224,320,1809,1,10,0:2:0:0:
32,352,2209,5,10,1:2:0:0:
96,288,2409,1,2,0:2:0:0:
256,352,2609,1,10,0:2:0:0:
256,192,2809,1,10,0:2:0:0:
256,192,2909,1,10,0:2:0:0:
256,192,3009,1,10,0:2:0:0:
320,256,3209,1,0,0:0:0:0:
128,288,3409,5,10,0:2:0:0:
160,64,3609,1,10,1:2:0:0:
164,71,3709,1,2,0:0:0:0:
161,81,3809,6,2,L|143:77,6,12.5,10|0|0|0|0|0|0,0:0|0:0|0:0|0:0|0:0|0:0|0:0,0:1:0:0:
214,129,4009,2,2,L|232:125,6,12.5,2|0|0|0|0|0|0,0:0|0:0|0:0|0:0|0:0|0:0|0:0,0:1:0:0:
161,177,4209,5,10,0:2:0:0:
384,128,4609,1,10,0:2:0:0:
352,224,4809,1,10,0:2:0:0:
352,224,4909,1,10,0:2:0:0:
352,224,5009,1,10,0:2:0:0:
64,160,5409,5,10,1:2:0:0:
192,128,5609,1,2,0:2:0:0:
160,288,5809,1,10,0:2:0:0:
160,288,5909,1,2,0:0:0:0:
160,288,6009,1,10,0:2:0:0:
140,64,6209,1,10,1:2:0:0:
96,320,6409,1,2,0:0:0:0:
96,320,6509,1,2,0:0:0:0:
96,320,6609,6,2,L|60:315,3,25,10|8|8|8,0:0|0:0|0:0|0:0,0:1:0:0:
151,364,6809,2,2,L|187:359,2,25,10|8|8,0:0|0:0|0:0,0:1:0:0:
94,238,7009,5,8,1:2:0:0:
101,223,7109,1,8,1:2:0:0:
64,164,7209,5,8,1:2:0:0:
57,149,7309,1,8,1:2:0:0:
94,90,7409,5,10,1:2:0:0:
320,128,7809,1,10,0:2:0:0:
224,192,8009,1,10,0:2:0:0:
224,192,8109,1,10,0:2:0:0:
224,192,8209,1,10,0:2:0:0:
128,0,8609,5,10,1:2:0:0:
112,96,8809,1,2,0:2:0:0:
320,128,9009,1,10,0:2:0:0:
304,224,9209,1,10,0:2:0:0:
304,224,9309,1,10,0:2:0:0:
304,224,9409,1,10,0:2:0:0:
192,160,9609,1,0,0:0:0:0:
160,352,9809,5,10,0:2:0:0:
416,320,10009,1,8,1:2:0:0:
412,313,10109,1,0,0:0:0:0:
415,303,10209,6,2,L|433:307,6,12.5,10|0|0|0|0|0|0,0:0|0:0|0:0|0:0|0:0|0:0|0:0,0:1:0:0:
362,255,10409,2,2,L|344:259,6,12.5,2|0|0|0|0|0|0,0:0|0:0|0:0|0:0|0:0|0:0|0:0,0:1:0:0:
415,207,10609,5,10,0:2:0:0:
192,160,11009,1,10,0:2:0:0:
320,128,11209,1,8,0:2:0:0:
320,128,11309,1,8,0:2:0:0:
320,128,11409,1,10,0:2:0:0:
256,352,11809,5,10,1:2:0:0:
224,192,12009,1,2,0:2:0:0:
196,266,12209,1,10,0:2:0:0:
196,266,12409,6,2,P|240:260|297:253,1,75.0000028610231,2|0,0:2|0:0,0:1:0:0:
366,193,12609,6,2,P|322:187|250:179,1,100,2|0,0:2|0:0,0:1:0:0:
125,112,12809,6,2,P|169:106|268:96,1,125,2|0,0:2|0:0,0:1:0:0:
450,24,13009,5,8,1:2:0:0:
408,11,13109,1,8,1:2:0:0:
395,53,13209,1,8,1:2:0:0:
437,66,13309,1,8,1:2:0:0:
423,39,13409,5,8,1:2:0:0:
452,330,13609,1,8,1:2:0:0:
230,121,13809,6,0,B|379:114|292:233|441:229,1,255.000004863739,6|0,1:2|0:0,0:0:0:0:
466,212,14209,1,0,0:0:0:0:
288,383,14409,1,0,1:2:0:0:
264,351,14509,1,0,1:2:0:0:
282,315,14609,6,0,P|319:315|355:334,1,75.0000028610231,10|0,0:2|0:0,0:0:0:0:
447,355,14809,2,0,P|410:362|374:353,1,75.0000028610231,2|0,0:2|0:0,0:0:0:0:
266,220,15009,2,0,P|230:232|203:257,1,75.0000028610231,2|0,1:2|0:0,0:0:0:0:
131,321,15209,2,0,P|166:308|193:283,1,75.0000028610231,2|0,0:2|0:0,0:0:0:0:
329,133,15409,2,0,L|338:52,1,75.0000028610231,2|0,0:2|0:0,0:0:0:0:
270,0,15609,5,2,1:2:0:0:
228,11,15709,1,2,1:2:0:0:
221,53,15809,1,2,1:2:0:0:
442,43,16009,1,2,0:0:0:0:
232,83,16209,6,0,L|147:87,1,85.0000016212464,10|0,0:2|0:0,0:0:0:0:
55,52,16409,2,0,B|39:88|39:88|52:120,1,75.0000028610231,2|0,1:2|1:2,0:0:0:0:
21,223,16609,2,0,L|124:218,1,85.0000016212464,2|0,1:2|0:0,0:0:0:0:
198,254,16809,2,0,B|208:219|208:219|196:182,1,75.0000028610231,2|0,0:2|0:0,0:0:0:0:
96,331,17009,6,0,B|165:313|198:254|198:254|230:314|292:327,1,255.000004863739,2|0,1:2|0:0,0:0:0:0:
312,249,17409,1,2,0:2:0:0:
496,346,17609,1,2,1:2:0:0:
454,335,17709,1,0,1:2:0:0:
485,308,17809,6,0,L|498:234,1,75.0000028610231,10|0,0:2|0:0,0:0:0:0:
308,81,18009,2,0,L|322:162,1,75.0000028610231,0|0,1:2|0:0,0:0:0:0:
512,121,18209,2,0,B|365:128|454:243|311:249,1,255.000004863739,2|0,1:2|0:0,0:0:0:0:
124,179,18609,6,0,L|132:229,1,42.5000008106232,2|2,0:2|0:0,0:0:0:0:
144,161,18709,2,0,L|152:211,1,42.5000008106232,2|2,0:0|0:0,0:0:0:0:
208,254,18809,5,0,1:2:0:0:
141,246,18909,1,0,1:2:0:0:
73,239,19009,1,0,1:2:0:0:
253,45,19309,5,0,1:2:0:0:
182,14,19409,2,0,B|167:53|167:53|187:91,1,85.0000016212464,10|0,1:2|0:0,0:0:0:0:
326,195,19609,2,0,B|346:156|346:156|331:117,1,85.0000016212464,2|0,1:2|1:2,0:0:0:0:
480,18,19809,6,0,P|442:51|421:95,1,100,2|0,1:2|0:0,0:0:0:0:
82,117,20009,2,0,P|119:149|140:193,1,100,2|0,1:2|0:0,0:0:0:0:
206,361,20209,6,0,P|170:349|134:357,1,75.0000028610231,6|0,1:2|0:0,0:0:0:0:
216,327,20409,6,0,P|208:290|183:263,1,75.0000028610231,2|0,0:0|0:0,0:0:0:0:
255,330,20609,6,0,P|282:305|293:269,1,75.0000028610231,2|0,0:0|0:0,0:0:0:0:
273,364,20809,5,2,1:2:0:0:
357,351,20909,1,0,1:2:0:0:
440,331,21009,6,0,L|517:351,1,75.0000028610231,10|0,0:2|0:0,0:0:0:0:
380,258,21209,2,0,L|452:239,1,75.0000028610231,2|0,0:0|0:0,0:0:0:0:
511,158,21409,6,0,B|430:148|464:100|380:93,1,150.000005722046,2|2,1:2|0:2,0:0:0:0:
224,80,21709,1,2,0:0:0:0:
273,18,21809,6,0,L|281:200,1,150.000005722046,2|0,0:2|1:2,0:0:0:0:
284,246,22109,1,0,1:2:0:0:
286,266,22209,1,0,1:2:0:0:
368,194,22409,1,2,0:2:0:0:
196,254,22609,6,0,L|109:232,1,75.0000028610231,10|0,0:2|0:0,0:0:0:0:
196,284,22809,6,0,L|109:306,1,75.0000028610231,2|0,1:2|1:2,0:0:0:0:
325,335,23009,6,2,L|338:373,3,31.6666658210755,2|0|0|0,1:2|0:0|0:0|0:0,0:1:0:0:
378,224,23209,2,2,L|367:191,3,31.6666658210755,2|0|0|0,0:2|0:0|0:0|0:0,0:1:0:0:
512,292,23409,6,0,B|478:287|447:294|447:294|464:222|464:222|455:213|455:213|434:147,1,220.000006713867,6|0,1:2|0:0,0:0:0:0:
406,66,23709,1,0,0:0:0:0:
500,52,23809,2,0,L|426:38,1,75.0000028610231,2|0,0:2|0:0,0:0:0:0:
234,23,24009,1,2,1:2:0:0:
267,44,24109,1,0,1:2:0:0:
283,80,24209,6,0,L|268:163,1,85.0000016212464,10|0,0:2|0:0,0:0:0:0:
154,299,24409,2,0,L|139:215,1,85.0000016212464,2|0,0:0|0:0,0:0:0:0:
348,217,24609,2,0,P|317:245|276:253,1,85.0000016212464,2|0,1:2|0:0,0:0:0:0:
68,161,24809,2,0,P|98:132|139:124,1,85.0000016212464,2|0,0:0|0:0,0:0:0:0:
278,339,25009,5,6,1:2:0:0:
320,336,25109,1,0,1:2:0:0:
361,325,25209,1,0,1:2:0:0:
395,299,25309,1,0,0:0:0:0:
419,264,25409,2,0,P|463:272|443:360,1,150.000005722046,4|2,1:2|1:2,0:0:0:0:
348,217,25709,1,0,1:2:0:0:
361,191,25809,6,0,B|364:165|364:165|361:144|361:144|364:117,1,75.0000028610231,14|0,0:2|1:2,0:0:0:0:
216,101,26009,2,0,B|212:75|212:75|216:54|216:54|213:27,1,75.0000028610231,2|0,1:2|1:2,0:0:0:0:
343,31,26209,5,14,0:2:0:0:
369,40,26309,1,0,1:2:0:0:
443,19,26409,5,2,1:2:0:0:
469,28,26509,1,0,1:2:0:0:
432,112,26609,6,0,B|239:149|273:-36|63:41,1,350.00000333786,6|0,1:2|0:0,0:0:0:0:
128,288,27209,1,0,1:2:0:0:
147,262,27309,1,0,1:2:0:0:
138,226,27409,6,0,L|125:149,1,75.0000028610231,10|0,0:2|0:0,0:0:0:0:
157,54,27609,2,0,L|144:131,1,75.0000028610231,2|0,0:0|0:0,0:0:0:0:
374,226,27809,6,0,L|387:149,1,75.0000028610231,2|0,1:2|0:0,0:0:0:0:
355,54,28009,2,0,L|368:131,1,75.0000028610231,2|0,0:0|0:0,0:0:0:0:
256,288,28209,6,0,L|256:384,1,75.0000028610231,2|0,0:2|0:0,0:0:0:0:
98,244,28409,5,2,1:2:0:0:
56,255,28509,1,2,1:2:0:0:
49,297,28609,1,2,1:2:0:0:
288,256,28809,1,2,0:0:0:0:
31,223,29009,6,0,L|35:138,1,85.0000016212464,10|0,0:2|0:0,0:0:0:0:
0,46,29209,2,0,B|41:30|41:30|78:49,1,85.0000016212464,2|0,1:2|1:2,0:0:0:0:
171,12,29409,2,0,L|166:115,1,85.0000016212464,2|0,1:2|0:0,0:0:0:0:
202,189,29609,2,0,B|161:200|161:200|122:182,1,85.0000016212464,2|0,0:0|0:0,0:0:0:0:
285,97,29809,6,0,P|251:160|255:278,1,175.00000166893,2|0,1:2|1:2,0:0:0:0:
445,356,30209,2,0,P|437:315|377:305,1,87.500000834465,2|0,0:2|0:0,0:0:0:0:
263,361,30409,2,0,L|353:358,1,87.500000834465,2|0,1:2|1:2,0:0:0:0:
109,369,30609,1,10,1:2:0:0:
260,272,30809,1,2,1:2:0:0:
168,241,31009,1,2,1:2:0:0:
277,172,31209,1,2,0:2:0:0:
305,342,31409,5,2,0:2:0:0:
305,342,31609,2,0,L|287:210,1,87.500000834465,2|2,1:2|1:2,0:0:0:0:
263,72,31809,1,2,1:2:0:0:
269,83,31909,2,0,B|322:52|322:52|453:77,1,175.00000166893,2|0,0:0|1:2,0:0:0:0:
337,130,32209,1,10,0:2:0:0:
128,32,32409,1,2,1:2:0:0:
134,63,32509,1,0,1:2:0:0:
149,142,32609,2,0,P|96:65|15:124,1,175.00000166893,2|2,1:2|1:2,0:0:0:0:
67,280,33009,6,0,L|87:190,1,75.0000028610231,6|0,1:2|0:0,0:0:0:0:
152,272,33209,6,0,L|231:223,1,75.0000028610231,2|0,0:0|0:0,0:0:0:0:
217,324,33409,6,0,L|307:345,1,75.0000028610231,2|0,0:0|0:0,0:0:0:0:
332,210,33609,5,2,1:2:0:0:
404,192,33709,1,0,1:2:0:0:
476,174,33809,6,0,L|497:50,1,75.0000028610231,10|0,0:2|0:0,0:0:0:0:
381,15,34009,2,0,L|402:139,1,75.0000028610231,2|0,0:0|0:0,0:0:0:0:
255,250,34209,6,0,P|323:237|445:227,1,150.000005722046,2|2,1:2|0:2,0:0:0:0:
480,288,34509,1,2,0:0:0:0:
483,278,34609,6,0,L|461:77,1,150.000005722046,2|0,0:2|1:2,0:0:0:0:
453,34,34909,1,0,1:2:0:0:
451,20,35009,1,0,1:2:0:0:
257,56,35209,1,2,0:2:0:0:
299,258,35409,6,0,L|312:149,1,75.0000028610231,10|0,0:2|0:0,0:0:0:0:
284,283,35609,6,0,L|297:392,1,75.0000028610231,2|0,1:2|1:2,0:0:0:0:
137,320,35809,6,2,L|92:309,3,31.6666658210755,0|0|0|0,1:2|0:0|0:0|0:0,0:1:0:0:
229,275,36009,2,2,L|274:264,3,31.6666658210755,2|0|0|0,0:2|0:0|0:0|0:0,0:1:0:0:
160,197,36209,6,0,B|139:129|139:129|165:100|165:100|132:-14,1,220.000006713867,6|0,1:2|0:0,0:0:0:0:
32,96,36509,1,0,0:0:0:0:
69,85,36609,2,0,L|196:50,1,75.0000028610231,2|0,0:2|0:0,0:0:0:0:
97,240,36809,2,0,L|-30:205,1,75.0000028610231,2|0,1:2|1:2,0:0:0:0:
257,162,37009,6,0,L|242:359,1,175.00000166893,10|0,0:2|0:0,0:0:0:0:
374,307,37309,1,0,0:0:0:0:
370,291,37409,2,0,L|347:206,1,87.500000834465,2|0,1:2|0:0,0:0:0:0:
235,127,37609,2,0,L|256:42,1,87.500000834465,2|0,0:0|0:0,0:0:0:0:
480,8,37809,5,6,0:2:0:0:
414,82,38009,2,0,L|329:68,2,75.0000028610231,2|2|14,1:2|1:2|0:2,0:0:0:0:
496,192,38409,1,0,1:2:0:0:
496,192,38509,1,0,1:2:0:0:
496,192,38609,6,0,P|440:257|432:331,1,87.500000834465,14|0,0:2|0:0,0:0:0:0:
178,266,38809,2,0,P|256:301|294:364,1,87.500000834465,10|0,0:2|0:0,0:0:0:0:
420,358,39009,6,0,P|476:293|484:219,1,87.500000834465,6|0,1:2|0:0,0:0:0:0:
317,384,39209,2,0,P|238:348|200:285,1,87.500000834465,10|0,1:2|0:0,0:0:0:0:
312,107,39409,5,14,0:2:0:0:
347,255,39609,1,0,0:0:0:0:
401,112,39809,2,0,P|400:80|386:53,1,62.5,10|0,0:2|0:0,0:0:0:0:
219,94,40009,2,0,P|219:125|233:152,1,62.5
333,193,40209,2,0,L|346:254,1,62.5,10|0,0:2|0:0,0:0:0:0:
312,107,40409,1,0,0:0:0:0:
152,196,40609,6,0,P|102:159|41:162,1,125,10|0,0:2|0:0,0:0:0:0:
76,250,41009,1,10,0:2:0:0:
125,79,41209,1,0,0:0:0:0:
70,278,41409,6,0,L|76:354,1,62.5,10|0,0:2|0:0,0:0:0:0:
152,276,41609,2,0,L|158:352,1,62.5
234,274,41809,1,10,0:2:0:0:
64,363,42009,1,0,0:0:0:0:
294,326,42209,6,0,P|312:300|316:270,1,62.5,10|0,0:2|0:0,0:0:0:0:
256,218,42409,2,0,P|237:243|233:273,1,62.5
403,260,42609,1,10,0:2:0:0:
236,131,42809,1,0,0:0:0:0:
444,97,43009,5,10,0:2:0:0:
345,156,43209,1,0,0:0:0:0:
512,214,43409,2,0,L|504:143,1,62.5,10|0,0:2|0:0,0:0:0:0:
444,97,43609,2,0,L|436:26,1,62.5
363,0,43809,5,10,0:2:0:0:
345,156,44009,1,0,0:0:0:0:
214,66,44209,1,10,0:2:0:0:
346,26,44409,1,0,0:0:0:0:
319,173,44609,6,0,L|323:250,1,62.5,10|0,0:2|0:0,0:0:0:0:
239,217,44809,2,0,L|243:294,1,62.5
326,329,45009,2,2,L|334:363,4,31.25,10|0|0|0|0,0:2|0:0|0:0|0:0|0:0,0:1:0:0:
249,366,45309,1,0,0:0:0:0:
249,366,45409,6,0,L|172:355,1,62.5,10|0,0:2|0:0,0:0:0:0:
122,297,45609,2,0,L|60:305,1,62.5
0,377,45809,6,0,B|50:364|50:364|29:241|29:241|78:228,1,225.000008583069,10|0,0:2|0:0,0:0:0:0:
126,167,46209,1,10,0:2:0:0:
30,64,46409,1,10,0:2:0:0:
61,35,46509,1,8,0:2:0:0:
100,39,46609,2,0,B|168:49|152:4|218:14,1,125,10|0,0:2|0:0,0:0:0:0:
351,91,47009,1,10,0:2:0:0:
212,105,47209,1,2,0:0:0:0:
320,2,47409,6,0,P|380:-1|426:39,1,125,10|10,0:2|0:2,0:0:0:0:
508,26,47709,1,10,0:2:0:0:
508,26,47809,2,0,L|486:170,1,125,10|2,0:2|0:0,0:0:0:0:
408,177,48209,1,8,0:2:0:0:
505,324,48409,2,0,L|513:260,1,62.5,8|10,0:2|0:2,0:0:0:0:
429,362,48609,1,10,0:2:0:0:
260,287,48809,1,2,0:0:0:0:
364,292,49009,6,0,B|249:274|305:351|192:341,1,187.5,10|0,0:2|0:0,0:0:0:0:
116,371,49409,2,0,P|109:340|118:308,1,62.5,10|0,0:2|0:0,0:0:0:0:
204,202,49609,2,0,P|210:232|201:264,1,62.5,2|0,0:0|0:0,0:0:0:0:
36,227,49809,2,0,P|111:200|105:279,1,187.5,10|0,0:2|0:0,0:0:0:0:
97,162,50209,1,10,0:2:0:0:
28,310,50409,1,2,0:0:0:0:
97,162,50609,6,0,B|94:137|94:137|72:107|72:107|45:98,1,89.9999972534181,10|0,0:2|0:0,0:0:0:0:
178,160,50909,1,2,0:0:0:0:
178,160,51009,2,0,B|181:135|181:135|203:105|203:105|229:96,1,89.9999972534181,2|2,0:0|0:0,0:0:0:0:
136,34,51409,2,2,L|136:56,4,22.4999993133545,8|8|8|8|8,0:2|0:2|0:2|0:2|0:2,0:1:0:0:
227,19,51709,1,8,0:2:0:0:
227,19,51809,6,0,B|325:17|279:94|390:98,1,170.000003242493,8|0,0:2|0:0,0:0:0:0:
498,38,52209,6,0,B|384:63|385:175|385:175|517:235|471:376,1,400,6|2,1:2|0:2,0:0:0:0:
281,372,52809,2,0,L|292:271,1,75.0000028610231,2|0,0:2|0:0,0:0:0:0:
183,171,53009,6,0,L|208:266,1,75.0000028610231,10|0,0:2|0:0,0:0:0:0:
338,209,53209,2,0,L|313:114,1,75.0000028610231,2|0,0:2|0:0,0:0:0:0:
91,77,53409,2,0,P|174:120|336:60,1,225.000008583069,2|0,1:2|0:0,0:0:0:0:
375,34,53809,5,2,0:2:0:0:
480,128,54009,1,2,1:2:0:0:
480,128,54109,1,0,0:0:0:0:
480,128,54209,6,0,L|463:224,1,75.0000028610231,2|0,1:2|0:0,0:0:0:0:
328,179,54409,2,0,L|344:82,1,75.0000028610231,2|0,0:2|0:0,0:0:0:0:
450,305,54609,1,10,0:2:0:0:
240,257,54809,1,0,0:0:0:0:
240,257,54909,1,0,0:0:0:0:
240,257,55009,6,0,P|264:298|262:357,1,75.0000028610231,2|0,0:2|0:0,0:0:0:0:
146,337,55209,2,0,P|105:361|46:359,1,75.0000028610231,2|0,1:2|0:0,0:0:0:0:
11,177,55409,6,0,P|22:277|120:238,1,225.000008583069,2|0,1:2|0:0,0:0:0:0:
90,175,55809,1,2,0:2:0:0:
312,144,56009,2,0,L|296:47,1,75.0000028610231,2|0,0:2|0:0,0:0:0:0:
256,208,56209,6,0,L|144:185,1,75.0000028610231,10|0,0:2|0:0,0:0:0:0:
396,131,56409,2,0,L|508:108,1,75.0000028610231,2|0,0:2|0:0,0:0:0:0:
473,311,56609,2,0,P|428:267|331:267,1,150.000005722046,2|0,1:2|0:0,0:0:0:0:
198,341,57009,6,0,L|310:318,1,75.0000028610231,2|0,0:2|0:0,0:0:0:0:
483,286,57209,1,2,1:2:0:0:
238,116,57409,6,0,L|255:212,1,75.0000028610231,2|0,1:2|0:0,0:0:0:0:
390,167,57609,2,0,L|374:70,1,75.0000028610231,2|0,0:2|0:0,0:0:0:0:
268,293,57809,1,10,0:2:0:0:
32,256,58009,1,0,0:0:0:0:
32,256,58109,1,0,0:0:0:0:
32,256,58209,6,0,L|48:159,1,75.0000028610231,2|0,1:2|0:0,0:0:0:0:
30,21,58409,2,0,L|46:118,1,75.0000028610231,10|0,1:2|0:0,0:0:0:0:
97,332,58609,5,2,1:2:0:0:
226,304,58809,1,0,0:0:0:0:
355,276,59009,2,0,L|343:378,1,75.0000028610231,2|0,0:2|0:0,0:0:0:0:
302,157,59209,1,2,0:2:0:0:
302,157,59309,1,0,0:0:0:0:
302,157,59409,6,0,P|338:129|406:122,1,75.0000028610231,10|0,0:2|0:0,0:0:0:0:
215,101,59609,2,0,P|187:65|180:-3,1,75.0000028610231,2|0,0:2|0:0,0:0:0:0:
38,237,59809,2,0,P|148:222|278:223,1,225.000008583069,2|0,1:2|0:0,0:0:0:0:
364,237,60209,5,2,0:2:0:0:
210,324,60409,1,2,1:2:0:0:
210,324,60509,1,0,0:0:0:0:
210,324,60609,6,0,P|179:265|182:230,1,75.0000028610231,2|0,1:2|0:0,0:0:0:0:
333,258,60809,2,0,P|324:294|302:324,1,75.0000028610231,2|0,0:2|0:0,0:0:0:0:
256,96,61009,2,0,L|256:0,1,75.0000028610231,10|0,0:2|0:0,0:0:0:0:
256,192,61209,1,0,0:0:0:0:
416,128,61409,1,2,0:2:0:0:
172,58,61609,2,2,L|125:67,3,37.5000014305115,2|0|0|0,1:2|0:0|0:0|0:0,0:1:0:0:
212,124,61809,6,0,L|59:90,1,150.000005722046,2|0,1:2|0:0,0:0:0:0:
256,21,62209,1,2,0:2:0:0:
346,198,62409,1,2,0:2:0:0:
346,198,62509,1,0,0:0:0:0:
346,198,62609,6,0,L|354:123,1,75.0000028610231,10|0,0:2|0:0,0:0:0:0:
491,137,62809,2,0,L|483:212,1,75.0000028610231,2|0,0:2|0:0,0:0:0:0:
207,302,63009,2,0,L|188:122,1,150.000005722046,2|0,1:2|0:0,0:0:0:0:
256,21,63409,5,2,0:2:0:0:
114,79,63609,2,0,L|21:65,1,75.0000028610231,2|0,1:2|0:0,0:0:0:0:
231,161,63809,2,0,L|324:147,1,75.0000028610231,2|0,1:2|0:0,0:0:0:0:
96,273,64009,1,2,1:2:0:0:
77,302,64109,1,0,1:2:0:0:
117,332,64209,6,0,B|168:312|168:312|300:342,1,150.000005722046,10|0,0:2|1:2,0:0:0:0:
384,362,64509,1,0,1:2:0:0:
395,328,64609,6,0,L|372:201,1,87.500000834465,10|0,0:2|0:0,0:0:0:0:
216,138,64809,2,0,L|239:11,1,87.500000834465,10|0,0:2|1:2,0:0:0:0:
357,7,65009,6,0,B|417:24|481:25|481:25|500:62|467:98,1,200,6|0,1:2|0:0,0:0:0:0:
378,240,65409,2,0,L|372:161,1,75.0000028610231,2|0,1:2|0:0,0:0:0:0:
465,254,65609,1,2,1:2:0:0:
459,286,65709,1,0,0:0:0:0:
435,312,65809,2,0,P|394:331|344:322,1,87.500000834465,10|0,0:2|0:0,0:0:0:0:
289,244,66009,2,0,P|248:225|198:234,1,87.500000834465,2|0,0:2|0:0,0:0:0:0:
198,360,66209,6,0,B|197:348|225:323|225:323|141:338|162:278|86:291,1,195.000000743866,2|0,1:2|0:0,0:0:0:0:
201,142,66609,2,0,L|206:229,1,87.500000834465,2|0,0:2|0:0,0:0:0:0:
120,90,66809,6,0,B|99:51|99:51|115:9,1,87.500000834465,10|0,0:2|0:0,0:0:0:0:
269,1,67009,2,0,B|289:39|289:39|273:81,1,87.500000834465,10|0,0:2|0:0,0:0:0:0:
170,216,67209,1,2,0:2:0:0:
139,205,67309,1,0,0:0:0:0:
110,192,67409,2,0,B|52:221|52:221|36:268|36:268|-19:298,1,175.00000166893,10|0,0:2|0:0,0:0:0:0:
117,290,67709,5,0,0:0:0:0:
121,294,67809,2,0,L|196:316,1,75.0000028610231,2|0,1:2|0:0,0:0:0:0:
304,282,68009,2,2,L|311:245,3,37.5000014305115,2|0|0|0,1:2|0:0|0:0|0:0,0:1:0:0:
319,311,68209,6,0,L|364:113,1,195.000000743866,2|0,1:2|0:0,0:0:0:0:
433,253,68609,1,2,0:2:0:0:
356,38,68809,1,2,1:2:0:0:
323,44,68909,1,0,1:2:0:0:
298,68,69009,2,0,P|254:70|211:54,1,87.500000834465,10|0,0:2|0:0,0:0:0:0:
156,0,69209,2,0,P|180:36|187:82,1,87.500000834465,2|0,0:2|0:0,0:0:0:0:
245,199,69409,2,0,P|190:156|224:95,1,150.000005722046,2|0,1:2|0:0,0:0:0:0:
294,302,69809,5,2,0:2:0:0:
190,273,70009,2,2,L|152:278,3,37.5000014305115,10|0|0|0,0:2|0:0|0:0|0:0,0:1:0:0:
213,298,70209,5,10,0:2:0:0:
135,305,70309,1,0,0:0:0:0:
58,314,70409,2,2,L|62:354,3,37.5000014305115,2|0|0|0,0:2|0:0|0:0|0:0,0:1:0:0:
87,237,70609,6,0,B|91:175|61:132|61:132|36:91|71:51,1,189.999994926453,10|0,0:2|1:2,0:0:0:0:
133,99,70909,1,0,1:2:0:0:
148,112,71009,2,0,P|173:67|210:60,1,87.500000834465,2|0,1:2|0:0,0:0:0:0:
266,2,71209,2,0,P|292:46|277:90,1,87.500000834465,2|0,1:2|0:0,0:0:0:0:
234,149,71409,6,0,B|283:182|334:152|334:152|369:174|337:214,1,175.00000166893,2|0,1:2|0:0,0:0:0:0:
437,327,71809,5,2,1:2:0:0:
428,299,71909,1,0,0:0:0:0:
493,259,72009,5,2,1:2:0:0:
502,231,72109,1,0,0:0:0:0:
444,177,72209,6,0,L|433:90,1,87.500000834465,10|0,0:2|0:0,0:0:0:0:
337,237,72409,2,0,L|326:324,1,87.500000834465,2|0,0:2|0:0,0:0:0:0:
232,106,72609,2,0,B|271:76|321:135|274:174|274:174|247:199|248:233,1,195.000000743866,2|0,1:2|0:0,0:0:0:0:
228,15,73009,6,0,P|192:27|162:49,1,75.0000028610231,2|0,0:2|0:0,0:0:0:0:
88,115,73209,2,2,P|74:102|58:92,3,37.5000014305115,10|0|0|0,0:2|0:0|0:0|0:0,0:1:0:0:
119,119,73409,5,10,0:2:0:0:
104,194,73509,1,0,0:0:0:0:
94,272,73609,2,0,L|102:350,1,75.0000028610231,2|0,0:2|0:0,0:0:0:0:
192,303,73809,6,0,B|292:333|292:333|327:308|327:308|283:287,1,195.000000743866,10|0,0:2|0:0,0:0:0:0:
296,193,74109,1,0,0:0:0:0:
296,193,74209,2,0,L|221:204,1,75.0000028610231,2|0,1:2|0:0,0:0:0:0:
361,133,74409,2,2,L|397:142,3,37.5000014305115,2|0|0|0,1:2|0:0|0:0|0:0,0:1:0:0:
341,101,74609,6,0,B|358:14|358:14|400:20,1,131.250001251698,2|0,1:2|0:0,0:0:0:0:
430,7,74809,2,0,B|518:20|518:20|509:73,1,131.250001251698,2|0,0:0|0:0,0:0:0:0:
491,84,75009,6,0,L|475:177,1,87.500000834465,2|0,0:2|0:0,0:0:0:0:
497,264,75209,1,2,1:2:0:0:
468,258,75309,1,0,1:2:0:0:
439,253,75408,2,0,P|396:253|366:284,1,87.500000834465,10|0,1:2|0:0,0:0:0:0:
327,354,75609,2,0,P|347:316|335:275,1,87.500000834465,2|0,0:2|0:0,0:0:0:0:
181,189,75809,2,0,B|228:202|253:251|253:251|275:204|330:185,1,195.000000743866,2|0,1:2|0:0,0:0:0:0:
252,132,76109,1,0,0:0:0:0:
235,117,76209,6,0,L|228:20,1,75.0000028610231,2|0,0:2|0:0,0:0:0:0:
102,45,76409,2,2,L|105:100,3,37.5000014305115,10|0|0|0,0:2|0:0|0:0|0:0,0:1:0:0:
75,28,76609,5,10,0:2:0:0:
78,104,76709,1,0,0:0:0:0:
84,179,76809,2,2,L|81:234,3,37.5000014305115,2|0|0|0,1:2|0:0|1:2|0:0,0:1:0:0:
67,242,77009,6,0,B|161:236|135:313|218:313,1,175.00000166893,10|0,0:2|1:2,0:0:0:0:
275,259,77309,1,0,1:2:0:0:
285,271,77409,5,10,0:2:0:0:
336,236,77509,1,0,0:0:0:0:
398,237,77609,1,0,1:2:0:0:
448,272,77709,1,0,1:2:0:0:
464,332,77809,6,0,P|473:251|497:146,2,150,6|2|2,1:2|0:2|0:2,0:0:0:0:
343,367,78609,2,0,P|262:358|157:334,2,150,2|2|2,0:2|0:2|0:2,0:0:0:0:
297,230,79409,2,0,P|231:237|234:315,1,150,2|2,0:2|0:2,0:0:0:0:
224,128,80009,1,2,0:2:0:0:
224,128,80209,2,0,L|35:153,1,150,2|2,0:2|0:2,0:0:0:0:
32,288,80809,1,2,0:2:0:0:
32,288,80909,1,2,0:0:0:0:
32,288,81009,6,0,P|98:295|95:373,2,150,2|2|2,0:2|0:2|0:2,0:0:0:0:
263,200,81809,2,0,P|235:273|231:384,2,150,2|2|2,0:2|0:2|0:2,0:0:0:0:
333,82,82609,2,0,P|294:24|192:49,1,150,2|0,0:2|0:0,0:0:0:0:
200,67,83009,2,0,P|217:123|232:211,1,100,2|0,0:0|0:0,0:0:0:0:
145,232,83409,2,0,P|76:211|32:214,1,100,2|0,0:0|0:0,0:0:0:0:
136,348,83809,2,0,P|153:284|176:241,1,100,2|2,0:2|0:2,0:0:0:0:
173,262,84109,1,2,0:0:0:0:
178,270,84209,6,0,P|281:286|345:290,2,150,2|2|2,0:2|0:2|0:2,0:0:0:0:
224,143,85009,2,0,P|121:159|57:163,1,150,2|2,0:2|0:2,0:0:0:0:
297,209,85609,1,2,0:2:0:0:
297,209,85709,1,2,0:0:0:0:
297,209,85809,6,0,L|315:71,1,100,2|0,0:2|0:0,0:0:0:0:
271,21,86109,2,0,P|313:74|409:42,1,150,2|2,0:2|0:2,0:0:0:0:
475,24,86609,1,2,0:2:0:0:
475,24,86809,2,0,L|469:117,1,50,2|0,0:0|0:0,0:0:0:0:
396,187,87009,2,0,L|390:68,1,100,2|2,0:0|0:2,0:0:0:0:
390,77,87309,1,2,0:0:0:0:
389,66,87409,6,0,P|355:50|330:48,2,50,2|0|0,0:2|0:2|0:2,0:0:0:0:
270,6,87709,2,0,P|246:12|225:25,2,50,2|0|0,0:2|0:2|0:2,0:0:0:0:
145,47,88009,2,0,P|129:80|127:105,1,50,2|0,0:2|0:2,0:0:0:0:
232,111,88209,6,0,P|267:123|286:139,2,50,2|0|0,0:2|0:2|0:2,0:0:0:0:
357,152,88509,2,0,P|369:173|374:197,2,50,2|0|0,0:2|0:2|0:2,0:0:0:0:
417,270,88809,2,0,P|404:305|388:324,1,50,2|0,0:2|0:2,0:0:0:0:
360,351,89009,5,2,0:2:0:0:
360,351,89409,5,2,0:0:0:0:
360,351,89809,6,2,L|368:278,1,50,2|0,1:2|1:2,0:1:0:0:
378,167,90009,1,2,1:2:0:0:
289,190,90109,1,0,1:2:0:0:
200,213,90209,6,2,P|177:168|132:123,1,100,10|2,0:2|0:2,0:1:0:0:
50,359,90409,6,2,P|102:325|161:305,1,125,10|2,0:2|0:2,0:1:0:0:
256,359,90609,6,0,B|242:343|205:331|205:331|148:314|132:245|132:245|122:205|87:191,1,250,6|0,1:2|0:0,0:0:0:0:
298,109,91009,6,0,P|292:186|214:191,1,170.000003242493,2|0,0:0|1:2,0:0:0:0:
143,131,91309,5,0,1:2:0:0:
159,129,91409,2,0,L|182:47,1,85.0000016212464,10|0,0:2|0:0,0:0:0:0:
64,203,91609,2,0,L|41:121,1,85.0000016212464,2|0,0:2|0:0,0:0:0:0:
88,29,91809,6,0,L|65:111,1,85.0000016212464,2|0,1:2|0:0,0:0:0:0:
64,203,92009,2,0,L|41:285,1,85.0000016212464,2|0,0:2|0:0,0:0:0:0:
83,358,92209,2,0,B|167:370|146:303|242:319,1,170.000003242493,2|2,0:2|1:2,0:0:0:0:
304,273,92509,1,2,1:2:0:0:
317,348,92609,1,2,1:2:0:0:
317,167,92809,1,2,0:0:0:0:
139,87,93009,6,0,B|179:100|179:100|220:88,1,85.0000016212464,10|0,0:2|0:0,0:0:0:0:
384,24,93209,1,2,1:2:0:0:
331,30,93309,1,0,1:2:0:0:
303,83,93409,2,0,L|317:170,1,85.0000016212464,2|0,1:2|0:0,0:0:0:0:
486,238,93609,2,0,L|473:311,1,75.0000028610231,2|0,0:2|0:0,0:0:0:0:
503,142,93809,6,0,B|426:133|397:201|397:201|366:266|295:250,1,255.000004863739,2|0,1:2|0:0,0:0:0:0:
118,214,94209,2,0,L|126:325,1,85.0000016212464,2|0,0:2|0:0,0:0:0:0:
210,323,94409,5,2,1:2:0:0:
203,248,94509,1,0,1:2:0:0:
195,173,94609,2,0,L|208:89,1,75.0000028610231,10|0,1:2|0:0,0:0:0:0:
104,121,94809,2,0,L|117:37,1,75.0000028610231,2|0,1:2|0:0,0:0:0:0:
329,20,95009,2,0,P|249:31|230:108,1,170.000003242493,2|0,1:2|0:0,0:0:0:0:
416,177,95409,6,0,L|408:227,1,42.5000008106232,2|2,0:2|0:0,0:0:0:0:
396,159,95509,2,0,L|388:209,1,42.5000008106232,2|2,0:0|0:0,0:0:0:0:
332,252,95609,5,2,1:2:0:0:
399,244,95709,1,2,1:2:0:0:
467,237,95809,1,2,1:2:0:0:
396,61,96109,5,0,1:2:0:0:
329,20,96209,2,0,B|311:59|311:59|328:101,1,85.0000016212464,10|0,0:2|0:0,0:0:0:0:
232,186,96409,2,0,B|247:147|247:147|229:108,1,85.0000016212464,2|0,1:2|0:0,0:0:0:0:
125,16,96609,6,0,P|77:71|79:122,1,100,10|0,0:2|0:0,0:0:0:0:
70,279,96809,2,0,P|56:231|18:199,1,100,2|0,1:2|0:0,0:0:0:0:
232,186,97009,6,0,L|219:274,1,75.0000028610231,6|0,1:2|0:0,0:0:0:0:
249,165,97209,6,0,L|175:155,1,75.0000028610231,2|0,0:0|0:0,0:0:0:0:
269,182,97409,6,0,L|279:107,1,75.0000028610231,2|0,0:0|0:0,0:0:0:0:
254,201,97609,5,2,1:2:0:0:
329,214,97709,1,0,1:2:0:0:
407,230,97809,2,0,P|433:173|352:128,1,150.000005722046,10|0,0:2|0:0,0:0:0:0:
207,47,98209,1,2,1:2:0:0:
409,11,98409,1,2,0:2:0:0:
182,63,98609,6,0,B|145:40|145:40|155:145,1,150.000005722046,2|0,0:2|1:2,0:0:0:0:
202,216,98909,1,0,1:2:0:0:
201,241,99009,1,0,1:2:0:0:
57,304,99209,1,2,1:2:0:0:
201,272,99409,6,0,L|284:297,1,75.0000028610231,10|0,0:2|0:0,0:0:0:0:
201,241,99609,6,0,L|272:219,1,75.0000028610231,2|0,1:2|1:2,0:0:0:0:
382,252,99809,6,2,L|389:206,3,31.6666658210755,0|0|0|0,1:2|0:0|0:0|0:0,0:1:0:0:
280,96,100009,2,2,L|275:127,3,31.6666658210755,2|0|0|0,0:2|0:0|0:0|0:0,0:1:0:0:
458,119,100209,6,0,B|451:168|451:168|441:181|441:181|358:169|358:169|347:153|347:153|356:104,1,220.000006713867,6|0,1:2|0:0,0:0:0:0:
510,28,100609,1,2,0:2:0:0:
489,242,100809,1,2,1:2:0:0:
500,271,100909,1,0,1:2:0:0:
512,297,101009,6,0,P|471:287|429:296,1,85.0000016212464,10|0,0:2|0:0,0:0:0:0:
381,357,101209,2,0,P|343:337|301:336,1,85.0000016212464,2|0,0:0|0:0,0:0:0:0:
350,170,101409,6,0,B|372:208|372:208|362:248,1,85.0000016212464,2|0,1:2|0:0,0:0:0:0:
233,384,101609,2,0,B|211:346|211:346|220:305,1,85.0000016212464,2|0,0:0|0:0,0:0:0:0:
220,128,101809,5,6,1:2:0:0:
215,158,101909,1,0,1:2:0:0:
163,219,102009,5,0,1:2:0:0:
168,249,102109,1,0,1:2:0:0:
220,305,102209,6,0,P|123:316|87:360,1,150.000005722046,12|0,1:2|1:2,0:0:0:0:
26,273,102509,1,0,1:2:0:0:
66,339,102609,6,0,L|50:253,1,75.0000028610231,14|0,0:2|1:2,0:0:0:0:
70,189,102809,2,0,L|54:103,1,75.0000028610231,2|0,1:2|1:2,0:0:0:0:
44,20,103009,5,14,0:2:0:0:
103,17,103109,1,0,1:2:0:0:
150,53,103209,1,8,0:2:0:0:
158,112,103309,1,0,1:2:0:0:
203,151,103409,6,0,B|422:178|304:12|530:39,1,350.00000333786,6|0,1:2|1:2,0:0:0:0:
384,288,104009,1,0,1:2:0:0:
365,262,104109,1,0,1:2:0:0:
374,226,104209,6,0,L|453:213,1,75.0000028610231,10|0,0:2|0:0,0:0:0:0:
312,142,104409,2,0,L|386:129,1,75.0000028610231,2|0,0:0|0:0,0:0:0:0:
138,226,104609,6,0,L|59:213,1,75.0000028610231,2|0,1:2|0:0,0:0:0:0:
200,142,104809,2,0,L|126:129,1,75.0000028610231,2|0,0:0|0:0,0:0:0:0:
256,288,105009,6,0,L|256:384,1,75.0000028610231,2|0,0:2|0:0,0:0:0:0:
414,244,105209,5,2,1:2:0:0:
456,255,105309,1,2,1:2:0:0:
463,297,105409,1,2,1:2:0:0:
224,256,105609,1,2,0:0:0:0:
481,223,105809,6,0,L|477:138,1,85.0000016212464,10|0,0:2|0:0,0:0:0:0:
512,46,106009,2,0,B|471:30|471:30|434:49,1,85.0000016212464,2|0,0:2|0:0,0:0:0:0:
341,12,106209,2,0,L|346:115,1,85.0000016212464,2|0,0:2|0:0,0:0:0:0:
310,189,106409,2,0,B|351:200|351:200|390:182,1,85.0000016212464,2|0,1:2|1:2,0:0:0:0:
227,97,106609,6,0,L|247:297,1,175.00000166893,2|0,1:2|1:2,0:0:0:0:
416,320,107009,2,0,B|439:284|439:284|411:236,1,87.500000834465,2|0,1:2|0:0,0:0:0:0:
289,341,107209,2,0,P|337:353|368:392,1,87.500000834465,2|0,1:2|1:2,0:0:0:0:
116,367,107409,1,10,0:2:0:0:
268,255,107609,1,2,1:2:0:0:
336,307,107809,1,2,1:2:0:0:
361,109,108009,1,2,0:2:0:0:
97,143,108209,5,2,0:2:0:0:
97,143,108409,2,0,L|79:11,1,87.500000834465,2|2,1:2|1:2,0:0:0:0:
117,273,108609,1,2,1:2:0:0:
116,260,108709,2,0,P|179:237|191:333,1,175.00000166893,2|0,0:0|0:0,0:0:0:0:
124,344,109009,1,10,0:2:0:0:
416,256,109209,1,2,1:2:0:0:
410,287,109309,1,0,1:2:0:0:
395,366,109409,2,0,P|409:287|488:301,1,175.00000166893,2|2,1:2|1:2,0:0:0:0:
288,352,109809,6,0,L|304:249,1,75.0000028610231,2|0,1:2|0:0,0:0:0:0:
266,159,110009,6,0,L|282:262,1,75.0000028610231,2|0,0:0|0:0,0:0:0:0:
176,380,110209,6,0,L|192:277,1,75.0000028610231,2|0,0:0|0:0,0:0:0:0:
123,91,110409,5,2,1:2:0:0:
134,165,110509,1,0,1:2:0:0:
145,239,110609,6,0,L|31:217,1,75.0000028610231,10|0,0:2|0:0,0:0:0:0:
303,195,110809,2,0,L|417:173,1,75.0000028610231,2|0,0:0|0:0,0:0:0:0:
503,277,111009,6,0,B|453:249|453:249|478:134,1,150.000005722046,2|2,1:2|0:2,0:0:0:0:
431,18,111309,1,2,0:0:0:0:
422,30,111409,6,0,P|332:49|250:43,1,150.000005722046,2|0,0:2|1:2,0:0:0:0:
180,29,111709,1,0,1:2:0:0:
166,22,111809,1,0,1:2:0:0:
208,205,112009,1,2,0:2:0:0:
372,137,112209,6,0,L|489:152,1,75.0000028610231,10|0,0:2|0:0,0:0:0:0:
339,154,112409,6,0,L|222:139,1,75.0000028610231,2|0,1:2|1:2,0:0:0:0:
130,131,112609,6,2,L|137:173,3,31.6666658210755,0|0|0|0,1:2|0:0|0:0|0:0,0:1:0:0:
98,44,112809,2,2,L|105:2,3,31.6666658210755,2|0|0|0,0:2|0:0|0:0|0:0,0:1:0:0:
39,171,113009,6,0,B|28:234|88:261|88:261|248:217,1,220.000006713867,2|0,1:2|0:0,0:0:0:0:
377,271,113309,1,0,0:0:0:0:
387,237,113409,2,0,L|407:133,1,75.0000028610231,2|0,0:2|0:0,0:0:0:0:
275,302,113609,2,0,L|295:406,1,75.0000028610231,2|0,1:2|1:2,0:0:0:0:
241,98,113809,6,0,L|456:127,1,175.00000166893,10|0,0:2|0:0,0:0:0:0:
497,46,114109,1,0,0:0:0:0:
494,33,114209,2,0,P|451:36|440:86,1,87.500000834465,2|0,1:2|0:0,0:0:0:0:
269,130,114409,2,0,P|311:133|322:183,1,87.500000834465
480,288,114609,5,6,1:2:0:0:
224,352,114809,2,0,L|239:244,2,75.0000028610231,0|0|12,1:2|1:2|0:2,0:0:0:0:
197,187,115209,1,0,1:2:0:0:
197,187,115309,1,0,1:2:0:0:
197,187,115409,6,0,P|159:154|114:147,1,87.500000834465,14|0,0:2|0:0,0:0:0:0:
347,144,115609,2,0,P|380:106|387:61,1,87.500000834465,2|0,1:2|1:2,0:0:0:0:
390,294,115809,6,2,P|428:327|459:331,2,43.7500004172325,14|2|2,1:2|0:0|0:0,0:1:0:0:
240,337,116009,2,2,P|207:375|203:406,2,43.7500004172325,10|2|2,1:2|0:0|0:0,0:1:0:0:
293,241,116209,5,6,1:2:0:0:
293,241,117009,6,0,P|257:234|221:233,1,50,10|2,0:2|0:2,0:0:0:0:
175,270,117409,2,0,P|139:277|103:278,1,50,2|2,0:2|0:2,0:0:0:0:
42,237,117809,2,0,P|69:203|84:134,1,100,2|2,0:2|0:2,0:0:0:0:
26,30,118609,6,0,P|34:65|49:90,1,50,10|2,0:2|0:2,0:0:0:0:
161,104,119009,2,0,P|171:81|175:56,1,50,2|2,0:2|0:2,0:0:0:0:
84,149,119409,5,2,0:2:0:0:
84,149,120109,1,8,0:2:0:0:
86,159,120209,6,0,L|93:204,1,25,10|2,0:2|0:2,0:0:0:0:
224,96,120609,6,0,L|215:146,1,33.3333333333333,2|2,0:2|0:0,0:0:0:0:
320,192,121009,6,0,L|327:237,1,25,2|2,0:2|0:2,0:0:0:0:
480,128,121409,6,0,L|471:178,1,33.3333333333333,2|2,0:2|0:0,0:0:0:0:
512,247,121709,1,8,0:2:0:0:
510,257,121809,6,0,P|477:246|448:244,3,50,10|2|2|2,0:2|0:2|0:2|0:2,0:0:0:0:
325,217,122609,6,0,P|354:202|394:201,1,50,2|2,0:2|0:0,0:0:0:0:
418,217,122909,1,2,0:0:0:0:
418,217,123009,1,2,0:0:0:0:
402,319,123209,1,2,0:0:0:0:
303,303,123409,6,0,P|274:288|234:287,1,50,10|2,0:2|0:2,0:0:0:0:
159,357,123809,2,0,P|188:342|228:341,1,50,2|2,0:2|0:2,0:0:0:0:
334,368,124209,2,0,L|315:247,1,100,2|2,0:2|0:2,0:0:0:0:
298,130,125009,6,0,P|320:152|344:165,1,50,10|2,0:2|0:2,0:0:0:0:
281,240,125409,2,0,P|259:262|235:275,1,50,2|2,0:2|0:2,0:0:0:0:
115,189,125809,2,0,L|227:203,1,100,2|0,0:2|0:0,0:0:0:0:
480,160,126509,1,8,0:2:0:0:
478,150,126609,6,0,L|469:99,1,33.3333333333333,10|0,0:2|0:0,0:0:0:0:
416,288,127009,5,2,0:2:0:0:
352,224,127209,1,0,0:0:0:0:
320,352,127409,5,2,1:2:0:0:
333,322,127609,5,0,1:2:0:0:
297,255,127809,5,2,1:2:0:0:
348,161,128009,5,0,1:2:0:0:
310,75,128209,6,0,L|306:113,3,25,2|0|2|0,0:0|0:0|0:0|0:0,0:0:0:0:
288,50,129009,6,0,P|256:54|226:69,1,66.6666666666667,2|2,0:0|0:0,0:0:0:0:
194,147,129276,1,2,0:0:0:0:
57,120,129409,6,0,P|76:146|104:165,2,66.6666666666667,2|2|2,0:0|0:0|0:0,0:0:0:0:
232,286,129809,6,0,P|245:255|247:222,1,66.6666666666667,10|2,0:2|0:0,0:0:0:0:
194,147,130076,1,2,0:0:0:0:
246,313,130209,6,0,B|349:321|295:259|407:268,1,173.333325398763,2|0,1:2|0:0,0:0:0:0:
473,341,130609,5,2,0:0:0:0:
383,360,130742,1,2,0:0:0:0:
406,268,130875,1,2,0:0:0:0:
496,254,131009,6,0,P|476:191|469:148,1,86.6666626993817,2|2,1:2|0:0,0:0:0:0:
313,77,131276,1,2,0:0:0:0:
382,137,131409,6,0,P|402:74|356:-1,1,113.333335494995,10|2,0:2|0:0,0:0:0:0:
244,116,131676,1,2,0:0:0:0:
313,77,131809,2,0,L|183:64,1,129.999994049073,2|0,0:0|1:2,0:0:0:0:
55,244,132209,5,2,1:2:0:0:
107,177,132342,1,2,0:0:0:0:
30,93,132476,1,2,0:0:0:0:
173,148,132609,6,0,P|162:190|155:232,1,86.6666626993817,2|2,0:0|0:0,0:0:0:0:
207,342,132876,1,2,0:0:0:0:
289,292,133009,2,0,P|249:243|187:246,1,129.999994049073,10|0,0:2|0:0,0:0:0:0:
160,267,133276,1,2,0:0:0:0:
207,342,133409,2,0,P|291:321|378:320,1,173.333325398763,2|0,1:2|0:0,0:0:0:0:
473,158,133809,5,2,0:0:0:0:
452,254,133942,1,2,0:0:0:0:
384,190,134076,1,2,0:0:0:0:
502,173,134209,5,2,1:2:0:0:
372,220,134342,1,2,0:0:0:0:
402,94,134476,1,2,0:0:0:0:
497,43,134609,6,0,P|504:107|501:172,1,129.999994049073,10|0,1:2|0:0,0:0:0:0:
512,196,134876,1,2,0:0:0:0:
451,254,135009,2,0,P|452:275|456:296,1,43.3333313496908,10|0,0:2|0:0,0:0:0:0:
252,155,135209,1,0,1:2:0:0:
285,131,135309,1,0,1:2:0:0:
326,134,135409,6,0,L|313:219,1,86.6666626993817,2|2,1:2|0:0,0:0:0:0:
361,303,135676,1,2,0:0:0:0:
264,344,135809,5,2,1:2:0:0:
393,326,135942,1,2,0:0:0:0:
313,220,136076,1,2,0:0:0:0:
243,327,136209,6,0,L|131:334,1,86.6666626993817,10|2,0:2|0:0,0:0:0:0:
71,263,136476,1,2,0:0:0:0:
165,251,136609,6,0,B|55:248|102:348|-11:338,1,194.999991073609,2|0,1:2|0:0,0:0:0:0:
0,218,137009,5,2,1:2:0:0:
120,288,137142,2,0,L|108:199,1,86.6666626993817,2|2,0:0|0:0,0:0:0:0:
182,65,137409,5,2,1:2:0:0:
93,102,137542,1,2,0:0:0:0:
20,43,137676,1,2,0:0:0:0:
182,65,137809,6,0,P|212:102|198:152,1,86.6666626993817,10|2,0:2|0:0,0:0:0:0:
248,213,138076,1,2,0:0:0:0:
335,150,138209,2,0,P|285:231|296:313,1,173.333325398763,2|0,1:2|0:0,0:0:0:0:
487,303,138609,5,2,1:2:0:0:
383,248,138742,1,2,0:0:0:0:
472,183,138876,1,2,0:0:0:0:
512,329,139009,2,0,P|426:339|327:371,1,173.333325398763,2|0,1:2|0:0,0:0:0:0:
201,325,139409,5,10,0:2:0:0:
248,213,139542,1,2,0:0:0:0:
136,172,139676,1,2,0:0:0:0:
88,284,139809,5,2,1:2:0:0:
278,198,140009,1,0,1:2:0:0:
72,77,140209,5,2,1:2:0:0:
248,213,140409,1,8,1:2:0:0:
9,318,140609,5,2,1:2:0:0:
220,226,140809,1,0,1:2:0:0:
0,141,141009,1,10,0:2:0:0:
190,34,141209,5,8,0:2:0:0:
242,31,141309,1,0,0:0:0:0:
285,59,141409,1,8,0:2:0:0:
317,115,141509,1,0,1:2:0:0:
371,150,141609,1,8,0:2:0:0:
435,145,141709,1,0,1:2:0:0:
468,89,141809,6,0,B|420:48|420:48|321:78,2,150,6|2|2,0:2|0:2|0:2,0:0:0:0:
400,231,142609,2,0,P|379:158|315:79,2,150,2|2|2,0:2|0:2|0:2,0:0:0:0:
224,352,143409,2,0,P|332:331|402:303,1,150,2|2,0:2|0:2,0:0:0:0:
160,256,144009,1,2,0:2:0:0:
160,256,144209,2,0,B|96:284|96:284|124:384,1,150,2|2,0:2|0:2,0:0:0:0:
273,260,144809,1,2,0:2:0:0:
273,260,144909,1,2,0:0:0:0:
273,260,145009,6,0,B|298:194|298:194|207:144,2,150,2|2|2,0:2|0:2|0:2,0:0:0:0:
125,294,145809,2,0,P|183:246|193:146,1,150,2|2,0:2|0:2,0:0:0:0:
17,119,146409,1,2,0:2:0:0:
17,119,146609,2,0,P|58:59|130:60,1,150,2|0,0:2|0:0,0:0:0:0:
139,71,147009,2,0,P|122:127|107:215,1,100,2|0,0:0|0:0,0:0:0:0:
228,228,147409,2,0,P|277:230|324:248,1,100,2|0,0:0|0:0,0:0:0:0:
170,354,147809,6,0,P|187:290|210:247,1,100,2|2,0:2|0:2,0:0:0:0:
207,268,148109,1,2,0:0:0:0:
212,276,148209,6,0,L|381:267,2,150,2|2|2,0:2|0:2|0:2,0:0:0:0:
90,236,149009,2,0,P|55:169|64:61,2,150,2|2|2,0:2|0:2|0:2,0:0:0:0:
277,78,149809,2,0,P|220:109|208:153,1,100,2|0,0:2|0:0,0:0:0:0:
244,159,150109,2,0,P|232:90|156:21,1,150,2|2,0:2|0:2,0:0:0:0:
374,12,150609,2,0,P|347:75|323:108,1,100,2|0,0:2|0:0,0:0:0:0:
244,159,151009,1,2,0:0:0:0:
480,192,151209,1,2,0:2:0:0:
480,192,151309,1,2,0:0:0:0:
480,192,151409,6,0,P|420:173|367:169,1,100,2|0,0:2|0:0,0:0:0:0:
308,273,151709,2,0,P|352:285|366:214,1,100,2|0,0:2|0:0,0:0:0:0:
245,222,152009,2,0,P|232:250|238:307,1,50,2|0,0:2|0:0,0:0:0:0:
417,351,152209,2,0,L|400:191,2,150,2|2|2,0:2|0:2|0:2,0:0:0:0:
325,367,153009,5,2,0:2:0:0:
325,367,153409,5,2,0:0:0:0:
325,367,153809,6,0,P|269:330|150:323,1,150,2|0,0:2|0:0,0:0:0:0:
285,291,154209,2,2,L|276:222,1,50,2|2,0:2|0:2,0:1:0:0:
264,139,154409,1,2,0:2:0:0:
222,150,154509,1,2,0:2:0:0:
215,192,154609,5,2,0:2:0:0:
215,192,155009,6,0,L|204:135,2,50.0000019073487,2|0|0,0:2|0:0|0:0,0:0:0:0:
174,275,155409,2,0,P|123:250|65:246,1,100.000003814697,2|0,0:2|0:0,0:0:0:0:
94,323,155809,6,0,P|116:312|141:307,1,50.0000019073487,2|0,0:2|0:0,0:0:0:0:
13,281,156075,1,0,0:0:0:0:
13,281,156209,2,0,L|28:154,1,100.000003814697,2|0,0:2|0:0,0:0:0:0:
122,78,156609,6,0,L|111:21,2,50.0000019073487,2|0|0,0:2|0:0|0:0,0:0:0:0:
210,125,157009,2,0,P|261:100|319:96,1,100.000003814697,2|0,0:2|0:0,0:0:0:0:
459,157,157409,6,0,L|470:100,2,50.0000019073487,2|0|0,0:2|0:0|0:0,0:0:0:0:
371,204,157809,2,0,P|320:179|262:175,1,100.000003814697,2|0,0:2|0:0,0:0:0:0:
153,204,158209,6,0,L|142:147,2,50.0000019073487,2|0|0,0:2|0:0|0:0,0:0:0:0:
241,251,158609,2,0,P|292:226|350:222,1,100.000003814697,2|0,0:2|0:0,0:0:0:0:
448,240,159009,6,0,L|459:183,2,50.0000019073487,2|0|0,0:2|0:0|0:0,0:0:0:0:
360,287,159409,2,0,P|309:262|251:258,1,100.000003814697,2|0,0:2|0:0,0:0:0:0:
166,280,159809,6,0,L|155:223,2,50.0000019073487,2|0|0,0:2|0:0|0:0,0:0:0:0:
254,327,160209,2,0,P|305:302|363:298,1,100.000003814697,2|0,0:2|0:0,0:0:0:0:
426,311,160609,6,0,L|437:254,2,50.0000019073487,2|0|0,0:2|0:0|0:0,0:0:0:0:
337,359,161009,1,2,0:2:0:0:
