osu file format v14

[General]
AudioFilename: audio.mp3
AudioLeadIn: 0
PreviewTime: 51677
Countdown: 0
SampleSet: Soft
StackLeniency: 0.7
Mode: 0
LetterboxInBreaks: 0
EpilepsyWarning: 1
WidescreenStoryboard: 1

[Editor]
Bookmarks: 1028,13777,26577,39127,52177,64977,77777,90577,103377,116177,128977,134577,141777,154577,160977
DistanceSpacing: 1.2
BeatDivisor: 4
GridSize: 32
TimelineZoom: 2.599999

[Metadata]
Title:THE BADDEST feat. (G)I-DLE, Bea Miller, Wolftyla
TitleUnicode:THE BADDEST feat. (G)I-DLE, Bea Miller, Wolftyla
Artist:K/DA
ArtistUnicode:K/DA
Creator:Elinor
Version:Mir's Expert
Source:League of Legends
Tags:kujinn reform mir rosiie [_eli_] eli kda lol english korean pop k-pop kpop ahri evelynn kaisa kai'sa akali riot games miyeon soyeon (여자)아이들 gidle g_idle
BeatmapID:2590756
BeatmapSetID:1246447

[Difficulty]
HPDrainRate:5
CircleSize:4
OverallDifficulty:8
ApproachRate:9.2
SliderMultiplier:2
SliderTickRate:1

[Events]
//Background and Video events
0,0,"bg.jpg",0,0
//Break Periods
//Storyboard Layer 0 (Background)
//Storyboard Layer 1 (Fail)
//Storyboard Layer 2 (Pass)
//Storyboard Layer 3 (Foreground)
Sprite,Foreground,Centre,"sb\glow.png",0,0 C,0,65028,,200,146,254 M,0,65028,65078,361,269,311.2315,268.8978 F,2,65028,65578,1,0 S,2,65028,65578,0.4,0.08 P,0,65028,65578,A M,0,65078,65128,311.2315,268.8978,266.8084,290.5165 M,0,65128,65178,266.8084,290.5165,232.2243,326.5796 M,0,65178,65228,232.2243,326.5796,192.0167,355.6488 M,0,65228,65278,192.0167,355.6488,143.0532,363.88 M,0,65278,65328,143.0532,363.88,93.54475,357.5081
Sprite,Foreground,Centre,"sb\glow.png",0,0 C,0,65428,,255,255,89 M,0,65428,65478,85,342,76.69624,318.8036 F,2,65428,65778,1,0 S,2,65428,65778,0.4,0.08 P,0,65428,65778,A M,0,65478,65528,76.69624,318.8036,82.2583,294.8335
Sprite,Foreground,Centre,"sb\glow.png",0,0 C,0,65628,,255,255,89 M,0,65628,65678,64,219,74.17063,196.8095 F,2,65628,65978,1,0 S,2,65628,65978,0.4,0.08 P,0,65628,65978,A M,0,65678,65728,74.17063,196.8095,94.34156,183.515
Sprite,Foreground,Centre,"sb\glow.png",154,408 C,0,65828,,255,255,89 F,2,65828,66078,1,0 S,2,65828,66078,0.4,0.08 P,0,65828,66078,A
Sprite,Foreground,Centre,"sb\glow.png",159,247 C,0,66028,,255,255,89 F,2,66028,66278,1,0 S,2,66028,66278,0.4,0.08 P,0,66028,66278,A
Sprite,Foreground,Centre,"sb\glow.png",0,0 C,0,66228,,255,128,230 M,0,66228,66278,347,389,322.1484,386.5698 F,2,66228,66778,1,0 S,2,66228,66778,0.4,0.08 P,0,66228,66778,A M,0,66278,66328,322.1484,386.5698,298.5781,378.5332 M,0,66328,66378,298.5781,378.5332,278.8943,363.2856 M,0,66378,66428,278.8943,363.2856,261.4049,345.432 M,0,66428,66478,261.4049,345.432,240.5751,331.8002 M,0,66478,66528,240.5751,331.8002,216.6727,324.6912
Sprite,Foreground,Centre,"sb\glow.png",206,341 C,0,66628,,255,128,230 F,2,66628,66878,1,0 S,2,66628,66878,0.4,0.08 P,0,66628,66878,A
Sprite,Foreground,Centre,"sb\glow.png",0,0 C,0,66828,,255,128,230 M,0,66828,66878,461,285,468.0836,308.9755 F,2,66828,67178,1,0 S,2,66828,67178,0.4,0.08 P,0,66828,67178,A M,0,66878,66928,468.0836,308.9755,461,285
Sprite,Foreground,Centre,"sb\glow.png",0,0 C,0,67028,,255,128,230 M,0,67028,67078,228,121,220.9164,144.9754 F,2,67028,67378,1,0 S,2,67028,67378,0.4,0.08 P,0,67028,67378,A M,0,67078,67128,220.9164,144.9754,228,121
Sprite,Foreground,Centre,"sb\glow.png",343,90 C,0,67228,,255,128,230 F,2,67228,67478,1,0 S,2,67228,67478,0.4,0.08 P,0,67228,67478,A
Sprite,Foreground,Centre,"sb\glow.png",343,90 C,0,67328,,255,128,230 F,2,67328,67578,1,0 S,2,67328,67578,0.4,0.08 P,0,67328,67578,A
Sprite,Foreground,Centre,"sb\glow.png",0,0 C,0,67428,,82,237,254 M,0,67428,67478,343,90,364.7834,78.08549 F,2,67428,67978,1,0 S,2,67428,67978,0.4,0.08 P,0,67428,67978,A M,0,67478,67528,364.7834,78.08549,389.3901,75.01057 M,0,67528,67578,389.3901,75.01057,413.3793,81.18437 M,0,67578,67628,413.3793,81.18437,433.4027,95.72639 M,0,67628,67678,433.4027,95.72639,446.6711,116.5912 M,0,67678,67728,446.6711,116.5912,451.341,140.855
Sprite,Foreground,Centre,"sb\glow.png",0,0 C,0,67828,,200,146,254 M,0,67828,67878,451,140,475.7878,136.7491 F,2,67828,68178,1,0 S,2,67828,68178,0.4,0.08 P,0,67828,68178,A M,0,67878,67928,475.7878,136.7491,500.5755,133.4983
Sprite,Foreground,Centre,"sb\glow.png",0,0 C,0,68028,,200,146,254 M,0,68028,68078,268,239,243.314,235.0502 F,2,68028,68378,1,0 S,2,68028,68378,0.4,0.08 P,0,68028,68378,A M,0,68078,68128,243.314,235.0502,268,239
Sprite,Foreground,Centre,"sb\glow.png",0,0 C,0,68228,,255,255,89 M,0,68228,68278,373,303,397.6239,298.68 F,2,68228,68778,1,0 S,2,68228,68778,0.4,0.08 P,0,68228,68778,A M,0,68278,68328,397.6239,298.68,422.2479,294.36 M,0,68328,68378,422.2479,294.36,443.1161,304.0175 M,0,68378,68428,443.1161,304.0175,464.3289,312.3156 M,0,68428,68478,464.3289,312.3156,488.9312,307.8735 M,0,68478,68528,488.9312,307.8735,513.5333,303.4315
Sprite,Foreground,Centre,"sb\glow.png",0,0 C,0,68628,,255,255,89 M,0,68628,68678,513,303,509.4015,327.7397 F,2,68628,68978,1,0 S,2,68628,68978,0.4,0.08 P,0,68628,68978,A M,0,68678,68728,509.4015,327.7397,505.803,352.4793
Sprite,Foreground,Centre,"sb\glow.png",0,0 C,0,68828,,255,255,89 M,0,68828,68878,402,434,398.4015,409.2603 F,2,68828,69178,1,0 S,2,68828,69178,0.4,0.08 P,0,68828,69178,A M,0,68878,68928,398.4015,409.2603,394.803,384.5207
Sprite,Foreground,Centre,"sb\glow.png",360,211 C,0,69028,,255,255,89 F,2,69028,69278,1,0 S,2,69028,69278,0.4,0.08 P,0,69028,69278,A
Sprite,Foreground,Centre,"sb\glow.png",278,393 C,0,69228,,255,255,89 F,2,69228,69478,1,0 S,2,69228,69478,0.4,0.08 P,0,69228,69478,A
Sprite,Foreground,Centre,"sb\glow.png",0,0 C,0,69428,,255,128,230 M,0,69428,69478,77,299,85.42284,275.6533 F,2,69428,69978,1,0 S,2,69428,69978,0.4,0.08 P,0,69428,69978,A M,0,69478,69528,85.42284,275.6533,101.9456,257.1794 M,0,69528,69578,101.9456,257.1794,124.1532,246.2432 M,0,69578,69628,124.1532,246.2432,148.8137,244.4135 M,0,69628,69678,148.8137,244.4135,172.3464,251.9385 M,0,69678,69728,172.3464,251.9385,191.3394,267.7124
Sprite,Foreground,Centre,"sb\glow.png",200,285 C,0,69828,,255,128,230 F,2,69828,70078,1,0 S,2,69828,70078,0.4,0.08 P,0,69828,70078,A
Sprite,Foreground,Centre,"sb\glow.png",0,0 C,0,70028,,255,128,230 M,0,70028,70078,368,408,371.3778,432.7708 F,2,70028,70378,1,0 S,2,70028,70378,0.4,0.08 P,0,70028,70378,A M,0,70078,70128,371.3778,432.7708,368,408
Sprite,Foreground,Centre,"sb\glow.png",0,0 C,0,70228,,255,128,230 M,0,70228,70278,534,227,558.7708,223.6222 F,2,70228,70578,1,0 S,2,70228,70578,0.4,0.08 P,0,70228,70578,A M,0,70278,70328,558.7708,223.6222,534,227
Sprite,Foreground,Centre,"sb\glow.png",0,0 C,0,70428,,255,128,230 M,0,70428,70478,460,161,435.2292,157.6222 F,2,70428,70778,1,0 S,2,70428,70778,0.4,0.08 P,0,70428,70778,A M,0,70478,70528,435.2292,157.6222,460,161
Sprite,Foreground,Centre,"sb\glow.png",0,0 C,0,70628,,82,237,254 M,0,70628,70678,458,351,453.9628,326.3281 F,2,70628,71078,1,0 S,2,70628,71078,0.4,0.08 P,0,70628,71078,A M,0,70678,70728,453.9628,326.3281,449.9256,301.6563 M,0,70728,70778,449.9256,301.6563,445.8884,276.9844 M,0,70778,70828,445.8884,276.9844,441.8511,252.3125
Sprite,Foreground,Centre,"sb\glow.png",422,248 C,0,70928,,82,237,254 F,2,70928,71178,1,0 S,2,70928,71178,0.4,0.08 P,0,70928,71178,A
Sprite,Foreground,Centre,"sb\glow.png",0,0 C,0,71028,,82,237,254 M,0,71028,71078,402,245,377.5185,239.9349 F,2,71028,71378,1,0 S,2,71028,71378,0.4,0.08 P,0,71028,71378,A M,0,71078,71128,377.5185,239.9349,353.037,234.8697
Sprite,Foreground,Centre,"sb\glow.png",545,322 C,0,71228,,82,237,254 F,2,71228,71478,1,0 S,2,71228,71478,0.4,0.08 P,0,71228,71478,A
Sprite,Foreground,Centre,"sb\glow.png",0,0 C,0,71428,,200,146,254 M,0,71428,71478,328,427,323.0048,402.5058 F,2,71428,71878,1,0 S,2,71428,71878,0.4,0.08 P,0,71428,71878,A M,0,71478,71528,323.0048,402.5058,317.3062,378.1663 M,0,71528,71578,317.3062,378.1663,310.8659,354.0125 M,0,71578,71628,310.8659,354.0125,303.6901,330.0669
Sprite,Foreground,Centre,"sb\glow.png",0,0 C,0,71828,,200,146,254 M,0,71828,71878,213,158,189.7092,166.8965 F,2,71828,72178,1,0 S,2,71828,72178,0.4,0.08 P,0,71828,72178,A M,0,71878,71928,189.7092,166.8965,168.5236,179.9854
Sprite,Foreground,Centre,"sb\glow.png",0,0 C,0,72028,,200,146,254 M,0,72028,72078,95,141,84.70445,163.7035 F,2,72028,72378,1,0 S,2,72028,72378,0.4,0.08 P,0,72028,72378,A M,0,72078,72128,84.70445,163.7035,78.96722,187.9315
Sprite,Foreground,Centre,"sb\glow.png",131,264 C,0,72228,,200,146,254 F,2,72228,72478,1,0 S,2,72228,72478,0.4,0.08 P,0,72228,72478,A
Sprite,Foreground,Centre,"sb\glow.png",262,87 C,0,72428,,200,146,254 F,2,72428,72678,1,0 S,2,72428,72678,0.4,0.08 P,0,72428,72678,A
Sprite,Foreground,Centre,"sb\glow.png",0,0 C,0,72628,,255,255,89 M,0,72628,72678,359,260,383.8179,261.4418 F,2,72628,73178,1,0 S,2,72628,73178,0.4,0.08 P,0,72628,73178,A M,0,72678,72728,383.8179,261.4418,407.6099,254.2939 M,0,72728,72778,407.6099,254.2939,427.4971,239.4327 M,0,72778,72828,427.4971,239.4327,441.0764,218.6671 M,0,72828,72878,441.0764,218.6671,446.7109,194.5182 M,0,72878,72928,446.7109,194.5182,443.7268,169.9139
Sprite,Foreground,Centre,"sb\glow.png",436,142 C,0,73028,,255,255,89 F,2,73028,73278,1,0 S,2,73028,73278,0.4,0.08 P,0,73028,73278,A
Sprite,Foreground,Centre,"sb\glow.png",0,0 C,0,73228,,255,255,89 M,0,73228,73278,500,382,493.3843,406.1012 F,2,73228,73578,1,0 S,2,73228,73578,0.4,0.08 P,0,73228,73578,A M,0,73278,73328,493.3843,406.1012,500,382
Sprite,Foreground,Centre,"sb\glow.png",0,0 C,0,73428,,255,255,89 M,0,73428,73478,531,125,530.9719,149.9831 F,2,73428,73778,1,0 S,2,73428,73778,0.4,0.08 P,0,73428,73778,A M,0,73478,73528,530.9719,149.9831,527.9995,174.7856
Sprite,Foreground,Centre,"sb\glow.png",0,0 C,0,73628,,255,255,89 M,0,73628,73678,361,309,360.9719,284.017 F,2,73628,73978,1,0 S,2,73628,73978,0.4,0.08 P,0,73628,73978,A M,0,73678,73728,360.9719,284.017,357.9995,259.2144
Sprite,Foreground,Centre,"sb\glow.png",0,0 C,0,73828,,255,128,230 M,0,73828,73878,328,82,351.0287,72.84911 F,2,73828,74378,1,0 S,2,73828,74378,0.4,0.08 P,0,73828,74378,A M,0,73878,73928,351.0287,72.84911,375.6968,71.91748 M,0,73928,73978,375.6968,71.91748,399.1091,79.74358 M,0,73978,74028,399.1091,79.74358,418.2583,95.32213 M,0,74028,74078,418.2583,95.32213,430.6847,116.6521 M,0,74078,74128,430.6847,116.6521,434.7921,140.9937
Sprite,Foreground,Centre,"sb\glow.png",422,162 C,0,74228,,255,128,230 F,2,74228,74478,1,0 S,2,74228,74478,0.4,0.08 P,0,74228,74478,A
Sprite,Foreground,Centre,"sb\glow.png",0,0 C,0,74428,,255,128,230 M,0,74428,74478,236,78,227.873,54.35783 F,2,74428,74778,1,0 S,2,74428,74778,0.4,0.08 P,0,74428,74778,A M,0,74478,74528,227.873,54.35783,236,78
Sprite,Foreground,Centre,"sb\glow.png",0,0 C,0,74628,,82,237,254 M,0,74628,74678,104,249,141.1357,252.7604 F,2,74628,75278,1,0 S,2,74628,75278,0.4,0.08 P,0,74628,75278,A M,0,74678,74728,141.1357,252.7604,175.0027,237.9301 M,0,74728,74778,175.0027,237.9301,208.0932,220.8734 M,0,74778,74828,208.0932,220.8734,245.3494,218.2466 M,0,74828,74878,245.3494,218.2466,208.0932,220.8734 M,0,74878,74928,208.0932,220.8734,175.0027,237.9301 M,0,74928,74978,175.0027,237.9301,141.1358,252.7604 M,0,74978,75028,141.1358,252.7604,104,249
Sprite,Foreground,Centre,"sb\glow.png",94,231 C,0,75128,,82,237,254 F,2,75128,75378,1,0 S,2,75128,75378,0.4,0.08 P,0,75128,75378,A
Sprite,Foreground,Centre,"sb\glow.png",0,0 C,0,75228,,82,237,254 M,0,75228,75278,85,212,87.89702,187.1684 F,2,75228,75578,1,0 S,2,75228,75578,0.4,0.08 P,0,75228,75578,A M,0,75278,75328,87.89702,187.1684,90.79404,162.3369
Sprite,Foreground,Centre,"sb\glow.png",234,305 C,0,75428,,82,237,254 F,2,75428,75678,1,0 S,2,75428,75678,0.4,0.08 P,0,75428,75678,A
Sprite,Foreground,Centre,"sb\glow.png",106,413 C,0,75628,,82,237,254 F,2,75628,75878,1,0 S,2,75628,75878,0.4,0.08 P,0,75628,75878,A
Sprite,Foreground,Centre,"sb\glow.png",0,0 C,0,75828,,200,146,254 M,0,75828,75878,333,356,336.3847,331.2302 F,2,75828,76378,1,0 S,2,75828,76378,0.4,0.08 P,0,75828,76378,A M,0,75878,75928,336.3847,331.2302,339.7694,306.4604 M,0,75928,75978,339.7694,306.4604,343.1541,281.6906 M,0,75978,76028,343.1541,281.6906,346.5388,256.9207 M,0,76028,76078,346.5388,256.9207,349.9235,232.1509 M,0,76078,76128,349.9235,232.1509,353.3082,207.3811
Sprite,Foreground,Centre,"sb\glow.png",358,188 C,0,76228,,200,146,254 F,2,76228,76478,1,0 S,2,76228,76478,0.4,0.08 P,0,76228,76478,A
Sprite,Foreground,Centre,"sb\glow.png",0,0 C,0,76428,,200,146,254 M,0,76428,76478,234,305,209.6217,310.5405 F,2,76428,76778,1,0 S,2,76428,76778,0.4,0.08 P,0,76428,76778,A M,0,76478,76528,209.6217,310.5405,234,305
Sprite,Foreground,Centre,"sb\glow.png",0,0 C,0,76628,,200,146,254 M,0,76628,76678,420,105,444.3783,110.5405 F,2,76628,76978,1,0 S,2,76628,76978,0.4,0.08 P,0,76628,76978,A M,0,76678,76728,444.3783,110.5405,420,105
Sprite,Foreground,Centre,"sb\glow.png",0,0 C,0,76828,,200,146,254 M,0,76828,76878,172,88,166.4595,63.62168 F,2,76828,77178,1,0 S,2,76828,77178,0.4,0.08 P,0,76828,77178,A M,0,76878,76928,166.4595,63.62168,172,88
Sprite,Foreground,Centre,"sb\glow.png",0,0 C,0,77028,,255,255,89 M,0,77028,77078,97,230,120.9256,222.7498 F,2,77028,77378,1,0 S,2,77028,77378,0.4,0.08 P,0,77028,77378,A M,0,77078,77128,120.9256,222.7498,144.8512,215.4996
Sprite,Foreground,Centre,"sb\glow.png",232,190 C,0,77228,,255,255,89 F,2,77228,77478,1,0 S,2,77228,77478,0.4,0.08 P,0,77228,77478,A
Sprite,Foreground,Centre,"sb\glow.png",232,190 C,0,77328,,255,255,89 F,2,77328,77578,1,0 S,2,77328,77578,0.4,0.08 P,0,77328,77578,A
Sprite,Foreground,Centre,"sb\glow.png",0,0 C,0,77428,,255,128,230 M,0,77428,77478,232,190,247.3673,218.9899 F,2,77428,77778,1,0 S,2,77428,77778,0.4,0.08 P,0,77428,77778,A M,0,77478,77528,247.3673,218.9899,234.5519,254.2322
Sprite,Foreground,Centre,"sb\glow.png",0,0 C,0,77628,,255,128,230 M,0,77628,77678,115,440,96.63865,400.9636 F,2,77628,77978,1,0 S,2,77628,77978,0.4,0.08 P,0,77628,77978,A M,0,77678,77728,96.63865,400.9636,114.1948,354.1472
//Storyboard Layer 4 (Overlay)
//Storyboard Sound Samples

[TimingPoints]
1028,400,4,2,22,100,1,0
12428,-200,4,2,22,60,0,0
13028,-100,4,2,22,80,0,0
13828,-200,4,2,22,90,0,1
14628,-100,4,2,22,90,0,1
14928,-100,4,2,22,5,0,1
15028,-100,4,2,22,90,0,1
15328,-100,4,2,22,5,0,1
15428,-100,4,2,22,90,0,1
19328,-100,4,2,2,90,0,1
19428,-100,4,2,22,90,0,1
19828,-100,4,2,6,90,0,1
20028,-100,4,2,22,90,0,1
20228,-76.9230769230769,4,2,22,90,0,1
25828,-200,4,2,22,90,0,1
26228,-100,4,2,22,90,0,1
26628,-100,4,2,22,90,0,1
27728,-100,4,2,22,5,0,1
27828,-100,4,2,22,90,0,1
28128,-100,4,2,22,5,0,1
28228,-66.6666666666667,4,2,22,90,0,1
28828,-100,4,2,22,90,0,1
32128,-100,4,2,22,90,0,1
32178,-100,4,2,22,90,0,1
33028,-76.9230769230769,4,2,22,90,0,1
36528,-76.9230769230769,4,2,22,5,0,1
36628,-76.9230769230769,4,2,22,90,0,1
38628,-200,4,2,22,90,0,1
39028,-100,4,2,22,90,0,1
39428,-500,4,2,2,70,0,0
44428,-500,4,2,22,70,0,0
44628,-200,4,2,2,70,0,0
44828,-200,4,2,22,70,0,0
45028,-200,4,2,2,70,0,0
45078,-200,4,2,22,70,0,0
45428,-200,4,2,2,70,0,0
45828,-100,4,2,2,70,0,0
46428,-100,4,2,22,70,0,0
46628,-100,4,2,2,70,0,0
47628,-100,4,2,22,70,0,0
47828,-100,4,2,2,70,0,0
48428,-100,4,2,22,70,0,0
48628,-100,4,2,2,70,0,0
49328,-100,4,2,2,5,0,0
49428,-100,4,2,2,70,0,0
49828,-66.6666666666667,4,2,2,70,0,0
50128,-66.6666666666667,4,2,2,5,0,0
50228,-66.6666666666667,4,2,2,70,0,0
50628,-1000,4,2,2,70,0,0
51428,-50,4,2,22,70,0,0
52178,-50,4,2,22,5,0,0
52228,-100,4,2,22,80,0,0
53728,-100,4,2,22,5,0,0
53828,-100,4,2,22,80,0,0
55278,-100,4,2,2,80,0,0
55428,-100,4,2,22,80,0,0
55728,-100,4,2,22,5,0,0
55828,-100,4,2,22,80,0,0
56928,-100,4,2,22,5,0,0
57028,-100,4,2,22,80,0,0
58928,-100,4,2,22,5,0,0
59028,-100,4,2,22,80,0,0
61678,-100,4,2,2,80,0,0
61828,-100,4,2,22,80,0,0
62128,-100,4,2,22,5,0,0
62228,-100,4,2,22,80,0,0
63328,-100,4,2,22,5,0,0
63428,-100,4,2,22,80,0,0
64628,-66.6666666666667,4,2,22,80,0,0
64828,-50,4,2,22,80,0,0
65328,-50,4,2,22,5,0,0
65428,-100,4,2,22,80,0,0
66528,-100,4,2,22,5,0,0
66628,-100,4,2,22,80,0,0
67428,-100,4,2,4,80,0,0
67528,-100,4,2,22,80,0,0
68078,-100,4,2,2,80,0,0
68228,-100,4,2,22,80,0,0
68528,-100,4,2,22,5,0,0
68628,-100,4,2,22,80,0,0
69728,-100,4,2,22,5,0,0
69828,-100,4,2,22,80,0,0
70628,-100,4,2,4,80,0,0
70728,-100,4,2,4,80,0,0
70828,-100,4,2,4,80,0,0
70928,-100,4,2,22,80,0,0
72928,-100,4,2,22,5,0,0
73028,-100,4,2,22,80,0,0
73828,-100,4,2,4,80,0,0
73928,-100,4,2,22,80,0,0
74478,-100,4,2,2,80,0,0
74628,-66.6666666666667,4,2,22,80,0,0
75028,-100,4,2,22,80,0,0
76128,-100,4,2,22,5,0,0
76228,-100,4,2,22,80,0,0
76478,-100,4,2,2,80,0,0
76628,-100,4,2,22,80,0,0
76878,-100,4,2,2,80,0,0
77028,-100,4,2,22,80,0,0
77428,-66.6666666666667,4,2,22,80,0,0
77628,-50,4,2,22,80,0,0
77828,-200,4,2,22,70,0,0
78228,-200,4,2,2,70,0,0
88228,-100,4,2,2,70,0,0
88628,-100,4,2,2,70,0,0
89828,-100,4,2,4,80,0,0
89928,-100,4,2,22,80,0,0
90228,-66.6666666666667,4,2,22,80,0,0
90428,-50,4,2,22,80,0,0
90628,-200,4,2,22,90,0,1
90978,-200,4,2,22,5,0,1
91028,-66.6666666666667,4,2,22,90,0,1
91428,-100,4,2,22,90,0,1
91728,-100,4,2,22,5,0,1
91828,-100,4,2,22,90,0,1
92128,-100,4,2,22,5,0,1
92228,-100,4,2,22,90,0,1
94128,-100,4,2,22,5,0,1
94228,-100,4,2,22,90,0,1
96628,-100,4,2,6,90,0,1
96828,-100,4,2,22,90,0,1
97028,-76.9230769230769,4,2,22,90,0,1
100528,-76.9230769230769,4,2,22,5,0,1
100628,-76.9230769230769,4,2,22,90,0,1
102628,-200,4,2,22,90,0,1
103028,-100,4,2,22,90,0,1
104528,-100,4,2,22,5,0,1
104628,-100,4,2,22,90,0,1
104928,-100,4,2,22,5,0,1
105028,-66.6666666666667,4,2,22,90,0,1
105428,-200,4,2,22,90,0,1
105828,-100,4,2,22,90,0,1
109828,-76.9230769230769,4,2,22,90,0,1
113328,-76.9230769230769,4,2,22,5,0,1
113428,-76.9230769230769,4,2,22,90,0,1
114828,-100,4,2,22,90,0,1
115428,-50,4,2,22,90,0,1
115828,-100,4,2,22,90,0,1
116228,-200,4,2,22,70,0,0
119828,-400,4,2,22,70,0,0
120228,-200,4,2,22,70,0,0
123028,-100,4,2,22,70,0,0
123428,-200,4,2,22,70,0,0
127428,-66.6666666666667,4,2,22,70,0,0
128228,-400,4,2,22,70,0,0
129028,-100,4,2,22,80,0,0
130428,-100,4,2,2,80,0,0
130628,-100,4,2,22,80,0,0
130928,-100,4,2,2,80,0,0
131028,-100,4,2,22,80,0,0
131228,-100,4,2,2,80,0,0
131428,-100,4,2,4,80,0,0
131528,-100,4,2,22,80,0,0
131628,-100,4,2,2,80,0,0
131828,-100,4,2,22,80,0,0
133628,-100,4,2,2,80,0,0
133828,-100,4,2,22,80,0,0
134628,-100,4,2,4,80,0,0
134728,-100,4,2,22,80,0,0
137828,-100,4,2,4,80,0,0
137928,-100,4,2,22,80,0,0
141428,-66.6666666666667,4,2,22,80,0,0
141628,-50,4,2,22,80,0,0
141828,-200,4,2,22,80,0,0
142228,-200,4,2,2,80,0,0
154628,-400,4,2,2,60,0,0

[Colours]
Combo1 : 255,255,89
Combo2 : 255,128,230
Combo3 : 82,237,254
Combo4 : 200,146,254

[HitObjects]
27,335,12428,6,0,L|69:329,1,25
62,235,12628,2,0,L|95:260,1,25
161,197,12828,2,0,L|167:239,1,25
170,376,13028,5,8,0:3:0:0:
170,376,13128,1,8,0:3:0:0:
170,376,13228,6,0,L|225:340,1,50,8|8,0:3|0:3,0:0:0:0:
161,197,13428,2,0,L|225:210,1,50,8|0,0:2|0:0,0:0:0:0:
281,64,13628,2,0,L|317:119,1,50,8|0,0:3|0:0,0:0:0:0:
421,357,13828,6,0,L|439:193,1,150,4|8,1:2|0:3,0:0:0:0:
437,207,14528,1,8,0:3:0:0:
388,287,14628,6,0,B|337:295|337:295|311:343|311:343|246:352,1,150,8|0,0:2|0:0,0:0:0:0:
133,257,15028,2,0,B|82:249|82:249|56:201|56:201|-9:192,1,150,0|0,1:2|0:0,0:0:0:0:
12,194,15428,1,2,0:0:0:0:
146,172,15628,6,0,L|195:167,1,50,8|8,0:3|0:3,0:0:0:0:
213,352,15828,2,0,L|227:224,1,100,0|2,1:2|0:0,0:0:0:0:
427,3,16228,5,8,0:2:0:0:
449,82,16428,2,0,L|462:146,1,50,8|8,0:3|0:3,0:0:0:0:
306,162,16628,5,8,0:3:0:0:
328,83,16828,1,2,0:0:0:0:
405,201,17028,6,0,B|278:170|350:282|193:235,1,200,0|2,1:2|0:0,0:0:0:0:
72,57,17628,1,8,0:3:0:0:
72,57,17728,1,8,0:3:0:0:
72,57,17828,2,0,P|121:55|142:125,1,100,8|0,0:2|1:2,0:0:0:0:
76,318,18228,2,0,P|27:320|6:250,1,100,0|0,1:2|0:0,0:0:0:0:
76,228,18628,5,8,0:3:0:0:
76,228,18728,1,8,0:3:0:0:
76,228,18828,2,0,P|118:237|153:237,1,50,8|8,0:3|0:3,0:0:0:0:
186,359,19028,2,0,P|272:372|306:381,1,100,0|0,1:2|0:0,0:0:0:0:
442,262,19328,1,8,0:3:0:0:
423,268,19428,6,0,B|391:287|391:287|409:387,1,100,8|0,0:2|1:2,0:0:0:0:
294,265,19828,2,0,L|362:281,1,50,8|0,0:2|0:0,0:0:0:0:
506,317,20028,1,8,0:3:0:0:
480,93,20228,6,0,B|473:43|298:52|314:113|370:215|116:151|184:-5|294:-3|319:45,1,389.999982147218,0|2,1:2|0:2,0:0:0:0:
356,111,20928,1,8,0:3:0:0:
364,120,21028,6,0,L|346:272,1,129.999994049073,8|2,0:2|0:2,0:0:0:0:
128,363,21428,1,0,1:2:0:0:
69,300,21628,1,2,0:2:0:0:
105,220,21828,6,0,B|277:232|136:344|366:340,1,259.999988098145,2|2,0:2|0:2,0:0:0:0:
512,146,22428,1,2,0:2:0:0:
462,64,22628,2,0,P|385:78|370:160,1,129.999994049073,8|0,0:2|1:2,0:0:0:0:
368,145,22928,1,8,0:3:0:0:
378,168,23028,1,2,0:2:0:0:
70,114,23228,1,2,0:2:0:0:
112,32,23428,6,0,B|161:39|161:39|177:67|177:67|260:83,1,129.999994049073,0|2,1:2|0:2,0:0:0:0:
457,152,23828,1,2,0:2:0:0:
286,263,24028,2,0,L|205:273,1,64.9999970245363,2|8,0:2|0:3,0:0:0:0:
460,133,24228,6,0,B|467:84|467:84|495:68|495:68|511:-15,1,129.999994049073,8|2,0:2|0:2,0:0:0:0:
286,283,24628,2,0,B|279:234|279:234|251:218|251:218|235:135,1,129.999994049073,0|2,1:2|0:2,0:0:0:0:
459,339,25028,1,2,0:2:0:0:
459,339,25128,1,2,0:2:0:0:
459,339,25228,2,0,P|425:322|380:327,1,64.9999970245363,0|0,1:2|0:0,0:0:0:0:
179,317,25428,6,0,P|233:293|308:409,1,194.999991073609,8|2,0:2|0:2,0:0:0:0:
316,378,25828,6,0,L|329:336,1,25,8|0,0:2|0:0,0:0:0:0:
294,278,26028,2,0,L|333:256,1,25,2|2,0:2|0:2,0:0:0:0:
467,217,26228,6,0,L|451:165,1,50,8|2,0:2|0:2,0:0:0:0:
493,93,26428,2,0,L|445:67,1,50,2|2,0:2|0:2,0:0:0:0:
187,21,26628,6,0,B|158:34|158:34|236:125|236:125|259:37,1,200,4|2,1:2|0:2,0:0:0:0:
248,78,27128,1,2,0:2:0:0:
248,78,27228,2,0,L|334:61,1,50,2|2,0:2|0:2,0:0:0:0:
203,267,27428,6,0,P|127:259|105:174,1,150,8|0,0:2|0:0,0:0:0:0:
91,322,27828,2,0,P|135:260|220:283,1,150,0|0,1:2|0:0,0:0:0:0:
99,198,28228,2,0,P|130:267|67:329,1,150,2|8,0:2|1:3,0:0:0:0:
79,331,28528,1,8,0:3:0:0:
65,338,28628,1,0,1:2:0:0:
42,100,28828,6,0,L|132:115,1,50,2|2,0:2|0:2,0:0:0:0:
308,157,29028,5,8,0:2:0:0:
320,72,29228,1,2,0:2:0:0:
470,279,29428,6,0,L|461:161,1,100,2|2,0:0|0:2,0:0:0:0:
462,169,29728,1,2,0:2:0:0:
460,159,29828,2,0,B|418:177|418:177|422:190|422:190|363:213,1,100,0|0,1:2|1:2,0:0:0:0:
207,361,30228,5,2,0:2:0:0:
88,273,30428,2,0,L|149:254,1,50,2|8,0:2|0:3,0:0:0:0:
220,235,30628,5,8,0:2:0:0:
108,355,30828,1,0,1:2:0:0:
23,138,31028,5,0,1:2:0:0:
135,258,31228,1,2,0:2:0:0:
252,164,31428,6,0,P|263:84|261:38,1,100,2|8,0:2|1:3,0:0:0:0:
260,55,31728,1,8,0:3:0:0:
256,45,31828,1,0,1:2:0:0:
123,115,32028,2,0,P|152:112|201:104,1,50,2|2,0:2|0:2,0:0:0:0:
368,83,32228,5,8,0:2:0:0:
447,122,32428,1,0,1:2:0:0:
432,357,32628,5,0,1:2:0:0:
511,318,32828,2,0,L|493:256,1,50,8|2,0:3|0:2,0:0:0:0:
360,220,33028,6,0,P|268:235|0:391,1,389.999982147218,0|0,1:2|1:2,0:0:0:0:
49,220,33828,2,0,B|210:230|94:349|315:335,1,259.999988098145,8|0,0:2|1:2,0:0:0:0:
391,292,34428,1,2,0:2:0:0:
432,205,34628,5,2,0:2:0:0:
204,150,34828,1,0,1:2:0:0:
245,237,35028,1,0,1:2:0:0:
309,163,35228,1,2,0:2:0:0:
165,66,35428,6,0,P|71:83|-1:131,1,129.999994049073,8|0,0:2|1:2,0:0:0:0:
13,248,35828,2,0,P|35:174|31:141,1,64.9999970245363,2|0,0:2|0:0,0:0:0:0:
35,0,36028,1,2,0:2:0:0:
207,169,36228,6,0,B|328:158|253:90|393:91,1,194.999991073609,0|0,1:2|0:0,0:0:0:0:
392,103,36628,1,2,0:2:0:0:
492,201,36828,2,0,P|491:240|478:287,1,64.9999970245363,0|8,1:2|0:3,0:0:0:0:
344,371,37028,6,0,P|326:297|322:234,1,129.999994049073,8|2,0:2|0:2,0:0:0:0:
184,41,37428,2,0,P|200:103|206:168,1,129.999994049073,0|2,1:2|0:2,0:0:0:0:
129,346,37828,1,2,0:2:0:0:
15,271,38028,1,0,1:2:0:0:
15,271,38128,1,8,0:3:0:0:
15,271,38228,6,0,B|69:260|69:260|88:268|88:268|181:242,1,129.999994049073,8|0,0:2|1:2,0:0:0:0:
140,253,38528,1,8,0:3:0:0:
212,300,38628,6,0,P|222:273|222:262,1,25,8|0,0:2|0:0,0:0:0:0:
301,258,38828,2,0,P|289:231|281:224,1,25,0|8,1:2|0:3,0:0:0:0:
125,166,39028,6,0,P|111:132|112:117,1,50,8|0,0:2|0:0,0:0:0:0:
11,112,39228,2,0,P|25:78|36:68,1,50,0|8,1:2|0:3,0:0:0:0:
213,186,39428,6,0,B|394:221|291:42|456:55,1,300,4|0,1:2|0:0,0:0:0:0:
493,150,42628,5,8,0:2:0:0:
485,133,42828,1,0,0:0:0:0:
406,198,43028,5,8,0:2:0:0:
414,181,43228,1,0,0:0:0:0:
498,265,43428,5,8,0:2:0:0:
490,248,43628,1,0,0:0:0:0:
411,313,43828,5,8,0:2:0:0:
419,296,44028,1,0,0:0:0:0:
256,233,44228,5,8,0:2:0:0:
340,252,44428,1,0,0:0:0:0:
142,368,44628,5,8,0:2:0:0:
226,349,44828,2,0,L|232:324,1,25,8|8,0:3|0:3,0:0:0:0:
184,174,45028,6,0,L|181:155,6,12.5,8|8|8|8|8|8|8,0:2|0:3|0:3|0:3|0:3|0:3|0:3,0:0:0:0:
122,242,45428,5,8,0:2:0:0:
38,261,45628,1,0,0:0:0:0:
314,383,45828,6,0,L|334:197,1,150,4|0,1:2|0:0,0:0:0:0:
330,233,46228,1,8,0:2:0:0:
427,294,46428,1,8,0:3:0:0:
427,294,46528,1,8,0:3:0:0:
427,294,46628,6,0,B|469:286|469:286|485:297|485:297|529:287,1,100,8|0,0:2|0:0,0:0:0:0:
452,198,47028,1,8,0:2:0:0:
452,198,47228,1,0,0:0:0:0:
284,305,47428,6,0,P|224:297|175:279,1,100,8|8,0:2|0:3,0:0:0:0:
184,274,47728,1,8,0:3:0:0:
181,264,47828,1,8,0:2:0:0:
134,346,48028,1,0,0:0:0:0:
58,259,48228,6,0,L|37:394,1,100,8|8,0:2|0:3,0:0:0:0:
52,356,48528,1,8,0:3:0:0:
61,355,48628,1,8,0:2:0:0:
0,197,48828,1,0,0:0:0:0:
91,122,49028,6,0,B|179:138|132:186|234:192,1,150,8|0,0:2|0:0,0:0:0:0:
227,184,49428,1,8,0:2:0:0:
322,32,49628,1,0,0:0:0:0:
512,17,49828,6,0,B|376:41|448:115|291:125,1,225.000008583069,8|0,0:2|0:0,0:0:0:0:
306,119,50228,1,8,0:2:0:0:
220,64,50428,1,0,0:0:0:0:
472,207,50628,6,0,L|469:223,1,15
459,220,51028,2,0,L|461:206,1,10
413,299,51428,6,0,B|416:319|416:319|425:328|425:328|429:370,4,50,8|8|8|8|8,0:3|0:3|0:3|0:3|0:3,0:0:0:0:
32,226,51828,6,0,P|198:195|323:307,1,350,8|0,0:2|0:0,0:0:0:0:
311,384,52228,6,0,P|332:322|390:374,1,150,4|0,1:2|0:0,0:0:0:0:
482,365,52628,6,0,P|487:335|500:293,1,50,2|2,0:2|0:2,0:0:0:0:
382,240,52828,2,0,P|377:210|364:168,1,50,2|2,0:2|0:2,0:0:0:0:
351,113,53028,1,8,0:2:0:0:
495,294,53228,1,2,0:2:0:0:
510,149,53428,6,0,B|413:138|464:217|327:182,1,150,0|0,1:2|0:0,0:0:0:0:
351,192,53828,1,2,0:2:0:0:
495,245,54028,1,8,0:2:0:0:
376,99,54228,1,0,1:2:0:0:
286,257,54428,1,2,0:2:0:0:
381,376,54628,6,0,L|393:255,1,100,8|2,0:2|0:2,0:0:0:0:
351,192,55028,1,2,0:2:0:0:
109,308,55228,1,0,1:2:0:0:
41,218,55428,6,0,B|102:206|102:206|119:173|119:173|178:160,1,150,0|0,1:2|0:0,0:0:0:0:
188,158,55828,2,0,L|203:96,1,50,2|2,0:2|0:2,0:0:0:0:
30,87,56028,2,0,L|45:149,1,50,2|8,0:2|0:3,0:0:0:0:
81,308,56228,1,8,0:2:0:0:
119,89,56428,1,2,0:2:0:0:
309,260,56628,6,0,B|411:237|411:237|418:162,1,150,0|0,1:2|0:0,0:0:0:0:
417,171,57028,1,2,0:2:0:0:
385,358,57228,1,0,1:2:0:0:
198,326,57428,1,0,1:2:0:0:
230,139,57628,1,2,0:2:0:0:
230,139,57728,1,2,0:2:0:0:
230,139,57828,6,0,L|220:29,1,100,8|2,0:2|0:2,0:0:0:0:
76,72,58228,2,0,L|138:81,1,50,0|2,1:2|0:2,0:0:0:0:
316,109,58428,1,8,0:2:0:0:
64,319,58628,6,0,B|153:312|97:245|198:235,1,150,0|0,1:2|0:0,0:0:0:0:
197,238,59028,2,0,P|207:269|190:318,1,50,2|2,0:2|0:2,0:0:0:0:
285,317,59228,2,0,P|270:345|223:368,1,50,2|2,0:2|0:2,0:0:0:0:
53,235,59428,1,8,0:2:0:0:
167,366,59628,1,2,0:2:0:0:
287,215,59828,6,0,L|302:92,1,100,0|2,1:2|0:2,0:0:0:0:
414,104,60228,1,2,0:2:0:0:
179,144,60428,2,0,L|123:134,1,50,8|2,0:2|0:2,0:0:0:0:
429,118,60628,1,0,1:2:0:0:
297,237,60828,1,2,0:2:0:0:
269,10,61028,6,0,L|281:109,1,100,8|2,0:2|0:2,0:0:0:0:
295,122,61328,1,2,0:2:0:0:
309,135,61428,1,2,0:2:0:0:
392,71,61628,2,0,L|400:33,2,25,0|2|2,1:2|0:2|0:2,0:0:0:0:
502,246,61828,6,0,P|459:228|383:290,1,150,0|0,1:2|0:0,0:0:0:0:
383,304,62228,1,2,0:2:0:0:
180,242,62428,2,0,L|119:256,1,50,0|8,0:0|0:3,0:0:0:0:
322,371,62628,1,8,0:2:0:0:
238,164,62828,1,2,0:2:0:0:
58,279,63028,6,0,L|238:309,1,150,0|0,1:2|0:0,0:0:0:0:
216,320,63428,1,2,0:2:0:0:
358,127,63628,1,8,0:3:0:0:
300,271,63828,1,0,1:2:0:0:
158,78,64028,2,0,L|165:144,1,50,0|2,1:2|0:2,0:0:0:0:
175,216,64228,5,8,0:2:0:0:
446,169,64428,1,0,1:2:0:0:
446,169,64528,1,8,0:3:0:0:
446,169,64628,6,0,B|477:176|477:176|483:186|483:186|527:195,1,75.0000028610231,0|8,1:2|0:3,0:0:0:0:
310,365,64828,2,0,B|350:355|350:355|357:343|357:343|413:331,1,100,8|2,0:2|0:2,0:0:0:0:
297,213,65028,6,0,B|135:189|220:378|-44:279,1,300,4|0,1:2|0:0,0:0:0:0:
21,286,65428,6,0,P|13:254|35:222,1,50,2|2,0:2|0:2,0:0:0:0:
0,163,65628,2,0,P|16:134|55:127,1,50,2|2,0:2|0:2,0:0:0:0:
90,352,65828,1,8,0:2:0:0:
95,191,66028,1,2,0:2:0:0:
283,333,66228,6,0,B|190:331|228:268|123:266,1,150,0|0,1:2|0:0,0:0:0:0:
142,285,66628,1,2,0:2:0:0:
397,229,66828,2,0,L|410:273,2,25,0|2|2,1:0|0:2|0:2,0:0:0:0:
164,65,67028,2,0,L|151:109,2,25,0|0|2,1:2|0:0|0:2,0:0:0:0:
279,34,67228,1,2,0:2:0:0:
279,34,67328,1,2,0:2:0:0:
279,34,67428,6,0,P|342:22|385:104,1,150,8|2,0:2|0:2,0:0:0:0:
387,84,67828,6,0,L|448:76,1,50,0|0,1:2|0:0,0:0:0:0:
204,183,68028,2,0,L|179:179,2,25,0|2|2,1:2|0:2|0:2,0:0:0:0:
309,247,68228,6,0,B|366:237|366:237|391:258|391:258|463:245,1,150,0|0,1:2|0:0,0:0:0:0:
449,247,68628,2,0,L|441:302,1,50,2|2,0:2|0:2,0:0:0:0:
338,378,68828,2,0,L|330:323,1,50,0|8,1:2|0:3,0:0:0:0:
296,155,69028,1,8,0:2:0:0:
214,337,69228,1,2,0:2:0:0:
13,243,69428,6,0,P|60:190|140:235,1,150,0|0,1:2|0:0,0:0:0:0:
136,229,69828,1,2,0:2:0:0:
304,352,70028,2,0,L|310:396,2,25,0|2|2,1:2|0:2|0:2,0:0:0:0:
470,171,70228,2,0,L|514:165,2,25,0|0|2,1:2|0:0|0:2,0:0:0:0:
396,105,70428,2,0,L|352:99,2,25,2|2|2,0:2|0:2|0:2,0:0:0:0:
394,295,70628,6,0,L|376:185,1,100,8|8,0:2|0:2,0:0:0:0:
358,192,70928,1,2,0:2:0:0:
338,189,71028,2,0,L|280:177,1,50,0|2,1:2|0:2,0:0:0:0:
481,266,71228,1,0,1:2:0:0:
264,371,71428,6,0,P|251:313|231:248,1,100,0|2,1:2|0:2,0:0:0:0:
149,102,71828,2,0,P|121:113|86:141,1,50,2|2,0:2|0:2,0:0:0:0:
31,85,72028,2,0,P|19:112|14:157,1,50,2|2,0:2|0:2,0:0:0:0:
67,208,72228,1,8,0:2:0:0:
198,31,72428,1,2,0:2:0:0:
295,204,72628,6,0,P|359:188|360:82,1,150,0|0,1:2|0:0,0:0:0:0:
372,86,73028,1,2,0:2:0:0:
436,326,73228,2,0,P|431:345|426:361,2,25,0|2|2,1:2|0:2|0:2,0:0:0:0:
467,69,73428,2,0,P|467:94|461:133,1,50,0|2,1:2|0:2,0:0:0:0:
297,253,73628,2,0,P|297:228|291:189,1,50,2|2,0:2|0:2,0:0:0:0:
264,26,73828,6,0,P|323:18|363:117,1,150,8|2,0:2|0:2,0:0:0:0:
358,106,74228,1,2,0:2:0:0:
172,22,74428,2,0,L|161:-10,2,25,0|2|2,1:2|0:2|0:2,0:0:0:0:
40,193,74628,6,0,B|127:214|94:147|205:165,2,150.000005722046,0|2|2,1:2|0:2|0:2,0:0:0:0:
30,175,75128,1,2,0:2:0:0:
21,156,75228,2,0,L|28:96,1,50,2|8,0:2|0:3,0:0:0:0:
170,249,75428,1,8,0:2:0:0:
42,357,75628,1,2,0:2:0:0:
269,300,75828,6,0,L|291:139,1,150,0|0,1:2|0:0,0:0:0:0:
294,132,76228,1,2,0:2:0:0:
170,249,76428,2,0,L|126:259,2,25,8|2|2,0:2|0:2|0:2,0:0:0:0:
356,49,76628,2,0,L|400:59,2,25,0|0|2,1:2|0:0|0:2,0:0:0:0:
108,32,76828,2,0,L|98:-12,2,25,0|2|2,1:2|0:2|0:2,0:0:0:0:
33,174,77028,6,0,L|99:154,1,50,8|0,0:2|0:0,0:0:0:0:
168,134,77228,1,8,0:2:0:0:
168,134,77328,1,8,0:3:0:0:
168,134,77428,6,0,B|187:153|187:153|163:219,1,75.0000028610231,0|0,1:2|1:2,0:0:0:0:
51,384,77628,2,0,B|27:360|27:360|57:280,1,100,8|8,0:2|0:2,0:0:0:0:
158,295,77828,6,0,L|241:307,2,75,4|0|0,1:2|0:0|0:0,0:0:0:0:
317,368,78628,2,0,L|391:357,2,75,8|0|0,0:2|0:0|0:0,0:0:0:0:
232,305,79428,5,8,0:2:0:0:
206,221,79728,2,0,P|161:208|129:198,1,75
304,155,80228,5,8,0:2:0:0:
330,71,80528,2,0,P|375:58|407:48,1,75,0|2,0:0|0:2,0:0:0:0:
410,54,80928,1,2,0:2:0:0:
417,63,81028,5,8,0:2:0:0:
504,60,81328,1,0,0:0:0:0:
462,138,81628,1,0,0:0:0:0:
142,170,81828,5,8,0:2:0:0:
177,29,82128,1,0,0:0:0:0:
281,130,82428,1,0,0:0:0:0:
197,111,82628,6,0,L|208:-2,1,100,8|0,0:2|0:0,0:0:0:0:
223,4,83228,1,0,0:0:0:0:
106,148,83428,5,8,0:2:0:0:
246,215,83628,1,0,0:0:0:0:
159,290,83828,1,0,0:0:0:0:
197,366,84028,1,2,0:2:0:0:
197,366,84128,1,2,0:2:0:0:
197,366,84228,6,0,P|232:356|281:351,2,75,10|0|2,0:2|0:0|0:2,0:0:0:0:
115,286,85028,2,0,P|80:276|31:271,2,75,8|0|2,0:2|0:0|0:2,0:0:0:0:
185,249,85728,1,2,0:2:0:0:
191,241,85828,6,0,P|205:199|206:153,2,75,8|0|2,0:2|0:0|0:2,0:0:0:0:
115,201,86628,2,0,P|101:159|99:136,2,50,8|2|8,0:2|0:2|0:2,0:0:0:0:
301,184,87228,1,2,0:2:0:0:
301,184,87328,1,2,0:2:0:0:
301,184,87428,6,0,L|340:176,2,25,8|2|2,0:2|0:2|0:2,0:0:0:0:
369,245,87728,2,0,L|408:253,2,25,0|8|0,0:0|0:2|0:0,0:0:0:0:
415,170,88028,2,0,L|454:162,1,25,2|0,0:2|0:0,0:0:0:0:
473,246,88228,6,0,L|487:306,2,50,8|0|2,0:2|0:0|0:2,0:0:0:0:
325,178,88528,2,0,L|339:118,2,50,0|8|0,0:0|0:2|0:0,0:0:0:0:
193,249,88828,2,0,L|207:309,1,50
228,377,89028,5,8,0:2:0:0:
228,377,89428,1,0,0:0:0:0:
53,314,89828,5,8,0:2:0:0:
42,292,89928,1,8,0:1:0:0:
72,247,90028,5,4,0:3:0:0:
79,223,90128,1,4,0:3:0:0:
125,207,90228,6,0,B|156:201|156:201|166:206|166:206|215:194,1,75.0000028610231,8|0,0:2|0:0,0:0:0:0:
395,97,90428,2,0,B|435:104|435:104|449:98|449:98|491:108,1,100
380,357,90628,6,0,P|351:350|377:310,1,87.5,4|0,1:2|0:0,0:0:0:0:
375,377,91028,6,0,P|330:346|397:302,1,150.000005722046,2|8,0:0|0:3,0:0:0:0:
383,295,91328,1,8,0:3:0:0:
297,339,91428,6,0,B|183:323|183:323|181:273,1,150,8|0,0:2|0:0,0:0:0:0:
120,101,91828,2,0,B|6:117|6:117|4:151,1,150,0|0,1:2|0:0,0:0:0:0:
4,171,92228,1,2,0:0:0:0:
108,363,92428,6,0,L|34:344,1,50,8|8,0:3|0:3,0:0:0:0:
278,265,92628,2,0,L|150:295,1,100,0|2,1:2|0:0,0:0:0:0:
120,101,93028,5,8,0:2:0:0:
179,189,93228,2,0,L|194:124,1,50,8|8,0:3|0:3,0:0:0:0:
337,59,93428,5,8,0:3:0:0:
278,147,93628,1,2,0:0:0:0:
93,12,93828,6,0,B|166:23|108:86|223:97,1,150,0|0,1:2|0:0,0:0:0:0:
222,79,94228,5,2,0:0:0:0:
96,153,94428,2,0,P|87:130|67:101,1,50,8|8,0:3|0:3,0:0:0:0:
163,225,94628,2,0,P|144:282|137:356,1,100,8|0,0:2|1:2,0:0:0:0:
33,361,95028,2,0,P|24:311|7:264,1,100,0|0,1:2|0:0,0:0:0:0:
241,309,95428,5,8,0:3:0:0:
241,309,95528,1,8,0:3:0:0:
241,309,95628,2,0,L|313:315,1,50,8|8,0:3|0:3,0:0:0:0:
254,172,95828,2,0,B|209:183|209:183|205:195|205:195|137:209,1,100,0|0,1:2|0:0,0:0:0:0:
164,203,96128,1,8,0:1:0:0:
249,259,96228,6,0,L|235:340,1,50,8|0,0:2|0:0,0:0:0:0:
343,152,96428,2,0,L|357:233,1,50,0|0,1:2|0:0,0:0:0:0:
146,118,96628,1,8,0:2:0:0:
380,35,96828,1,8,0:3:0:0:
490,307,97028,6,0,P|448:342|261:155,1,389.999982147218,0|2,1:2|0:2,0:0:0:0:
343,102,97728,1,8,0:3:0:0:
358,112,97828,6,0,B|432:126|379:167|493:179,1,129.999994049073,8|2,0:2|0:2,0:0:0:0:
485,87,98228,1,0,1:2:0:0:
336,198,98428,1,2,0:2:0:0:
89,71,98628,6,0,B|63:16|134:-35|232:27|178:120|119:199,1,259.999988098145,2|2,0:2|0:2,0:0:0:0:
67,223,99228,1,2,0:2:0:0:
149,363,99428,2,0,P|184:317|127:241,1,129.999994049073,8|0,0:2|1:2,0:0:0:0:
150,262,99728,1,8,0:3:0:0:
140,270,99828,1,2,0:2:0:0:
5,331,100028,2,0,L|69:320,1,64.9999970245363,2|0,0:2|0:0,0:0:0:0:
249,220,100228,6,0,B|316:242|316:242|331:296|331:296|414:322,1,194.999991073609,0|0,1:2|0:0,0:0:0:0:
423,328,100628,1,2,0:2:0:0:
476,220,100828,2,0,L|385:232,1,64.9999970245363,2|8,0:2|0:3,0:0:0:0:
238,300,101028,6,0,B|215:322|204:355|204:355|202:318|169:253,1,129.999994049073,8|2,0:2|0:2,0:0:0:0:
84,82,101428,2,0,B|61:60|50:27|50:27|48:64|15:129,1,129.999994049073,0|2,1:2|0:2,0:0:0:0:
17,248,101828,1,2,0:2:0:0:
17,248,101928,1,2,0:2:0:0:
17,248,102028,2,0,P|51:245|74:217,1,64.9999970245363,0|0,1:2|0:0,0:0:0:0:
183,139,102228,6,0,B|306:156|208:214|365:229,1,194.999991073609,8|2,0:2|0:2,0:0:0:0:
400,56,102628,6,0,L|396:93,1,25,8|0,0:2|0:0,0:0:0:0:
301,84,102828,2,0,L|324:112,1,25,2|2,0:2|0:2,0:0:0:0:
211,231,103028,6,0,L|281:238,1,50,8|2,0:2|0:2,0:0:0:0:
271,384,103228,2,0,L|326:339,1,50,2|2,0:2|0:2,0:0:0:0:
491,207,103428,6,0,B|417:232|417:232|410:253|410:253|359:269,1,150,4|0,1:2|0:0,0:0:0:0:
328,188,103828,6,0,B|348:170|348:170|336:205,1,50,2|2,0:2|0:2,0:0:0:0:
275,323,104028,2,0,B|295:341|295:341|283:306,1,50,2|2,0:2|0:2,0:0:0:0:
62,127,104228,6,0,B|89:58|89:58|127:127,1,150,8|0,0:2|0:0,0:0:0:0:
62,260,104628,2,0,B|-11:271|-11:271|29:203,1,150,0|0,1:2|0:0,0:0:0:0:
178,194,105028,2,0,B|224:251|224:251|145:250,1,150,2|8,0:2|0:3,0:0:0:0:
148,265,105328,1,8,0:3:0:0:
146,279,105428,6,0,L|142:315,3,25,0|2|2|2,1:2|0:2|0:2|0:2,0:0:0:0:
171,32,105828,5,8,0:2:0:0:
332,171,106028,2,0,L|384:159,1,50,2|2,0:2|0:2,0:0:0:0:
418,90,106228,1,2,0:0:0:0:
287,243,106428,2,0,L|284:267,2,25,2|2|2,0:2|0:2|0:2,0:0:0:0:
217,191,106628,5,0,1:2:0:0:
276,357,106828,1,0,1:2:0:0:
377,278,107028,5,2,0:2:0:0:
463,254,107228,2,0,L|516:264,1,50,2|8,0:2|0:3,0:0:0:0:
369,370,107428,5,8,0:2:0:0:
284,267,107628,1,0,1:2:0:0:
387,182,107828,1,0,1:2:0:0:
472,285,108028,1,2,0:2:0:0:
377,278,108228,5,2,0:2:0:0:
377,278,108428,2,0,L|367:208,1,50,8|8,1:3|0:3,0:0:0:0:
271,48,108628,5,0,1:2:0:0:
271,48,108728,1,2,0:2:0:0:
271,48,108828,2,0,L|264:90,2,25,2|2|2,0:2|0:2|0:2,0:0:0:0:
350,27,109028,5,8,0:2:0:0:
195,96,109228,2,0,L|126:81,1,50,0|2,1:2|0:2,0:0:0:0:
347,156,109428,5,0,1:2:0:0:
118,237,109628,1,8,0:3:0:0:
118,237,109728,1,2,0:2:0:0:
118,237,109828,6,0,B|53:253|49:303|67:363|158:363|229:331|165:246|282:233|374:309,1,389.999982147218,0|0,1:2|1:2,0:0:0:0:
444,351,110528,1,8,0:3:0:0:
456,368,110628,6,0,P|485:297|443:258,1,129.999994049073,8|2,0:2|0:2,0:0:0:0:
189,108,111028,1,0,1:2:0:0:
215,195,111228,1,2,0:2:0:0:
278,129,111428,6,0,P|277:71|266:-5,1,129.999994049073,2|0,0:2|1:2,0:0:0:0:
260,10,111728,1,8,0:3:0:0:
255,22,111828,1,0,1:2:0:0:
371,73,112028,1,2,0:2:0:0:
215,195,112228,6,0,B|170:205|170:205|158:245|158:245|79:260,1,129.999994049073,8|0,0:2|1:2,0:0:0:0:
37,362,112528,1,8,0:3:0:0:
28,352,112628,2,0,L|38:287,1,64.9999970245363,2|0,0:2|0:0,0:0:0:0:
118,148,112828,2,0,L|128:212,1,64.9999970245363,2|0,0:2|0:0,0:0:0:0:
264,355,113028,6,0,B|320:344|320:344|346:184,1,194.999991073609,0|0,1:2|0:0,0:0:0:0:
345,195,113428,1,2,0:2:0:0:
235,21,113628,2,0,P|211:59|226:96,1,64.9999970245363,0|8,1:2|0:3,0:0:0:0:
268,151,113828,6,0,P|319:106|397:128,1,129.999994049073,8|2,0:2|0:2,0:0:0:0:
422,241,114228,2,0,P|370:285|292:263,1,129.999994049073,0|2,1:2|0:2,0:0:0:0:
345,195,114628,1,2,0:2:0:0:
229,353,114828,6,0,L|219:298,1,50,0|8,1:2|0:3,0:0:0:0:
109,321,115028,2,0,L|140:275,1,50,8|0,0:2|0:0,0:0:0:0:
46,213,115228,2,0,L|100:203,1,50,0|8,1:2|0:3,0:0:0:0:
252,364,115428,6,0,L|231:251,1,100,8|0,0:2|0:0,0:0:0:0:
46,188,115628,2,0,L|25:300,1,100,8|8,0:2|0:3,0:0:0:0:
272,379,115828,6,0,L|313:389,2,25,8|8|8,0:3|0:3|0:3,0:0:0:0:
44,164,116028,2,0,L|3:154,2,25,8|8|8,0:2|0:3|0:3,0:0:0:0:
136,279,116228,5,4,1:2:0:0:
385,131,117028,5,8,0:2:0:0:
367,56,117228,1,0,0:0:0:0:
332,187,117428,1,0,0:0:0:0:
460,152,117628,1,0,0:0:0:0:
354,53,117828,6,0,L|286:35,1,50
464,168,118228,2,0,L|512:155,1,50
328,200,118628,5,8,0:2:0:0:
308,286,118828,1,0,0:0:0:0:
213,367,119028,5,0,0:0:0:0:
193,281,119228,1,0,0:0:0:0:
117,220,119428,6,0,L|34:202,1,75
40,191,119828,2,0,L|81:182,1,37.5,0|8,0:0|0:1,0:0:0:0:
153,163,120228,5,8,0:2:0:0:
155,151,120328,1,0,0:0:0:0:
241,238,120628,5,0,0:0:0:0:
243,250,120728,1,0,0:0:0:0:
329,163,121028,5,0,0:0:0:0:
327,151,121128,1,0,0:0:0:0:
417,238,121428,5,0,0:0:0:0:
415,250,121528,1,0,0:0:0:0:
501,158,121728,1,8,0:1:0:0:
488,155,121828,5,8,0:2:0:0:
417,238,122028,1,0,0:0:0:0:
327,151,122228,1,0,0:0:0:0:
243,250,122428,1,0,0:0:0:0:
155,151,122628,6,0,L|162:96,1,50
49,89,123028,2,0,L|65:219,1,100
140,343,123428,5,8,0:2:0:0:
122,254,123628,1,0,0:0:0:0:
34,271,123828,1,0,0:0:0:0:
51,360,124028,1,0,0:0:0:0:
125,240,124228,6,0,L|181:228,1,50
289,371,124628,2,0,L|345:383,1,50
486,221,125028,5,8,0:2:0:0:
467,308,125228,1,0,0:0:0:0:
271,205,125428,5,0,0:0:0:0:
252,118,125628,1,0,0:0:0:0:
404,56,125828,6,0,L|385:176,1,100
369,307,126528,5,8,0:1:0:0:
367,294,126628,1,8,0:2:0:0:
365,281,126728,1,0,0:0:0:0:
175,227,127028,6,0,B|209:220|209:220|217:226|217:226|265:217,1,75
246,220,127428,6,0,L|252:174,4,37.5000014305115,0|0|0|0|0,1:2|0:0|0:0|0:0|1:2,0:0:0:0:
136,302,127728,5,0,0:0:0:0:
133,315,127828,2,0,B|104:330|104:330|128:397,1,75.0000028610231,0|0,1:2|0:0,0:0:0:0:
288,364,128028,2,0,B|317:349|317:349|293:282,1,75.0000028610231,0|0,1:2|0:0,0:0:0:0:
213,327,128228,6,0,L|208:362,3,25
196,177,129028,5,0,0:0:0:0:
192,188,129161,2,0,L|109:206,1,66.6666666666667
289,230,129428,5,0,0:0:0:0:
293,241,129561,2,0,L|376:259,1,66.6666666666667
280,33,129828,5,8,0:2:0:0:
276,66,129961,1,0,0:0:0:0:
273,99,130094,1,0,0:0:0:0:
270,132,130228,6,0,L|253:0,1,133.333333333333,0|0,1:2|0:0,0:0:0:0:
94,44,130628,5,2,0:2:0:0:
172,27,130761,1,0,0:0:0:0:
145,98,130894,1,0,0:0:0:0:
67,161,131028,5,0,1:2:0:0:
145,178,131161,1,0,0:0:0:0:
118,107,131294,1,0,0:0:0:0:
100,203,131428,5,8,0:2:0:0:
94,235,131561,1,0,0:0:0:0:
87,267,131694,1,0,0:0:0:0:
83,296,131828,6,0,B|91:339|91:339|103:341|103:341|112:395,1,100,2|0,0:2|1:2,0:0:0:0:
313,285,132228,5,0,1:2:0:0:
283,362,132361,1,0,0:0:0:0:
232,298,132494,1,0,0:0:0:0:
285,194,132628,5,2,0:2:0:0:
315,271,132761,1,0,0:0:0:0:
366,207,132894,1,0,0:0:0:0:
269,121,133028,5,8,0:2:0:0:
245,267,133161,1,0,0:0:0:0:
383,214,133294,1,0,0:0:0:0:
299,197,133428,6,0,P|322:272|337:360,1,133.333333333333,0|0,1:2|0:0,0:0:0:0:
485,372,133828,5,2,0:2:0:0:
429,312,133961,1,0,0:0:0:0:
489,257,134094,1,0,0:0:0:0:
414,216,134228,5,0,1:2:0:0:
470,156,134361,1,0,0:0:0:0:
410,101,134494,1,0,0:0:0:0:
474,50,134628,5,8,0:2:0:0:
417,186,134761,1,0,0:0:0:0:
326,68,134894,1,0,0:0:0:0:
410,101,135028,5,0,1:2:0:0:
410,101,135228,2,0,L|334:113,1,50,8|8,0:3|0:3,0:0:0:0:
135,133,135428,5,0,1:2:0:0:
138,113,135561,1,0,0:0:0:0:
143,92,135694,1,0,0:0:0:0:
208,131,135828,5,0,1:2:0:0:
132,153,135961,1,0,0:0:0:0:
56,175,136094,1,0,0:0:0:0:
104,85,136228,5,8,0:2:0:0:
128,168,136361,1,0,0:0:0:0:
152,252,136494,1,0,0:0:0:0:
277,130,136628,6,0,B|234:122|234:122|230:108|230:108|187:101,1,100,0|2,1:2|0:2,0:0:0:0:
387,265,137028,5,0,1:2:0:0:
384,245,137161,1,0,0:0:0:0:
379,224,137294,1,0,0:0:0:0:
314,263,137428,5,0,1:2:0:0:
390,285,137561,1,0,0:0:0:0:
466,307,137694,1,0,0:0:0:0:
418,217,137828,5,8,0:2:0:0:
394,300,137961,1,0,0:0:0:0:
370,384,138094,1,0,0:0:0:0:
245,262,138228,6,0,B|288:254|288:254|292:240|292:240|335:233,1,100,8|2,0:2|0:2,0:0:0:0:
509,73,138628,5,0,1:2:0:0:
336,86,138761,1,0,0:0:0:0:
511,86,138894,1,0,0:0:0:0:
338,73,139028,1,0,1:2:0:0:
429,175,139428,5,8,0:2:0:0:
416,2,139561,1,0,0:0:0:0:
416,177,139694,1,0,0:0:0:0:
429,4,139828,1,0,1:2:0:0:
336,221,140228,5,0,1:2:0:0:
264,242,140361,1,0,0:0:0:0:
199,204,140494,1,0,0:0:0:0:
178,134,140628,1,0,1:2:0:0:
158,63,140761,1,0,0:0:0:0:
92,29,140894,1,0,0:0:0:0:
22,49,141027,5,8,0:2:0:0:
125,352,141228,1,8,0:2:0:0:
125,352,141328,1,0,1:2:0:0:
125,352,141428,6,0,B|135:324|135:324|126:303|126:303|139:249,1,75.0000028610231,8|8,0:2|0:2,0:0:0:0:
325,126,141628,2,0,B|335:156|335:156|326:179|326:179|340:239,1,100,8|8,0:2|0:2,0:0:0:0:
422,331,141828,6,0,L|501:348,2,75,4|0|0,1:2|0:0|0:0,0:0:0:0:
439,240,142628,2,0,L|518:223,2,75
397,158,143428,5,0,0:0:0:0:
414,54,143728,2,0,P|426:110|435:145,1,75
321,232,144228,5,0,0:0:0:0:
304,128,144528,2,0,P|292:184|283:219,1,75,0|2,0:0|0:2,0:0:0:0:
277,208,144928,1,2,0:2:0:0:
267,215,145028,5,2,0:2:0:0:
169,202,145328,1,0,0:0:0:0:
71,189,145628,1,0,0:0:0:0:
13,370,145828,5,0,0:0:0:0:
111,357,146128,1,0,0:0:0:0:
209,344,146428,1,0,0:0:0:0:
138,279,146628,5,0,0:0:0:0:
138,279,147028,2,0,L|127:350,1,50,8|0,0:2|0:0,0:0:0:0:
61,233,147428,5,0,0:0:0:0:
204,185,147628,1,0,0:0:0:0:
297,238,147828,1,8,0:2:0:0:
364,186,148028,1,2,0:2:0:0:
364,186,148128,1,2,0:2:0:0:
364,186,148228,6,0,L|456:172,2,75,2|0|0,0:2|0:0|0:0,0:0:0:0:
295,126,149028,2,0,L|203:112,2,75,8|0|0,0:2|0:0|0:0,0:0:0:0:
398,72,149828,6,0,P|409:43|452:18,2,75,8|0|0,0:2|0:0|0:0,0:0:0:0:
319,41,150628,2,0,P|308:12|282:-8,2,50,8|0|8,0:2|0:0|0:2,0:0:0:0:
254,95,151228,1,2,0:2:0:0:
254,95,151328,1,2,0:2:0:0:
254,95,151428,5,8,0:2:0:0:
140,48,151728,2,0,L|66:60,1,75
0,202,152228,5,8,0:2:0:0:
114,155,152528,2,0,L|187:167,1,75
69,380,153028,6,0,B|48:326|124:317|84:239,1,150,8|0,0:2|0:0,0:0:0:0:
123,305,153828,6,0,L|182:315,1,50,8|0,0:2|0:0,0:0:0:0:
250,365,154228,5,8,0:2:0:0:
285,320,154328,1,0,0:0:0:0:
337,298,154428,1,2,0:2:0:0:
395,303,154528,1,2,0:2:0:0:
440,338,154628,6,0,P|439:358|434:382,1,33.3333333333333,8|0,0:2|0:0,0:0:0:0:
337,298,155028,5,8,0:2:0:0:
335,289,155161,1,0,0:0:0:0:
333,280,155294,1,0,0:0:0:0:
271,225,155428,5,8,0:2:0:0:
273,216,155561,1,0,0:0:0:0:
276,208,155694,1,0,0:0:0:0:
368,157,155828,5,8,0:2:0:0:
359,159,155961,1,0,0:0:0:0:
350,161,156094,1,0,0:0:0:0:
275,102,156228,6,0,L|302:106,2,16.6666666666667,8|0|0,0:2|0:0|0:0,0:0:0:0:
87,69,156628,5,8,0:2:0:0:
147,133,156761,1,0,0:0:0:0:
177,50,156894,1,0,0:0:0:0:
137,88,157028,6,0,L|131:136,1,33.3333333333333,8|0,0:2|0:0,0:0:0:0:
108,222,157428,5,8,0:2:0:0:
48,286,157561,1,0,0:0:0:0:
18,203,157694,1,0,0:0:0:0:
58,241,157828,6,0,L|64:289,1,33.3333333333333,8|0,0:2|0:0,0:0:0:0:
196,370,158228,5,8,0:2:0:0:
221,292,158361,1,0,0:0:0:0:
293,254,158494,1,0,0:0:0:0:
375,262,158628,6,0,P|389:281|393:297,1,33.3333333333333,8|0,0:2|0:0,0:0:0:0:
404,312,159028,5,8,0:2:0:0:
379,234,159161,1,0,0:0:0:0:
307,196,159294,1,0,0:0:0:0:
225,204,159428,6,0,P|211:223|207:239,1,33.3333333333333,8|0,0:2|0:0,0:0:0:0:
204,253,159828,5,8,0:2:0:0:
229,175,159961,1,0,0:0:0:0:
301,137,160094,1,0,0:0:0:0:
383,145,160228,6,0,P|397:164|401:180,1,33.3333333333333,8|0,0:2|0:0,0:0:0:0:
475,322,160628,5,8,0:2:0:0:
390,345,160761,1,0,0:0:0:0:
411,260,160894,1,0,0:0:0:0:
425,307,161028,5,0,0:0:0:0:
