osu file format v14

[General]
AudioFilename: audio.mp3
AudioLeadIn: 0
PreviewTime: 51677
Countdown: 0
SampleSet: Soft
StackLeniency: 0.4
Mode: 0
LetterboxInBreaks: 0
EpilepsyWarning: 1
WidescreenStoryboard: 1

[Editor]
Bookmarks: 1028,13828,26628,39428,52228,65028,77828,90628,103428,116228,129028,141828,154628,161028
DistanceSpacing: 0.5
BeatDivisor: 8
GridSize: 32
TimelineZoom: 4.099999

[Metadata]
Title:THE BADDEST feat. (G)I-DLE, Bea Miller, Wolftyla
TitleUnicode:THE BADDEST feat. (G)I-DLE, Bea Miller, Wolftyla
Artist:K/DA
ArtistUnicode:K/DA
Creator:Elinor
Version:Kujinn's Drip
Source:League of Legends
Tags:kujinn reform mir rosiie [_eli_] eli kda lol english korean pop k-pop kpop ahri evelynn kaisa kai'sa akali riot games miyeon soyeon (여자)아이들 gidle g_idle
BeatmapID:2590758
BeatmapSetID:1246447

[Difficulty]
HPDrainRate:5.2
CircleSize:4
OverallDifficulty:9
ApproachRate:9.4
SliderMultiplier:2.2
SliderTickRate:1

[Events]
//Background and Video events
0,0,"bg.jpg",0,0
//Break Periods
//Storyboard Layer 0 (Background)
//Storyboard Layer 1 (Fail)
//Storyboard Layer 2 (Pass)
//Storyboard Layer 3 (Foreground)
Sprite,Foreground,Centre,"sb\glow.png",0,0 C,0,65028,,82,237,254 M,0,65028,65078,80,362,128.6691,352.9686 F,2,65028,65577,1,0 S,2,65028,65577,0.4,0.08 P,0,65028,65577,A M,0,65078,65128,128.6691,352.9686,177.1439,343.6875 M,0,65128,65178,177.1439,343.6875,197.8498,298.7262 M,0,65178,65228,197.8498,298.7262,227.5123,265.768 M,0,65228,65278,227.5123,265.768,276.5077,258.7183 M,0,65278,65327,276.5077,258.7183,325.5031,251.6686
Sprite,Foreground,Centre,"sb\glow.png",386,303 C,0,65428,,200,146,254 F,2,65428,65678,1,0 S,2,65428,65678,0.4,0.08 P,0,65428,65678,A
Sprite,Foreground,Centre,"sb\glow.png",399,300 C,0,65528,,200,146,254 F,2,65528,65778,1,0 S,2,65528,65778,0.4,0.08 P,0,65528,65778,A
Sprite,Foreground,Centre,"sb\glow.png",481,244 C,0,65628,,255,255,89 F,2,65628,65878,1,0 S,2,65628,65878,0.4,0.08 P,0,65628,65878,A
Sprite,Foreground,Centre,"sb\glow.png",468,241 C,0,65728,,255,255,89 F,2,65728,65978,1,0 S,2,65728,65978,0.4,0.08 P,0,65728,65978,A
Sprite,Foreground,Centre,"sb\glow.png",0,0 C,0,65828,,255,128,230 M,0,65828,65878,390,107,396.7549,144.9028 F,2,65828,66177,1,0 S,2,65828,66177,0.4,0.08 P,0,65828,66177,A M,0,65878,65927,396.7549,144.9028,403.5099,182.8055
Sprite,Foreground,Centre,"sb\glow.png",0,0 C,0,66028,,255,128,230 M,0,66028,66078,372,378,378.4912,340.0512 F,2,66028,66377,1,0 S,2,66028,66377,0.4,0.08 P,0,66028,66377,A M,0,66078,66127,378.4912,340.0512,384.9825,302.1024
Sprite,Foreground,Centre,"sb\glow.png",0,0 C,0,66228,,82,237,254 M,0,66228,66278,208,136,216.3373,88.47984 F,2,66228,66777,1,0 S,2,66228,66777,0.4,0.08 P,0,66228,66777,A M,0,66278,66328,216.3373,88.47984,180.43,59.45793 M,0,66328,66378,180.43,59.45793,137.9199,81.09116 M,0,66378,66428,137.9199,81.09116,120.3623,126.6521 M,0,66428,66478,120.3623,126.6521,126.9079,175.2817 M,0,66478,66527,126.9079,175.2817,154.0985,216.1234
Sprite,Foreground,Centre,"sb\glow.png",0,0 C,0,66628,,200,146,254 M,0,66628,66678,285,277,247.9199,270.2209 F,2,66628,66977,1,0 S,2,66628,66977,0.4,0.08 P,0,66628,66977,A M,0,66678,66727,247.9199,270.2209,213.7469,286.0316
Sprite,Foreground,Centre,"sb\glow.png",0,0 C,0,66828,,200,146,254 M,0,66828,66878,159,420,180.3207,388.8798 F,2,66828,67177,1,0 S,2,66828,67177,0.4,0.08 P,0,66828,67177,A M,0,66878,66927,180.3207,388.8798,159,420
Sprite,Foreground,Centre,"sb\glow.png",0,0 C,0,67028,,200,146,254 M,0,67028,67078,64,252,76.13474,287.629 F,2,67028,67377,1,0 S,2,67028,67377,0.4,0.08 P,0,67028,67377,A M,0,67078,67127,76.13474,287.629,107.0057,309.0633
Sprite,Foreground,Centre,"sb\glow.png",364,381 C,0,67228,,255,255,89 F,2,67228,67478,1,0 S,2,67228,67478,0.4,0.08 P,0,67228,67478,A
Sprite,Foreground,Centre,"sb\glow.png",346,371 C,0,67328,,255,255,89 F,2,67328,67578,1,0 S,2,67328,67578,0.4,0.08 P,0,67328,67578,A
Sprite,Foreground,Centre,"sb\glow.png",0,0 C,0,67428,,255,255,89 M,0,67428,67478,331,363,290.6486,391.6707 F,2,67428,67977,1,0 S,2,67428,67977,0.4,0.08 P,0,67428,67977,A M,0,67478,67528,290.6486,391.6707,256.2901,411.377 M,0,67528,67578,256.2901,411.377,267.3596,363.1306 M,0,67578,67628,267.3596,363.1306,278.4292,314.8842 M,0,67628,67678,278.4292,314.8842,289.4987,266.6378 M,0,67678,67727,289.4987,266.6378,300.5682,218.3914
Sprite,Foreground,Centre,"sb\glow.png",0,0 C,0,67828,,255,255,89 M,0,67828,67878,478,109,448.0311,133.1685 F,2,67828,68177,1,0 S,2,67828,68177,0.4,0.08 P,0,67828,68177,A M,0,67878,67927,448.0311,133.1685,411.255,123.7871
Sprite,Foreground,Centre,"sb\glow.png",0,0 C,0,68028,,255,255,89 M,0,68028,68078,253,82,215.9813,71.42323 F,2,68028,68377,1,0 S,2,68028,68377,0.4,0.08 P,0,68028,68377,A M,0,68078,68127,215.9813,71.42323,253,82
Sprite,Foreground,Centre,"sb\glow.png",0,0 C,0,68228,,255,128,230 M,0,68228,68278,575,130,536.7894,161.4675 F,2,68228,68777,1,0 S,2,68228,68777,0.4,0.08 P,0,68228,68777,A M,0,68278,68328,536.7894,161.4675,498.5789,192.935 M,0,68328,68378,498.5789,192.935,471.0216,224.2796 M,0,68378,68428,471.0216,224.2796,427.1782,205.4626 M,0,68428,68478,427.1782,205.4626,379.4943,192.1775 M,0,68478,68527,379.4943,192.1775,331.8104,178.8924
Sprite,Foreground,Centre,"sb\glow.png",0,0 C,0,68628,,255,128,230 M,0,68628,68678,283,249,320.0187,259.5768 F,2,68628,68977,1,0 S,2,68628,68977,0.4,0.08 P,0,68628,68977,A M,0,68678,68727,320.0187,259.5768,357.0374,270.1535
Sprite,Foreground,Centre,"sb\glow.png",456,409 C,0,68828,,255,128,230 F,2,68828,69078,1,0 S,2,68828,69078,0.4,0.08 P,0,68828,69078,A
Sprite,Foreground,Centre,"sb\glow.png",468,405 C,0,68928,,255,128,230 F,2,68928,69178,1,0 S,2,68928,69178,0.4,0.08 P,0,68928,69178,A
Sprite,Foreground,Centre,"sb\glow.png",0,0 C,0,69028,,255,128,230 M,0,69028,69078,480,402,470.3532,364.7282 F,2,69028,69377,1,0 S,2,69028,69377,0.4,0.08 P,0,69028,69377,A M,0,69078,69127,470.3532,364.7282,460.7064,327.4564
Sprite,Foreground,Centre,"sb\glow.png",0,0 C,0,69228,,255,128,230 M,0,69228,69278,527,173,499.1207,199.5517 F,2,69228,69577,1,0 S,2,69228,69577,0.4,0.08 P,0,69228,69577,A M,0,69278,69327,499.1207,199.5517,471.2414,226.1035
Sprite,Foreground,Centre,"sb\glow.png",0,0 C,0,69428,,82,237,254 M,0,69428,69478,202,379,173.7959,338.321 F,2,69428,69977,1,0 S,2,69428,69977,0.4,0.08 P,0,69428,69977,A M,0,69478,69528,173.7959,338.321,157.4084,306.2297 M,0,69528,69578,157.4084,306.2297,204.8081,320.4956 M,0,69578,69628,204.8081,320.4956,252.2078,334.7616 M,0,69628,69678,252.2078,334.7616,292.0351,346.4249 M,0,69678,69727,292.0351,346.4249,339.5421,360.3294
Sprite,Foreground,Centre,"sb\glow.png",0,0 C,0,69828,,200,146,254 M,0,69828,69878,66,325,64.23643,287.222 F,2,69828,70177,1,0 S,2,69828,70177,0.4,0.08 P,0,69828,70177,A M,0,69878,69927,64.23643,287.222,82.93566,254.3344
Sprite,Foreground,Centre,"sb\glow.png",0,0 C,0,70028,,200,146,254 M,0,70028,70078,247,207,209.1743,214.1738 F,2,70028,70377,1,0 S,2,70028,70377,0.4,0.08 P,0,70028,70377,A M,0,70078,70127,209.1743,214.1738,247,207
Sprite,Foreground,Centre,"sb\glow.png",0,0 C,0,70228,,255,255,89 M,0,70228,70278,103,96,101.2364,133.778 F,2,70228,70577,1,0 S,2,70228,70577,0.4,0.08 P,0,70228,70577,A M,0,70278,70327,101.2364,133.778,119.9357,166.6656
Sprite,Foreground,Centre,"sb\glow.png",0,0 C,0,70428,,255,255,89 M,0,70428,70478,284,214,246.1743,206.8262 F,2,70428,70777,1,0 S,2,70428,70777,0.4,0.08 P,0,70428,70777,A M,0,70478,70527,246.1743,206.8262,284,214
Sprite,Foreground,Centre,"sb\glow.png",0,0 C,0,70628,,255,128,230 M,0,70628,70678,396,86,403.7537,123.7111 F,2,70628,70977,1,0 S,2,70628,70977,0.4,0.08 P,0,70628,70977,A M,0,70678,70727,403.7537,123.7111,411.5074,161.4223
Sprite,Foreground,Centre,"sb\glow.png",0,0 C,0,70828,,82,237,254 M,0,70828,70878,492,312,498.3994,279.6264 F,2,70828,71177,1,0 S,2,70828,71177,0.4,0.08 P,0,70828,71177,A M,0,70878,70927,498.3994,279.6264,504.7989,247.2529
Sprite,Foreground,Centre,"sb\glow.png",0,0 C,0,71028,,200,146,254 M,0,71028,71078,433,101,428.1786,128.0741 F,2,71028,71378,1,0 S,2,71028,71378,0.4,0.08 P,0,71028,71378,A M,0,71078,71128,428.1786,128.0741,423.3572,155.1481
Sprite,Foreground,Centre,"sb\glow.png",0,0 C,0,71228,,255,255,89 M,0,71228,71278,521,298,517.1984,276.3309 F,2,71228,71578,1,0 S,2,71228,71578,0.4,0.08 P,0,71228,71578,A M,0,71278,71328,517.1984,276.3309,513.3969,254.6619
Sprite,Foreground,Centre,"sb\glow.png",0,0 C,0,71428,,255,128,230 M,0,71428,71478,378,398,350.6089,357.0583 F,2,71428,71977,1,0 S,2,71428,71977,0.4,0.08 P,0,71428,71977,A M,0,71478,71528,350.6089,357.0583,309.7971,329.6946 M,0,71528,71578,309.7971,329.6946,261.5747,319.5619 M,0,71578,71628,261.5747,319.5619,212.246,322.4313 M,0,71628,71678,212.246,322.4313,235.016,347.6024 M,0,71678,71727,235.016,347.6024,256.7391,391.6056
Sprite,Foreground,Centre,"sb\glow.png",166,400 C,0,71828,,82,237,254 F,2,71828,72078,1,0 S,2,71828,72078,0.4,0.08 P,0,71828,72078,A
Sprite,Foreground,Centre,"sb\glow.png",146,393 C,0,71928,,82,237,254 F,2,71928,72178,1,0 S,2,71928,72178,0.4,0.08 P,0,71928,72178,A
Sprite,Foreground,Centre,"sb\glow.png",83,326 C,0,72028,,200,146,254 F,2,72028,72278,1,0 S,2,72028,72278,0.4,0.08 P,0,72028,72278,A
Sprite,Foreground,Centre,"sb\glow.png",103,319 C,0,72128,,200,146,254 F,2,72128,72378,1,0 S,2,72128,72378,0.4,0.08 P,0,72128,72378,A
Sprite,Foreground,Centre,"sb\glow.png",0,0 C,0,72228,,255,255,89 M,0,72228,72278,159,255,164.0019,219.6017 F,2,72228,72577,1,0 S,2,72228,72577,0.4,0.08 P,0,72228,72577,A M,0,72278,72327,164.0019,219.6017,169.0039,184.2033
Sprite,Foreground,Centre,"sb\glow.png",0,0 C,0,72428,,255,255,89 M,0,72428,72478,249,70,254.0558,105.3907 F,2,72428,72777,1,0 S,2,72428,72777,0.4,0.08 P,0,72428,72777,A M,0,72478,72527,254.0558,105.3907,259,140
Sprite,Foreground,Centre,"sb\glow.png",0,0 C,0,72628,,255,128,230 M,0,72628,72678,424,313,377.5383,330.0749 F,2,72628,73177,1,0 S,2,72628,73177,0.4,0.08 P,0,72628,73177,A M,0,72678,72728,377.5383,330.0749,330.9754,346.8719 M,0,72728,72778,330.9754,346.8719,334.7663,306.9626 M,0,72778,72828,334.7663,306.9626,345.968,258.7467 M,0,72828,72878,345.968,258.7467,361.8908,214.1215 M,0,72878,72927,361.8908,214.1215,373.4428,165.9883
Sprite,Foreground,Centre,"sb\glow.png",0,0 C,0,73028,,255,128,230 M,0,73028,73078,480,56,460.601,89.25549 F,2,73028,73377,1,0 S,2,73028,73377,0.4,0.08 P,0,73028,73377,A M,0,73078,73127,460.601,89.25549,475.6801,123.1362
Sprite,Foreground,Centre,"sb\glow.png",0,0 C,0,73228,,255,128,230 M,0,73228,73278,539,199,576.9307,205.5966 F,2,73228,73577,1,0 S,2,73228,73577,0.4,0.08 P,0,73228,73577,A M,0,73278,73327,576.9307,205.5966,539,199
Sprite,Foreground,Centre,"sb\glow.png",0,0 C,0,73428,,255,128,230 M,0,73428,73478,492,343,511.399,309.7445 F,2,73428,73777,1,0 S,2,73428,73777,0.4,0.08 P,0,73428,73777,A M,0,73478,73527,511.399,309.7445,496.3199,275.8638
Sprite,Foreground,Centre,"sb\glow.png",199,325 C,0,73628,,82,237,254 F,2,73628,73878,1,0 S,2,73628,73878,0.4,0.08 P,0,73628,73878,A
Sprite,Foreground,Centre,"sb\glow.png",182,320 C,0,73728,,82,237,254 F,2,73728,73978,1,0 S,2,73728,73978,0.4,0.08 P,0,73728,73978,A
Sprite,Foreground,Centre,"sb\glow.png",0,0 C,0,73828,,200,146,254 M,0,73828,73878,166,314,208.0961,288.9309 F,2,73828,74377,1,0 S,2,73828,74377,0.4,0.08 P,0,73828,74377,A M,0,73878,73928,208.0961,288.9309,256.803,291.1569 M,0,73928,73978,256.803,291.1569,297.3084,310.0748 M,0,73978,74028,297.3084,310.0748,330.8931,330.8214 M,0,74028,74078,330.8931,330.8214,379.53,334.4136 M,0,74078,74127,379.53,334.4136,423.5694,312.6413
Sprite,Foreground,Centre,"sb\glow.png",0,0 C,0,74228,,255,255,89 M,0,74228,74278,285,129,268.6276,162.8829 F,2,74228,74577,1,0 S,2,74228,74577,0.4,0.08 P,0,74228,74577,A M,0,74278,74327,268.6276,162.8829,275.6407,199.8508
Sprite,Foreground,Centre,"sb\glow.png",0,0 C,0,74428,,255,255,89 M,0,74428,74478,399,111,406.2952,73.19749 F,2,74428,74777,1,0 S,2,74428,74777,0.4,0.08 P,0,74428,74777,A M,0,74478,74527,406.2952,73.19749,399,111
Sprite,Foreground,Centre,"sb\glow.png",0,0 C,0,74628,,255,128,230 M,0,74628,74678,504,234,461.1239,215.2065 F,2,74628,74977,1,0 S,2,74628,74977,0.4,0.08 P,0,74628,74977,A M,0,74678,74727,461.1239,215.2065,416.2057,198.1993
Sprite,Foreground,Centre,"sb\glow.png",0,0 C,0,74828,,255,128,230 M,0,74828,74878,325,305,279.8701,321.2165 F,2,74828,75177,1,0 S,2,74828,75177,0.4,0.08 P,0,74828,75177,A M,0,74878,74927,279.8701,321.2165,237,340
Sprite,Foreground,Centre,"sb\glow.png",0,0 C,0,75028,,255,128,230 M,0,75028,75078,103,151,140.493,154.7632 F,2,75028,75377,1,0 S,2,75028,75377,0.4,0.08 P,0,75028,75377,A M,0,75078,75127,140.493,154.7632,168.6352,179.6224
Sprite,Foreground,Centre,"sb\glow.png",129,315 C,0,75228,,255,128,230 F,2,75228,75478,1,0 S,2,75228,75478,0.4,0.08 P,0,75228,75478,A
Sprite,Foreground,Centre,"sb\glow.png",116,326 C,0,75328,,255,128,230 F,2,75328,75578,1,0 S,2,75328,75578,0.4,0.08 P,0,75328,75578,A
Sprite,Foreground,Centre,"sb\glow.png",0,0 C,0,75428,,255,128,230 M,0,75428,75478,106,335,97.37032,297.4796 F,2,75428,75777,1,0 S,2,75428,75777,0.4,0.08 P,0,75428,75777,A M,0,75478,75527,97.37032,297.4796,88.74063,259.9593
Sprite,Foreground,Centre,"sb\glow.png",0,0 C,0,75628,,255,128,230 M,0,75628,75678,287,141,278.0151,178.4369 F,2,75628,75977,1,0 S,2,75628,75977,0.4,0.08 P,0,75628,75977,A M,0,75678,75727,278.0151,178.4369,269.0303,215.8738
Sprite,Foreground,Centre,"sb\glow.png",0,0 C,0,75828,,82,237,254 M,0,75828,75878,390,352,421.1115,390.1638 F,2,75828,76377,1,0 S,2,75828,76377,0.4,0.08 P,0,75828,76377,A M,0,75878,75928,421.1115,390.1638,464.4036,413.2919 M,0,75928,75978,464.4036,413.2919,512.9615,410.9708 M,0,75978,76028,512.9615,410.9708,542.8485,374.3015 M,0,76028,76078,542.8485,374.3015,522.6135,332.2598 M,0,76078,76127,522.6135,332.2598,476.2311,336.3431
Sprite,Foreground,Centre,"sb\glow.png",0,0 C,0,76228,,200,146,254 M,0,76228,76278,333,416,295.0564,409.4784 F,2,76228,76577,1,0 S,2,76228,76577,0.4,0.08 P,0,76228,76577,A M,0,76278,76327,295.0564,409.4784,333,416
Sprite,Foreground,Centre,"sb\glow.png",0,0 C,0,76428,,200,146,254 M,0,76428,76478,265,332,251.1371,296.0825 F,2,76428,76777,1,0 S,2,76428,76777,0.4,0.08 P,0,76428,76777,A M,0,76478,76527,251.1371,296.0825,265,332
Sprite,Foreground,Centre,"sb\glow.png",0,0 C,0,76628,,200,146,254 M,0,76628,76678,306,225,330.7629,195.5204 F,2,76628,76977,1,0 S,2,76628,76977,0.4,0.08 P,0,76628,76977,A M,0,76678,76727,330.7629,195.5204,306,225
Sprite,Foreground,Centre,"sb\glow.png",0,0 C,0,76828,,200,146,254 M,0,76828,76878,404,246,441.6544,254.0247 F,2,76828,77177,1,0 S,2,76828,77177,0.4,0.08 P,0,76828,77177,A M,0,76878,76927,441.6544,254.0247,404,246
Sprite,Foreground,Centre,"sb\glow.png",360,348 C,0,77028,,200,146,254 F,2,77028,77278,1,0 S,2,77028,77278,0.4,0.08 P,0,77028,77278,A
Sprite,Foreground,Centre,"sb\glow.png",478,167 C,0,77228,,255,255,89 F,2,77228,77478,1,0 S,2,77228,77478,0.4,0.08 P,0,77228,77478,A
Sprite,Foreground,Centre,"sb\glow.png",453,165 C,0,77328,,255,255,89 F,2,77328,77578,1,0 S,2,77328,77578,0.4,0.08 P,0,77328,77578,A
Sprite,Foreground,Centre,"sb\glow.png",0,0 C,0,77428,,255,128,230 M,0,77428,77478,347,120,337.8439,65.76749 F,2,77428,77728,1,0 S,2,77428,77728,0.4,0.08 P,0,77428,77728,A
Sprite,Foreground,Centre,"sb\glow.png",0,0 C,0,77528,,82,237,254 M,0,77528,77578,332,110,322.8439,55.76749 F,2,77528,77828,1,0 S,2,77528,77828,0.4,0.08 P,0,77528,77828,A
Sprite,Foreground,Centre,"sb\glow.png",0,0 C,0,77628,,200,146,254 M,0,77628,77678,255,169,245.8439,223.2325 F,2,77628,77928,1,0 S,2,77628,77928,0.4,0.08 P,0,77628,77928,A
Sprite,Foreground,Centre,"sb\glow.png",0,0 C,0,77728,,255,255,89 M,0,77728,77778,238,175,228.8439,229.2325 F,2,77728,78028,1,0 S,2,77728,78028,0.4,0.08 P,0,77728,78028,A
//Storyboard Layer 4 (Overlay)
//Storyboard Sound Samples

[TimingPoints]
1028,400,4,2,22,100,1,0
1028,-153.846153846153,4,2,22,60,0,0
12428,-95.2380952380949,4,2,22,60,0,0
13028,-95.2380952380949,4,2,22,80,0,0
13828,-62.5,4,2,22,90,0,1
14628,-83.3333333333333,4,2,22,90,0,1
15628,-45.4545454545455,4,2,22,90,0,1
16228,-83.3333333333333,4,2,22,90,0,1
17028,-62.5,4,2,22,90,0,1
18228,-83.3333333333333,4,2,22,90,0,1
18678,-83.3333333333333,4,2,22,5,0,1
18728,-83.3333333333333,4,2,22,90,0,1
18778,-83.3333333333333,4,2,22,5,0,1
18828,-83.3333333333333,4,2,22,90,0,1
18878,-83.3333333333333,4,2,22,5,0,1
18928,-83.3333333333333,4,2,22,90,0,1
18978,-83.3333333333333,4,2,22,5,0,1
19028,-71.4285714285714,4,2,22,90,0,1
19328,-71.4285714285714,4,2,2,90,0,1
19428,-55.5555555555556,4,2,22,90,0,1
19828,-45.4545454545455,4,2,6,90,0,1
20028,-45.4545454545455,4,2,22,90,0,1
20228,-62.5,4,2,22,90,0,1
25028,-83.3333333333333,4,2,22,90,0,1
25428,-71.4285714285714,4,2,22,90,0,1
25828,-55.5555555555556,4,2,22,90,0,1
26228,-55.5555555555556,4,2,22,90,0,1
26628,-71.4285714285714,4,2,22,90,0,1
27428,-83.3333333333333,4,2,22,90,0,1
29828,-55.5555555555556,4,2,22,90,0,1
31628,-100,4,2,22,90,0,1
32128,-100,4,2,22,90,0,1
32178,-100,4,2,22,90,0,1
32228,-55.5555555555556,4,2,22,90,0,1
32628,-45.4545454545455,4,2,22,90,0,1
33028,-62.5,4,2,22,90,0,1
38228,-83.3333333333333,4,2,22,90,0,1
38628,-71.4285714285714,4,2,22,90,0,1
39028,-55.5555555555556,4,2,22,90,0,1
39428,-142.857142857143,4,2,2,70,0,0
44428,-142.857142857143,4,2,22,70,0,0
44628,-142.857142857143,4,2,2,70,0,0
44828,-142.857142857143,4,2,22,70,0,0
45028,-142.857142857143,4,2,2,70,0,0
45078,-142.857142857143,4,2,22,70,0,0
45428,-142.857142857143,4,2,2,70,0,0
45828,-100,4,2,2,70,0,0
46228,-200,4,2,2,70,0,0
46428,-200,4,2,22,70,0,0
46628,-200,4,2,2,70,0,0
47428,-100,4,2,2,70,0,0
47628,-100,4,2,22,70,0,0
47828,-200,4,2,2,70,0,0
48428,-200,4,2,22,70,0,0
48628,-200,4,2,2,70,0,0
50628,-500,4,2,2,70,0,0
51428,-142.857142857143,4,2,22,70,0,0
51828,-40,4,2,22,70,0,0
52228,-76.9230769230769,4,2,22,80,0,0
53428,-55.5555555555556,4,2,22,80,0,0
53828,-76.9230769230769,4,2,22,80,0,0
54628,-55.5555555555556,4,2,22,80,0,0
55028,-76.9230769230769,4,2,22,80,0,0
55278,-76.9230769230769,4,2,2,80,0,0
55428,-55.5555555555556,4,2,22,80,0,0
55828,-76.9230769230769,4,2,22,80,0,0
56628,-55.5555555555556,4,2,22,80,0,0
57028,-76.9230769230769,4,2,22,80,0,0
57828,-55.5555555555556,4,2,22,80,0,0
60228,-76.9230769230769,4,2,22,80,0,0
61028,-55.5555555555556,4,2,22,80,0,0
61628,-76.9230769230769,4,2,22,80,0,0
61678,-76.9230769230769,4,2,2,80,0,0
61828,-55.5555555555556,4,2,22,80,0,0
62228,-76.9230769230769,4,2,22,80,0,0
63028,-55.5555555555556,4,2,22,80,0,0
63428,-76.9230769230769,4,2,22,80,0,0
64228,-55.5555555555556,4,2,22,80,0,0
64428,-55.5555555555556,4,2,22,80,0,0
64628,-55.5555555555556,4,2,22,80,0,0
64678,-55.5555555555556,4,2,22,5,0,0
64728,-55.5555555555556,4,2,22,80,0,0
64778,-55.5555555555556,4,2,22,5,0,0
64828,-55.5555555555556,4,2,22,80,0,0
64878,-55.5555555555556,4,2,22,5,0,0
64928,-55.5555555555556,4,2,22,80,0,0
64978,-55.5555555555556,4,2,22,5,0,0
65028,-55.5555555555556,4,2,22,80,0,0
65428,-71.4285714285714,4,2,22,80,0,0
66228,-55.5555555555556,4,2,22,80,0,0
66628,-71.4285714285714,4,2,22,80,0,0
67428,-55.5555555555556,4,2,4,80,0,0
67528,-55.5555555555556,4,2,22,80,0,0
67828,-71.4285714285714,4,2,22,80,0,0
68078,-71.4285714285714,4,2,2,80,0,0
68228,-55.5555555555556,4,2,22,80,0,0
68628,-71.4285714285714,4,2,22,80,0,0
69428,-55.5555555555556,4,2,22,80,0,0
69828,-71.4285714285714,4,2,22,80,0,0
70628,-71.4285714285714,4,2,4,80,0,0
70728,-71.4285714285714,4,2,4,80,0,0
70828,-83.3333333333333,4,2,4,80,0,0
70928,-83.3333333333333,4,2,22,80,0,0
71028,-100,4,2,22,80,0,0
71228,-125,4,2,22,80,0,0
71428,-55.5555555555556,4,2,22,80,0,0
72228,-76.9230769230769,4,2,22,80,0,0
72628,-55.5555555555556,4,2,22,80,0,0
73028,-71.4285714285714,4,2,22,80,0,0
73828,-55.5555555555556,4,2,4,80,0,0
73928,-55.5555555555556,4,2,22,80,0,0
74228,-71.4285714285714,4,2,22,80,0,0
74478,-71.4285714285714,4,2,2,80,0,0
74628,-55.5555555555556,4,2,22,80,0,0
75028,-71.4285714285714,4,2,22,80,0,0
75828,-55.5555555555556,4,2,22,80,0,0
76228,-71.4285714285714,4,2,22,80,0,0
76478,-71.4285714285714,4,2,2,80,0,0
76628,-71.4285714285714,4,2,22,80,0,0
76878,-71.4285714285714,4,2,2,80,0,0
77028,-71.4285714285714,4,2,22,80,0,0
77428,-50,4,2,22,80,0,0
77478,-50,4,2,22,5,0,0
77528,-50,4,2,22,80,0,0
77578,-50,4,2,22,5,0,0
77628,-50,4,2,22,80,0,0
77678,-50,4,2,22,5,0,0
77728,-50,4,2,22,80,0,0
77778,-50,4,2,22,5,0,0
77828,-142.857142857143,4,2,22,70,0,0
78228,-142.857142857143,4,2,2,70,0,0
89828,-142.857142857143,4,2,4,80,0,0
89928,-142.857142857143,4,2,22,80,0,0
90228,-83.3333333333334,4,2,22,80,0,0
90628,-62.5,4,2,22,90,0,1
91428,-83.3333333333333,4,2,22,90,0,1
92428,-45.4545454545455,4,2,22,90,0,1
93028,-83.3333333333333,4,2,22,90,0,1
93828,-62.5,4,2,22,90,0,1
95028,-83.3333333333333,4,2,22,90,0,1
95478,-83.3333333333333,4,2,22,5,0,1
95528,-83.3333333333333,4,2,22,90,0,1
95578,-83.3333333333333,4,2,22,5,0,1
95628,-83.3333333333333,4,2,22,90,0,1
95678,-83.3333333333333,4,2,22,5,0,1
95728,-83.3333333333333,4,2,22,90,0,1
95778,-83.3333333333333,4,2,22,5,0,1
95828,-71.4285714285714,4,2,22,90,0,1
96128,-71.4285714285714,4,2,22,90,0,1
96228,-55.5555555555556,4,2,22,90,0,1
96628,-45.4545454545455,4,2,6,90,0,1
96828,-45.4545454545455,4,2,22,90,0,1
97028,-62.5,4,2,22,90,0,1
101828,-83.3333333333333,4,2,22,90,0,1
102228,-71.4285714285714,4,2,22,90,0,1
102628,-55.5555555555556,4,2,22,90,0,1
103028,-55.5555555555556,4,2,22,90,0,1
103428,-71.4285714285714,4,2,22,90,0,1
104228,-83.3333333333333,4,2,22,90,0,1
106628,-55.5555555555556,4,2,22,90,0,1
108428,-100,4,2,22,90,0,1
109028,-55.5555555555556,4,2,22,90,0,1
109428,-45.4545454545455,4,2,22,90,0,1
109828,-62.5,4,2,22,90,0,1
114628,-71.4285714285714,4,2,22,90,0,1
115028,-55.5555555555556,4,2,22,90,0,1
115428,-45.4545454545455,4,2,22,90,0,1
115828,-71.4285714285714,4,2,22,90,0,1
116228,-142.857142857143,4,2,22,70,0,0
127428,-83.3333333333334,4,2,22,70,0,0
129028,-100,4,2,22,80,0,0
130428,-100,4,2,2,80,0,0
130628,-100,4,2,22,80,0,0
130928,-100,4,2,2,80,0,0
131028,-100,4,2,22,80,0,0
131228,-100,4,2,2,80,0,0
131428,-100,4,2,4,80,0,0
131528,-100,4,2,22,80,0,0
131628,-100,4,2,2,80,0,0
131828,-100,4,2,22,80,0,0
133628,-100,4,2,2,80,0,0
133828,-100,4,2,22,80,0,0
134628,-100,4,2,4,80,0,0
134728,-100,4,2,22,80,0,0
137828,-100,4,2,4,80,0,0
137928,-100,4,2,22,80,0,0
140228,-83.3333333333333,4,2,22,80,0,0
141428,-55.5555555555556,4,2,22,80,0,0
141478,-55.5555555555556,4,2,22,5,0,0
141528,-55.5555555555556,4,2,22,80,0,0
141578,-55.5555555555556,4,2,22,5,0,0
141628,-55.5555555555556,4,2,22,80,0,0
141678,-55.5555555555556,4,2,22,5,0,0
141728,-55.5555555555556,4,2,22,80,0,0
141778,-55.5555555555556,4,2,22,5,0,0
141828,-142.857142857143,4,2,22,80,0,0
142228,-142.857142857143,4,2,2,80,0,0
154628,-142.857142857143,4,2,2,60,0,0

[Colours]
Combo1 : 255,255,89
Combo2 : 255,128,230
Combo3 : 82,237,254
Combo4 : 200,146,254

[HitObjects]
134,297,12428,6,0,P|169:310|199:339,1,57.7499982376099
371,226,12628,2,0,P|342:250|324:287,1,57.7499982376099
189,149,12828,2,0,P|207:181|211:222,1,57.7499982376099
321,65,13028,1,8,0:3:0:0:
308,93,13128,1,8,0:3:0:0:
302,125,13228,1,8,0:3:0:0:
279,344,13428,1,8,0:2:0:0:
201,64,13628,1,8,0:3:0:0:
439,239,13828,6,0,B|515:173|595:287|555:378|406:405|338:301|383:263|334:214|216:223|184:302,1,528,4|8,1:2|0:3,0:0:0:0:
145,358,14528,5,8,0:3:0:0:
153,373,14628,2,0,B|189:331|189:331|154:221,1,131.99999597168,8|0,0:2|0:0,0:0:0:0:
0,238,15028,2,0,B|18:290|18:290|131:314,1,131.99999597168,0|0,1:2|0:0,0:0:0:0:
157,144,15428,2,0,P|125:150|100:196,1,65.9999979858399,2|0,0:0|0:0,0:0:0:0:
302,348,15628,6,0,B|268:275|341:297|293:199,1,121.000003692627,8|8,0:3|0:3,0:0:0:0:
103,174,15828,2,0,B|183:181|127:232|236:241,1,121.000003692627,0|0,1:2|0:0,0:0:0:0:
350,97,16028,2,0,B|303:162|286:88|225:178,1,121.000003692627,2|0,0:0|0:0,0:0:0:0:
378,334,16228,6,0,L|469:352,1,65.9999979858399,8|0,0:2|0:0,0:0:0:0:
328,242,16428,1,8,0:3:0:0:
328,242,16528,1,8,0:3:0:0:
328,242,16628,2,0,P|296:257|281:311,1,65.9999979858399,8|0,0:3|0:0,0:0:0:0:
438,256,16828,2,0,L|416:167,1,65.9999979858399,2|0,0:0|0:0,0:0:0:0:
170,111,17028,6,0,B|189:46|95:4|27:90|99:202|218:177|269:66,1,352,0|2,1:2|0:0,0:0:0:0:
444,10,17628,5,8,0:3:0:0:
453,31,17728,1,8,0:3:0:0:
460,49,17828,2,0,P|442:108|428:167,1,88,8|0,0:2|0:0,0:0:0:0:
296,188,18028,2,0,P|313:247|328:306,1,88,0|0,1:2|0:0,0:0:0:0:
475,331,18228,6,0,B|358:309|419:427|267:372,1,197.99999395752,0|0,1:2|0:0,0:0:0:0:
215,314,18628,6,0,L|224:270,1,32.99999899292,8|0,0:3|0:0,0:0:0:0:
207,308,18728,2,0,L|216:264,1,32.99999899292,8|0,0:3|0:0,0:0:0:0:
132,346,18828,6,0,L|141:390,1,32.99999899292,8|0,0:3|0:0,0:0:0:0:
124,352,18928,2,0,L|133:396,1,32.99999899292,8|0,0:3|0:0,0:0:0:0:
31,328,19028,6,0,L|13:244,1,76.9999976501466,0|0,1:2|0:0,0:0:0:0:
87,99,19228,1,0,0:0:0:0:
97,111,19328,1,8,0:3:0:0:
108,122,19428,2,0,P|76:145|14:138,1,98.9999969787599,8|0,0:2|0:0,0:0:0:0:
269,44,19628,2,0,P|237:21|169:28,1,98.9999969787599,0|0,1:2|0:0,0:0:0:0:
230,271,19828,6,0,B|221:225|221:225|238:200|238:200|225:131,1,121.000003692627,8|0,0:2|0:0,0:0:0:0:
408,43,20028,2,0,B|400:86|400:86|417:111|417:111|408:157,1,121.000003692627,8|0,0:3|0:0,0:0:0:0:
488,352,20228,6,0,B|439:221|307:249|307:249|323:332|392:349,1,352,0|2,1:2|0:2,0:0:0:0:
335,172,20828,1,2,0:2:0:0:
337,160,20928,1,8,0:3:0:0:
341,146,21028,2,0,P|427:148|495:201,1,176,8|2,0:2|0:2,0:0:0:0:
206,81,21428,2,0,P|244:72|291:19,1,88,0|0,1:2|0:0,0:0:0:0:
78,139,21628,2,0,P|116:148|163:201,1,88,2|0,0:2|0:0,0:0:0:0:
30,347,21828,6,0,B|14:261|14:261|20:251|20:251|2:150,1,176,2|2,0:2|0:2,0:0:0:0:
0,148,22128,1,8,0:3:0:0:
4,125,22228,2,0,L|23:210,1,88,2|0,0:2|0:0,0:0:0:0:
109,98,22428,2,0,L|137:-27,1,88,2|0,0:2|0:0,0:0:0:0:
218,222,22628,2,0,B|188:255|188:255|138:250,1,88,8|0,0:2|0:0,0:0:0:0:
218,105,22828,2,0,B|261:100|261:100|291:133,1,88,0|8,1:2|0:3,0:0:0:0:
335,313,23028,2,0,L|319:221,1,88,2|0,0:2|0:0,0:0:0:0:
473,113,23228,2,0,L|455:204,1,88,2|0,0:2|0:0,0:0:0:0:
294,384,23428,6,0,B|242:311|242:311|419:347,1,264,0|0,1:2|0:0,0:0:0:0:
501,290,23828,2,0,P|468:255|413:259,1,88,2|0,0:2|0:0,0:0:0:0:
259,215,24028,2,0,P|301:209|329:176,1,88,2|8,0:2|0:3,0:0:0:0:
416,43,24228,6,0,B|337:32|337:32|325:39|325:39|227:24,1,176,8|2,0:2|0:2,0:0:0:0:
0,165,24628,6,0,B|79:154|79:154|91:161|91:161|189:146,1,176,0|2,1:2|0:2,0:0:0:0:
393,349,25028,6,0,P|359:345|331:315,1,65.9999979858399,2|2,0:2|0:2,0:0:0:0:
355,381,25228,2,0,P|332:357|326:325,1,65.9999979858399,0|0,1:2|0:0,0:0:0:0:
205,292,25428,6,0,P|208:258|248:223,1,76.9999976501466,8|0,0:2|0:0,0:0:0:0:
163,235,25628,2,0,P|186:212|237:208,1,76.9999976501466,2|2,0:2|0:2,0:0:0:0:
293,94,25828,6,0,P|342:123|346:188,1,98.9999969787599,8|0,0:2|0:0,0:0:0:0:
371,57,26028,2,0,P|390:111|351:163,1,98.9999969787599,2|2,0:2|0:2,0:0:0:0:
83,73,26228,5,8,0:2:0:0:
101,81,26328,1,2,0:2:0:0:
170,188,26428,5,2,0:2:0:0:
152,196,26528,1,2,0:2:0:0:
52,316,26628,6,0,B|97:370|97:370|216:358|216:358|253:306|253:306|395:294|395:294|456:366,1,461.999985900879,4|2,1:2|0:2,0:0:0:0:
353,373,27328,5,2,0:2:0:0:
344,383,27428,2,0,B|336:318|336:318|339:311|339:311|329:231,1,131.99999597168,8|2,0:2|0:2,0:0:0:0:
496,94,27828,2,0,B|488:159|488:159|491:166|491:166|481:246,1,131.99999597168,0|2,1:2|0:2,0:0:0:0:
293,58,28228,2,0,P|325:36|362:40,1,65.9999979858399,2|0,0:2|0:0,0:0:0:0:
229,148,28428,2,0,L|186:136,2,32.99999899292,8|2|0,1:3|0:2|0:3,0:0:0:0:
69,55,28628,2,0,L|160:34,1,65.9999979858399,0|2,1:2|0:2,0:0:0:0:
141,232,28828,1,2,0:2:0:0:
134,221,28928,1,2,0:2:0:0:
128,210,29028,6,0,B|100:193|100:193|67:200,1,65.9999979858399,8|0,0:2|0:0,0:0:0:0:
199,353,29228,2,0,B|231:360|231:360|259:343,1,65.9999979858399,2|2,0:2|0:2,0:0:0:0:
338,153,29428,2,0,L|353:272,1,65.9999979858399,2|0,0:0|0:0,0:0:0:0:
461,333,29628,2,0,L|455:370,1,32.99999899292,2|2,0:2|0:2,0:0:0:0:
455,323,29728,2,0,L|449:360,1,32.99999899292,2|2,0:2|0:2,0:0:0:0:
448,314,29828,6,0,B|408:288|408:288|352:301,1,98.9999969787599,0|0,1:2|0:0,0:0:0:0:
151,192,30028,2,0,B|191:218|191:218|246:204,1,98.9999969787599,0|0,1:2|0:0,0:0:0:0:
400,53,30228,2,0,B|395:97|395:97|398:106|398:106|391:171,1,98.9999969787599,2|2,0:2|0:2,0:0:0:0:
241,325,30428,5,2,0:2:0:0:
239,308,30528,1,8,0:3:0:0:
235,293,30628,2,0,P|198:289|152:348,1,98.9999969787599,8|0,0:2|0:0,0:0:0:0:
240,205,30828,2,0,P|224:170|150:160,1,98.9999969787599,0|0,1:2|0:0,0:0:0:0:
333,203,31028,2,0,P|354:172|326:103,1,98.9999969787599,0|0,1:2|0:0,0:0:0:0:
360,286,31228,2,0,P|397:290|442:231,1,98.9999969787599,2|0,0:2|0:0,0:0:0:0:
307,379,31428,5,2,0:2:0:0:
307,379,31628,2,0,L|297:308,1,55,8|8,1:3|0:3,0:0:0:0:
292,232,31828,1,0,1:2:0:0:
292,232,31928,2,0,L|298:180,4,27.5,2|0|2|2|2,0:2|0:0|0:2|0:2|0:2,0:0:0:0:
168,119,32228,6,0,B|144:163|144:163|184:216,1,98.9999969787599,8|0,0:2|0:0,0:0:0:0:
302,47,32428,1,0,1:2:0:0:
303,58,32528,1,2,0:2:0:0:
303,68,32628,2,0,B|327:100|327:100|200:76,1,121.000003692627,0|2,1:2|0:2,0:0:0:0:
117,185,32828,2,0,B|93:217|93:217|220:193,1,121.000003692627,8|2,0:3|0:2,0:0:0:0:
477,313,33028,6,0,B|369:292|369:292|367:297|367:297|366:291|366:291|278:273|278:273|266:366|165:369,1,352,0|2,1:2|0:2,0:0:0:0:
167,123,33628,2,0,P|213:128|250:174,1,88,0|8,1:2|0:3,0:0:0:0:
188,366,33828,6,0,B|179:300|179:300|175:296|175:296|189:251|189:251|185:249|185:249|178:189,1,176,8|2,0:2|0:2,0:0:0:0:
354,47,34228,2,0,B|347:88|347:88|345:90|345:90|347:93|347:93|337:156,1,88,0|0,1:2|0:0,0:0:0:0:
475,233,34428,2,0,B|468:193|468:193|470:190|470:190|468:188|468:188|461:147,1,88,2|0,0:2|0:0,0:0:0:0:
270,353,34628,6,0,B|334:342|334:342|356:299|356:299|454:281,1,176,2|0,0:2|1:2,0:0:0:0:
475,233,34928,1,8,0:3:0:0:
480,222,35028,2,0,P|456:204|388:211,1,88,0|0,1:2|0:0,0:0:0:0:
396,72,35228,2,0,P|368:83|340:146,1,88,2|0,0:2|0:0,0:0:0:0:
225,72,35428,6,0,P|221:101|261:157,1,88,8|8,0:2|0:3,0:0:0:0:
470,93,35628,5,0,1:2:0:0:
476,75,35728,1,8,0:3:0:0:
481,57,35828,2,0,B|502:101|502:101|481:144,1,88,2|0,0:2|0:0,0:0:0:0:
405,282,36028,2,0,B|382:240|382:240|402:197,1,88,2|0,0:2|0:0,0:0:0:0:
512,320,36228,6,0,B|371:264|411:422|234:336,1,264,0|0,1:2|0:0,0:0:0:0:
177,206,36628,2,0,B|151:245|151:245|182:294,1,88,2|0,0:2|0:0,0:0:0:0:
288,131,36828,2,0,B|314:92|314:92|283:43,1,88,0|8,1:2|0:3,0:0:0:0:
52,52,37028,6,0,B|153:23|117:138|234:97,1,176,8|2,0:2|0:2,0:0:0:0:
328,227,37428,6,0,B|227:198|263:313|146:272,1,176,0|2,1:2|0:2,0:0:0:0:
349,379,37828,5,2,0:2:0:0:
450,187,38028,1,0,1:2:0:0:
450,187,38128,1,8,0:3:0:0:
450,187,38228,6,0,B|465:221|465:221|434:272,1,65.9999979858399,8|0,0:2|0:0,0:0:0:0:
362,126,38428,2,0,B|382:99|382:99|442:100,1,65.9999979858399,0|8,1:2|0:3,0:0:0:0:
238,306,38628,6,0,B|201:301|201:301|172:249,1,76.9999976501466,8|0,0:2|0:0,0:0:0:0:
355,291,38828,2,0,B|367:322|367:322|336:373,1,76.9999976501466,0|8,1:2|0:3,0:0:0:0:
230,45,39028,6,0,B|254:10|254:10|322:12,1,98.9999969787599,8|0,0:2|0:0,0:0:0:0:
186,170,39228,2,0,B|147:164|147:164|115:105,1,98.9999969787599,0|8,1:2|0:3,0:0:0:0:
436,15,39428,5,4,1:2:0:0:
439,32,39628,1,0,0:0:0:0:
433,156,39828,5,8,0:2:0:0:
436,139,40028,1,0,0:0:0:0:
341,236,40228,5,8,0:2:0:0:
370,381,40428,1,0,0:0:0:0:
343,211,40628,5,8,0:2:0:0:
348,180,40828,1,0,0:0:0:0:
266,277,41028,5,8,0:2:0:0:
241,290,41228,1,0,0:0:0:0:
411,295,41428,5,8,0:2:0:0:
436,308,41628,1,0,0:0:0:0:
353,154,41828,5,8,0:2:0:0:
331,327,42028,1,0,0:0:0:0:
237,190,42228,5,8,0:2:0:0:
203,178,42428,1,0,0:0:0:0:
49,294,42628,5,8,0:2:0:0:
83,282,42828,1,0,0:0:0:0:
101,93,43028,5,8,0:2:0:0:
94,128,43228,1,0,0:0:0:0:
234,348,43428,5,8,0:2:0:0:
203,178,43628,1,0,0:0:0:0:
310,286,43828,5,8,0:2:0:0:
279,116,44028,1,0,0:0:0:0:
350,38,44228,5,8,0:2:0:0:
356,67,44428,1,0,0:0:0:0:
393,247,44628,5,8,0:2:0:0:
417,349,44828,1,8,0:3:0:0:
417,349,44928,1,8,0:3:0:0:
417,349,45028,2,0,L|410:315,6,19.2499994125366,8|8|8|8|8|8|8,0:2|0:3|0:3|0:3|0:3|0:3|0:3,0:0:0:0:
464,267,45428,5,8,0:2:0:0:
339,291,45628,1,0,0:0:0:0:
139,138,45828,6,0,P|201:123|232:222,1,165,4|0,1:2|0:0,0:0:0:0:
213,273,46228,2,0,P|173:262|137:253,1,55,8|8,0:2|0:3,0:0:0:0:
79,295,46528,1,8,0:3:0:0:
87,308,46628,2,0,P|127:297|163:288,1,55,8|0,0:2|0:0,0:0:0:0:
256,198,47028,5,8,0:2:0:0:
378,256,47228,1,0,0:0:0:0:
477,89,47428,6,0,L|453:230,1,110,8|8,0:2|0:3,0:0:0:0:
465,289,47728,1,8,0:3:0:0:
471,278,47828,2,0,L|459:205,1,55,8|0,0:2|0:0,0:0:0:0:
377,94,48228,2,0,L|368:148,1,55,8|8,0:2|0:3,0:0:0:0:
317,311,48628,5,8,0:2:0:0:
254,153,48828,1,0,0:0:0:0:
149,284,49028,2,0,L|81:268,1,55,8|0,0:2|0:0,0:0:0:0:
221,358,49428,5,8,0:2:0:0:
158,200,49628,1,0,0:0:0:0:
53,331,49828,2,0,L|-15:315,1,55,8|0,0:2|0:0,0:0:0:0:
177,178,50228,5,8,0:2:0:0:
240,336,50428,1,0,0:0:0:0:
329,122,50628,6,0,L|335:95,1,22
321,76,50928,1,0,0:0:0:0:
321,76,51028,2,0,L|316:97,1,22
124,85,51428,6,0,L|134:50,6,19.2499994125366,8|8|8|8|8|8|0,0:3|0:3|0:3|0:3|0:3|0:3|0:0,0:0:0:0:
127,167,51828,6,0,B|148:242|217:266|288:246|348:171|318:71|268:37|183:42|156:105|199:176|245:190,1,412.5,8|0,0:2|0:0,0:0:0:0:
271,217,52228,6,0,B|383:177|350:310|483:263,1,214.49999018097,4|0,1:2|0:0,0:0:0:0:
511,191,52628,5,2,0:2:0:0:
497,188,52728,1,2,0:2:0:0:
437,117,52828,5,2,0:2:0:0:
451,114,52928,1,2,0:2:0:0:
512,28,53028,6,0,B|492:44|492:44|415:18,1,71.4999967269899,8|0,0:2|0:0,0:0:0:0:
339,123,53228,2,0,B|319:107|319:107|242:133,1,71.4999967269899,2|0,0:2|0:0,0:0:0:0:
125,58,53428,6,0,B|41:26|41:26|63:130|63:130|57:137|57:137|65:137|65:137|89:248,1,296.99999093628,0|0,1:2|0:0,0:0:0:0:
231,283,53828,6,0,P|201:265|153:273,1,71.4999967269899,2|0,0:2|0:0,0:0:0:0:
70,368,54028,2,0,L|62:317,2,35.749998363495,8|2|2,0:2|0:2|0:2,0:0:0:0:
275,373,54228,6,0,P|305:356|322:310,1,71.4999967269899,0|2,1:2|0:2,0:0:0:0:
292,157,54428,2,0,L|307:244,1,71.4999967269899,2|2,0:2|0:2,0:0:0:0:
503,284,54628,6,0,B|441:315|441:315|403:250|437:190|468:238|500:169|462:109,1,296.99999093628,8|2,0:2|0:2,0:0:0:0:
231,131,55028,6,0,P|266:158|308:148,1,71.4999967269899,2|0,0:2|0:0,0:0:0:0:
355,68,55228,2,0,L|360:24,2,35.749998363495,0|2|2,1:2|0:2|0:2,0:0:0:0:
327,299,55428,6,0,B|265:288|265:288|242:263|242:263|153:310|153:310|136:288|136:288|48:271,1,296.99999093628,0|0,1:2|0:0,0:0:0:0:
20,120,55828,6,0,L|36:205,1,71.4999967269899,2|2,0:2|0:2,0:0:0:0:
168,61,56028,1,2,0:2:0:0:
172,48,56128,1,8,0:3:0:0:
175,34,56228,2,0,B|145:58|145:58|89:44,1,71.4999967269899,8|0,0:2|0:0,0:0:0:0:
294,195,56428,2,0,B|326:186|326:186|356:210,1,71.4999967269899,2|0,0:2|0:0,0:0:0:0:
213,330,56628,6,0,B|159:350|114:366|114:366|137:267|137:267|143:264|143:264|167:164,1,296.99999093628,0|0,1:2|0:0,0:0:0:0:
361,59,57028,6,0,L|276:43,1,71.4999967269899,2|0,0:2|0:0,0:0:0:0:
162,182,57228,2,0,L|106:194,2,35.749998363495,0|2|2,1:2|0:2|0:2,0:0:0:0:
429,231,57428,6,0,L|344:247,1,71.4999967269899,0|2,1:2|0:2,0:0:0:0:
230,108,57628,2,0,L|174:96,2,35.749998363495,2|2|2,0:2|0:2|0:2,0:0:0:0:
189,349,57828,6,0,P|236:375|259:260,1,197.99999395752,8|2,0:2|0:2,0:0:0:0:
138,181,58128,1,2,0:2:0:0:
127,189,58228,2,0,P|146:220|219:225,1,98.9999969787599,0|2,1:2|0:2,0:0:0:0:
305,62,58428,2,0,P|268:62|227:123,1,98.9999969787599,8|2,0:2|0:2,0:0:0:0:
458,319,58628,6,0,B|397:264|449:194|449:194|446:190|446:190|455:193|455:193|451:188|451:188|520:110|420:31,1,296.99999093628,0|0,1:2|0:0,0:0:0:0:
398,6,59028,5,2,0:2:0:0:
378,14,59128,1,2,0:2:0:0:
315,94,59228,5,2,0:2:0:0:
295,86,59328,1,2,0:2:0:0:
237,0,59428,6,0,B|193:12|193:12|188:20|188:20|137:34,1,98.9999969787599,8|0,0:2|0:0,0:0:0:0:
255,179,59628,2,0,B|299:191|299:191|304:199|304:199|355:213,1,98.9999969787599,2|0,0:2|0:0,0:0:0:0:
131,278,59828,6,0,B|171:336|108:403|21:371|-16:287|42:180,1,296.99999093628,0|0,1:2|0:0,0:0:0:0:
145,31,60228,6,0,B|137:65|137:65|139:73|139:73|125:128,1,71.4999967269899,2|0,0:2|0:0,0:0:0:0:
125,242,60428,2,0,L|133:296,2,35.749998363495,8|2|2,0:2|0:2|0:2,0:0:0:0:
292,185,60628,6,0,B|258:174|258:174|252:169|252:169|197:153,1,71.4999967269899,0|2,1:2|0:2,0:0:0:0:
371,346,60828,2,0,B|404:335|404:335|410:330|410:330|465:314,1,71.4999967269899,2|2,0:2|0:2,0:0:0:0:
464,77,61028,6,0,B|495:48|495:48|344:21|344:21|370:118,1,296.99999093628,8|2,0:2|0:2,0:0:0:0:
485,237,61428,6,0,B|504:223|504:223|410:200,1,98.9999969787599,2|0,0:2|0:0,0:0:0:0:
272,301,61628,2,0,L|282:346,2,35.749998363495,0|2|2,1:2|0:2|0:2,0:0:0:0:
63,180,61828,6,0,B|32:209|32:209|183:236|183:236|156:138,1,296.99999093628,0|0,1:2|0:0,0:0:0:0:
5,56,62228,6,0,B|35:77|35:77|85:68,1,71.4999967269899,2|2,0:2|0:2,0:0:0:0:
261,34,62428,1,0,0:0:0:0:
269,29,62528,1,8,0:3:0:0:
276,24,62628,6,0,B|246:3|246:3|196:12,1,71.4999967269899,8|0,0:2|0:0,0:0:0:0:
182,234,62828,2,0,L|204:116,1,71.4999967269899,2|0,0:2|0:0,0:0:0:0:
1,287,63028,6,0,B|88:262|88:262|168:342|168:342|299:298,1,296.99999093628,0|0,1:2|0:0,0:0:0:0:
311,135,63428,2,0,L|325:215,1,71.4999967269899,2|0,0:2|0:0,0:0:0:0:
421,352,63628,2,0,L|430:296,2,35.749998363495,8|2|2,0:3|0:2|0:2,0:0:0:0:
399,41,63828,6,0,L|385:121,1,71.4999967269899,0|2,1:2|0:2,0:0:0:0:
342,332,64028,2,0,L|351:276,2,35.749998363495,0|2|2,1:2|0:2|0:2,0:0:0:0:
204,111,64228,6,0,B|241:148|241:148|301:136,1,98.9999969787599,8|0,0:2|0:0,0:0:0:0:
511,266,64428,2,0,B|467:222|467:222|432:231,1,98.9999969787599,0|8,1:2|0:3,0:0:0:0:
214,293,64628,6,0,L|202:363,1,49.4999984893799,0|0,1:2|0:0,0:0:0:0:
200,281,64728,2,0,L|187:350,1,49.4999984893799,8|0,0:3|0:0,0:0:0:0:
129,232,64828,6,0,L|117:164,1,49.4999984893799,8|0,0:2|0:0,0:0:0:0:
115,245,64928,2,0,L|104:178,1,49.4999984893799,2|0,0:2|0:0,0:0:0:0:
16,306,65028,6,0,B|113:288|113:288|148:212|148:212|287:192,1,296.99999093628,4|0,1:2|0:0,0:0:0:0:
322,247,65428,5,2,0:2:0:0:
335,244,65528,1,2,0:2:0:0:
417,188,65628,5,2,0:2:0:0:
404,185,65728,1,2,0:2:0:0:
326,51,65828,6,0,L|344:152,1,76.9999976501466,8|0,0:2|0:0,0:0:0:0:
308,322,66028,2,0,L|321:246,1,76.9999976501466,2|0,0:2|0:0,0:0:0:0:
144,80,66228,6,0,B|187:4|103:-49|18:6|25:150|131:184,1,296.99999093628,0|0,1:2|0:0,0:0:0:0:
221,221,66628,6,0,P|177:215|136:249,1,76.9999976501466,2|0,0:2|0:0,0:0:0:0:
95,364,66828,2,0,P|115:338|119:306,2,38.4999988250733,0|2|2,1:0|0:2|0:2,0:0:0:0:
0,196,67028,2,0,P|16:237|66:255,1,76.9999976501466,0|2,1:2|0:2,0:0:0:0:
300,325,67228,5,2,0:2:0:0:
282,315,67328,1,2,0:2:0:0:
267,307,67428,2,0,B|191:361|191:361|244:130,1,296.99999093628,8|2,0:2|0:2,0:0:0:0:
414,53,67828,2,0,B|383:78|383:78|313:58,1,76.9999976501466,0|0,1:2|0:0,0:0:0:0:
189,26,68028,2,0,L|133:10,2,38.4999988250733,0|2|2,1:2|0:2|0:2,0:0:0:0:
511,74,68228,6,0,B|409:158|409:158|409:171|409:171|401:160|401:160|200:104,1,296.99999093628,0|0,1:2|0:0,0:0:0:0:
219,193,68628,2,0,L|303:217,1,76.9999976501466,2|2,0:2|0:2,0:0:0:0:
392,353,68828,1,0,1:2:0:0:
404,349,68928,1,8,0:3:0:0:
416,346,69028,2,0,L|394:261,1,76.9999976501466,8|0,0:2|0:0,0:0:0:0:
463,117,69228,2,0,L|400:177,1,76.9999976501466,2|0,0:2|0:0,0:0:0:0:
138,323,69428,6,0,B|86:248|86:248|189:279|189:279|189:275|189:275|189:279|189:279|312:315,1,296.99999093628,0|0,1:2|0:0,0:0:0:0:
2,269,69828,6,0,P|4:219|40:185,1,76.9999976501466,2|0,0:2|0:0,0:0:0:0:
183,151,70028,2,0,L|125:162,2,38.4999988250733,0|2|2,1:2|0:2|0:2,0:0:0:0:
39,40,70228,6,0,P|41:90|77:124,1,76.9999976501466,0|2,1:2|0:2,0:0:0:0:
220,158,70428,2,0,L|162:147,2,38.4999988250733,2|2|2,0:2|0:2|0:2,0:0:0:0:
332,30,70628,6,0,L|354:137,1,76.9999976501466,8|0,0:2|0:0,0:0:0:0:
428,256,70828,6,0,L|445:170,1,65.9999979858399,8|2,0:2|0:2,0:0:0:0:
369,45,71028,6,0,L|356:118,1,55,0|2,1:2|0:2,0:0:0:0:
457,242,71228,6,0,L|447:185,1,44,0|2,1:2|0:2,0:0:0:0:
314,342,71428,6,0,B|269:244|139:268|139:268|189:290|197:359,1,296.99999093628,0|0,1:2|0:0,0:0:0:0:
102,344,71828,5,2,0:2:0:0:
82,337,71928,1,2,0:2:0:0:
19,270,72028,5,2,0:2:0:0:
39,263,72128,1,2,0:2:0:0:
95,199,72228,6,0,L|108:107,1,71.4999967269899,8|0,0:2|0:0,0:0:0:0:
185,14,72428,2,0,L|195:84,1,71.4999967269899,2|0,0:2|0:0,0:0:0:0:
360,257,72628,6,0,B|306:277|261:293|261:293|284:194|284:194|290:191|290:191|314:91,1,296.99999093628,0|0,1:2|0:0,0:0:0:0:
416,0,73028,2,0,B|395:36|395:36|425:92,1,76.9999976501466,2|0,0:2|0:0,0:0:0:0:
475,143,73228,2,0,L|521:151,2,38.4999988250733,0|2|2,1:2|0:2|0:2,0:0:0:0:
428,287,73428,2,0,B|449:251|449:251|419:195,1,76.9999976501466,0|2,1:2|0:2,0:0:0:0:
135,269,73628,5,2,0:2:0:0:
118,264,73728,1,2,0:2:0:0:
102,258,73828,6,0,B|159:204|230:255|230:255|234:252|234:252|231:261|231:261|236:257|236:257|312:316|391:227,1,296.99999093628,8|2,0:2|0:2,0:0:0:0:
221,73,74228,6,0,P|204:108|228:162,1,76.9999976501466,2|0,0:2|0:0,0:0:0:0:
335,55,74428,2,0,L|346:-2,2,38.4999988250733,0|2|2,1:2|0:2|0:2,0:0:0:0:
440,178,74628,6,0,B|403:169|403:169|394:154|394:154|309:130,1,98.9999969787599,0|0,1:2|0:0,0:0:0:0:
261,249,74828,2,0,B|219:260|219:260|210:275|210:275|173:284,1,98.9999969787599,2|0,0:2|0:0,0:0:0:0:
39,95,75028,2,0,P|76:98|112:142,1,76.9999976501466,2|2,0:2|0:2,0:0:0:0:
65,259,75228,1,2,0:2:0:0:
52,270,75328,1,8,0:3:0:0:
42,279,75428,2,0,L|19:179,1,76.9999976501466,8|0,0:2|0:0,0:0:0:0:
223,85,75628,2,0,L|205:160,1,76.9999976501466,2|0,0:2|0:0,0:0:0:0:
326,296,75828,6,0,B|390:410|534:392|533:258|429:224|397:279|387:326,1,296.99999093628,0|0,1:2|0:0,0:0:0:0:
269,360,76228,6,0,L|205:349,2,38.4999988250733,2|0|0,0:2|0:0|0:0,0:0:0:0:
201,276,76428,2,0,L|179:219,2,38.4999988250733,8|2|2,0:2|0:2|0:2,0:0:0:0:
242,169,76628,2,0,L|284:119,2,38.4999988250733,0|0|2,1:2|0:0|0:2,0:0:0:0:
340,190,76828,2,0,L|401:203,2,38.4999988250733,0|2|2,1:2|0:2|0:2,0:0:0:0:
296,292,77028,1,8,0:2:0:0:
414,111,77228,5,8,0:2:0:0:
389,109,77328,1,8,0:3:0:0:
283,64,77428,6,0,L|270:-13,1,55,0|0,1:2|0:0,0:0:0:0:
268,54,77528,6,0,L|255:-23,1,55,0|0,1:2|0:0,0:0:0:0:
191,113,77628,6,0,L|178:190,1,55,8|0,0:2|0:0,0:0:0:0:
174,119,77728,6,0,L|161:196,1,55,8|0,0:2|0:0,0:0:0:0:
48,41,77828,6,0,P|60:104|75:186,2,115.49999647522,4|0|0,1:2|0:0|0:0,0:0:0:0:
164,173,78628,2,0,P|152:236|137:318,2,115.49999647522,8|0|0,0:2|0:0|0:0,0:0:0:0:
261,333,79428,6,0,P|308:368|389:352,1,115.49999647522,8|0,0:2|0:0,0:0:0:0:
457,292,80028,1,0,0:0:0:0:
484,210,80228,6,0,P|427:209|382:243,1,115.49999647522,8|0,0:2|0:0,0:0:0:0:
261,333,80828,5,2,0:2:0:0:
266,346,80928,1,2,0:2:0:0:
270,358,81028,2,0,L|290:227,2,115.49999647522,8|0|0,0:2|0:0|0:0,0:0:0:0:
177,214,81828,2,0,L|157:83,2,115.49999647522,8|0|0,0:2|0:0|0:0,0:0:0:0:
461,42,82628,6,0,B|336:7|378:146|215:76,1,230.99999295044,8|0,0:2|0:0,0:0:0:0:
188,13,83428,2,0,L|94:26,1,76.9999976501466,8|0,0:2|0:0,0:0:0:0:
83,110,83828,2,0,L|159:99,1,76.9999976501466,0|2,0:0|0:2,0:0:0:0:
213,156,84128,1,2,0:2:0:0:
205,166,84228,6,0,P|235:207|223:293,2,115.49999647522,10|0|2,0:2|0:0|0:2,0:0:0:0:
73,316,85028,2,0,P|93:269|173:236,2,115.49999647522,8|0|2,0:2|0:0|0:2,0:0:0:0:
153,337,85728,1,2,0:2:0:0:
164,327,85828,6,0,L|278:350,2,115.49999647522,8|0|2,0:2|0:0|0:2,0:0:0:0:
317,270,86628,2,0,P|355:299|369:346,1,76.9999976501466,8|2,0:2|0:2,0:0:0:0:
228,282,87028,2,0,P|234:234|267:198,1,76.9999976501466,8|2,0:2|0:2,0:0:0:0:
314,167,87328,1,2,0:2:0:0:
322,178,87428,6,0,L|313:115,2,38.4999988250733,8|2|2,0:2|0:2|0:2,0:0:0:0:
385,85,87728,6,0,L|394:22,2,38.4999988250733,0|8|0,0:0|0:2|0:0,0:0:0:0:
453,144,88028,2,0,L|462:207,1,38.4999988250733,2|0,0:2|0:0,0:0:0:0:
356,319,88228,5,8,0:2:0:0:
365,305,88328,1,0,0:0:0:0:
374,292,88428,2,0,L|312:278,1,38.4999988250733,2|0,0:2|0:0,0:0:0:0:
220,199,88628,5,8,0:2:0:0:
229,213,88728,1,0,0:0:0:0:
238,226,88828,2,0,L|176:240,1,38.4999988250733
65,266,89028,6,0,B|92:228|92:228|63:98,1,153.999995300293,8|0,0:2|0:0,0:0:0:0:
68,123,89828,5,8,0:2:0:0:
110,137,89928,1,8,0:1:0:0:
178,199,90028,5,4,0:3:0:0:
220,185,90128,1,4,0:3:0:0:
282,100,90228,6,0,L|302:0,1,65.9999979858399,8|0,0:2|0:0,0:0:0:0:
369,184,90428,2,0,L|381:248,1,65.9999979858399
131,303,90628,6,0,B|55:369|-25:255|15:164|164:137|232:241|187:279|236:328|354:319|386:240,1,528,4|8,1:2|0:3,0:0:0:0:
468,170,91328,1,8,0:3:0:0:
483,172,91428,2,0,B|458:195|458:195|354:163,1,131.99999597168,8|0,0:2|0:0,0:0:0:0:
174,79,91828,2,0,B|199:102|199:102|303:70,1,131.99999597168,0|0,1:2|0:0,0:0:0:0:
399,13,92228,6,0,L|385:96,1,65.9999979858399,2|0,0:0|0:0,0:0:0:0:
242,287,92428,6,0,B|287:239|224:238|295:169,1,121.000003692627,8|8,0:3|0:3,0:0:0:0:
453,224,92628,2,0,B|388:208|419:263|324:236,1,121.000003692627,0|0,1:2|0:0,0:0:0:0:
293,72,92828,2,0,B|311:135|343:80|367:177,1,121.000003692627,2|0,0:0|0:0,0:0:0:0:
164,95,93028,6,0,L|177:5,1,65.9999979858399,8|0,0:2|0:0,0:0:0:0:
58,158,93228,1,8,0:3:0:0:
50,168,93328,1,8,0:3:0:0:
43,176,93428,2,0,L|52:241,1,65.9999979858399,8|0,0:3|0:0,0:0:0:0:
216,206,93628,2,0,P|195:184|147:180,1,65.9999979858399,2|0,0:0|0:0,0:0:0:0:
153,340,93828,6,0,B|209:377|260:331|260:331|266:333|266:333|261:327|261:327|268:328|268:328|333:264|405:331,1,264,0|0,1:2|0:0,0:0:0:0:
449,365,94228,2,0,B|419:326|419:326|451:272,1,88,2|0,0:0|0:0,0:0:0:0:
507,176,94428,5,8,0:3:0:0:
509,189,94528,1,8,0:3:0:0:
509,200,94628,2,0,L|383:176,1,88,8|0,0:2|0:0,0:0:0:0:
295,10,94828,2,0,P|340:17|373:72,1,88,0|0,1:2|0:0,0:0:0:0:
293,259,95028,6,0,B|245:138|245:138|280:116|313:77,1,197.99999395752,0|0,1:2|0:0,0:0:0:0:
367,47,95428,6,0,L|375:102,1,32.99999899292,8|0,0:3|0:0,0:0:0:0:
376,53,95528,2,0,L|384:108,1,32.99999899292,8|0,0:3|0:0,0:0:0:0:
437,144,95628,6,0,L|429:199,1,32.99999899292,8|0,0:3|0:0,0:0:0:0:
428,150,95728,2,0,L|420:205,1,32.99999899292,8|0,0:3|0:0,0:0:0:0:
286,266,95828,6,0,P|350:253|410:335,1,153.999995300293,0|0,1:2|0:0,0:0:0:0:
326,347,96128,5,8,0:1:0:0:
318,338,96228,2,0,B|274:345|274:345|268:355|268:355|211:364,1,98.9999969787599,8|0,0:2|0:0,0:0:0:0:
92,211,96428,2,0,B|136:218|136:218|142:228|142:228|184:234,1,98.9999969787599,0|0,1:2|0:0,0:0:0:0:
113,321,96628,6,0,P|68:333|15:264,1,121.000003692627,8|0,0:2|0:0,0:0:0:0:
23,130,96828,2,0,P|62:87|119:96,1,121.000003692627,8|0,0:3|0:0,0:0:0:0:
304,222,97028,6,0,B|285:285|223:293|159:262|163:184|215:154|215:154|282:110|234:25,1,352,0|2,1:2|0:2,0:0:0:0:
391,0,97628,1,2,0:2:0:0:
393,11,97728,1,8,0:3:0:0:
395,20,97828,2,0,P|362:53|385:176,1,176,8|2,0:2|0:2,0:0:0:0:
506,250,98228,2,0,P|463:249|430:276,1,88,0|0,1:2|0:0,0:0:0:0:
359,370,98428,2,0,P|315:371|282:344,1,88,2|0,0:2|0:0,0:0:0:0:
141,187,98628,6,0,B|117:165|61:174|49:257|129:285,1,176,2|2,0:2|0:2,0:0:0:0:
214,320,98928,1,8,0:3:0:0:
224,327,99028,2,0,B|299:300|287:217|228:211|207:230,1,176,2|2,0:2|0:2,0:0:0:0:
25,376,99428,6,0,L|11:277,1,88,8|0,0:2|0:0,0:0:0:0:
130,161,99628,5,0,1:2:0:0:
136,174,99728,1,8,0:3:0:0:
141,187,99828,2,0,P|118:205|58:199,1,88,2|0,0:2|0:0,0:0:0:0:
213,54,100028,2,0,P|255:46|292:68,1,88,2|0,0:2|0:0,0:0:0:0:
412,273,100228,6,0,B|448:317|390:389|303:353|280:238|380:162,1,264,0|0,1:2|0:0,0:0:0:0:
462,88,100628,2,0,P|419:116|371:102,1,88,2|0,0:2|0:0,0:0:0:0:
226,28,100828,5,2,0:2:0:0:
213,15,100928,1,8,0:3:0:0:
199,3,101028,2,0,B|180:87|180:87|182:93|182:93|161:193,1,176,8|2,0:2|0:2,0:0:0:0:
39,355,101428,6,0,B|21:273|21:273|23:267|23:267|4:183,1,176,0|2,1:2|0:2,0:0:0:0:
305,296,101828,6,0,L|284:383,1,65.9999979858399,2|2,0:2|0:2,0:0:0:0:
299,286,102028,2,0,L|278:373,1,65.9999979858399,0|0,1:2|0:0,0:0:0:0:
140,169,102228,6,0,L|161:256,1,76.9999976501466,8|0,0:2|0:0,0:0:0:0:
149,149,102428,2,0,L|170:236,1,76.9999976501466,2|2,0:2|0:2,0:0:0:0:
366,70,102628,6,0,L|341:169,1,98.9999969787599,8|0,0:2|0:0,0:0:0:0:
344,41,102828,2,0,L|319:140,1,98.9999969787599,2|2,0:2|0:2,0:0:0:0:
101,29,103028,5,8,0:2:0:0:
125,36,103128,1,2,0:2:0:0:
207,166,103228,5,2,0:2:0:0:
183,173,103328,1,2,0:2:0:0:
116,338,103428,6,0,B|28:330|28:330|-15:310|-11:252|35:240|35:240|152:251|152:251|170:276|170:276|316:288,1,461.999985900879,4|2,1:2|0:2,0:0:0:0:
350,347,104128,1,2,0:2:0:0:
362,357,104228,2,0,B|357:297|357:297|349:286|349:286|343:228,1,131.99999597168,8|2,0:2|0:2,0:0:0:0:
483,66,104628,2,0,B|477:124|477:124|469:135|469:135|464:194,1,131.99999597168,0|2,1:2|0:2,0:0:0:0:
295,32,105028,6,0,P|333:14|380:31,1,65.9999979858399,2|0,0:2|0:0,0:0:0:0:
239,156,105228,2,0,L|186:145,2,32.99999899292,8|2|8,0:3|0:2|0:3,0:0:0:0:
91,66,105428,2,0,L|76:-13,1,65.9999979858399,0|2,1:2|0:2,0:0:0:0:
87,185,105628,2,0,L|74:249,1,65.9999979858399,2|2,0:2|0:2,0:0:0:0:
239,369,105828,6,0,L|340:346,1,65.9999979858399,8|0,0:2|0:0,0:0:0:0:
388,209,106028,1,2,0:2:0:0:
378,201,106128,1,2,0:2:0:0:
366,193,106228,2,0,L|378:257,1,65.9999979858399,2|0,0:0|0:0,0:0:0:0:
484,120,106428,2,0,L|495:64,2,32.99999899292,2|2|2,0:2|0:2|0:2,0:0:0:0:
407,36,106628,6,0,B|374:30|374:30|345:47|345:47|285:36,1,98.9999969787599,0|0,1:2|0:0,0:0:0:0:
129,149,106828,2,0,B|162:143|162:143|191:160|191:160|251:149,1,98.9999969787599,0|0,1:2|0:0,0:0:0:0:
291,352,107028,2,0,P|280:298|271:253,1,98.9999969787599,2|2,0:2|0:2,0:0:0:0:
404,159,107228,5,2,0:2:0:0:
413,170,107328,1,8,0:3:0:0:
421,180,107428,2,0,P|397:208|329:202,1,98.9999969787599,8|0,0:2|0:0,0:0:0:0:
432,310,107628,2,0,P|395:303|366:241,1,98.9999969787599,0|0,1:2|0:0,0:0:0:0:
336,384,107828,2,0,P|323:349|362:293,1,98.9999969787599,0|0,1:2|0:0,0:0:0:0:
214,353,108028,2,0,P|238:325|306:330,1,98.9999969787599,2|0,0:2|0:0,0:0:0:0:
149,231,108228,5,2,0:2:0:0:
149,231,108428,2,0,L|90:219,1,55,8|8,1:3|0:3,0:0:0:0:
218,155,108628,1,0,1:2:0:0:
218,155,108728,2,0,L|266:146,4,27.5,2|0|2|2|2,0:2|0:0|0:2|0:2|0:2,0:0:0:0:
358,1,109028,6,0,P|343:37|370:96,1,98.9999969787599,8|0,0:2|0:0,0:0:0:0:
470,208,109228,5,0,1:2:0:0:
487,202,109328,1,2,0:2:0:0:
502,196,109428,2,0,B|479:170|479:170|371:203,1,121.000003692627,0|2,1:2|0:2,0:0:0:0:
233,303,109628,2,0,B|256:277|256:277|364:310,1,121.000003692627,8|2,0:3|0:2,0:0:0:0:
126,384,109828,6,0,B|72:391|32:337|41:304|41:304|71:205|71:205|65:196|65:196|75:190|75:190|118:36,1,352,0|2,1:2|0:2,0:0:0:0:
0,29,110428,1,0,1:2:0:0:
0,29,110528,1,8,0:3:0:0:
0,29,110628,2,0,B|23:15|52:31|54:49|54:49|59:100|59:100|64:103|64:103|61:108|61:108|71:187,1,176,8|2,0:2|0:2,0:0:0:0:
23,348,111028,6,0,P|49:319|129:318,1,88,0|0,1:2|0:0,0:0:0:0:
179,206,111228,6,0,P|205:235|285:236,1,88,2|0,0:2|0:0,0:0:0:0:
427,125,111428,6,0,B|496:95|484:13|417:16|396:54,1,176,2|0,0:2|1:2,0:0:0:0:
311,173,111728,1,8,0:3:0:0:
306,179,111828,2,0,B|237:149|249:67|316:70|337:108,1,176,0|2,1:2|0:2,0:0:0:0:
453,280,112228,6,0,P|415:284|371:320,1,88,8|8,0:2|0:3,0:0:0:0:
243,373,112428,1,0,1:2:0:0:
233,363,112528,1,8,0:3:0:0:
224,353,112628,2,0,B|233:309|233:309|230:301|230:301|240:256,1,88,2|0,0:2|0:0,0:0:0:0:
75,176,112828,2,0,B|84:219|84:219|81:227|81:227|91:272,1,88,2|0,0:2|0:0,0:0:0:0:
227,112,113028,6,0,B|259:68|282:42|282:42|70:87,1,264,0|0,1:2|0:0,0:0:0:0:
161,178,113428,2,0,P|203:209|267:196,1,88,2|0,0:2|0:0,0:0:0:0:
437,65,113628,1,0,1:2:0:0:
424,74,113728,1,8,0:3:0:0:
411,86,113828,6,0,P|428:183|451:330,1,176,8|2,0:2|0:2,0:0:0:0:
208,384,114228,6,0,P|223:296|237:210,1,176,0|2,1:2|0:2,0:0:0:0:
85,26,114628,6,0,B|42:43|42:43|66:112,1,76.9999976501466,2|0,0:2|0:0,0:0:0:0:
119,158,114828,2,0,B|162:141|162:141|138:72,1,76.9999976501466,0|8,1:2|0:3,0:0:0:0:
24,344,115028,6,0,B|41:388|41:388|113:363,1,98.9999969787599,8|0,0:2|0:0,0:0:0:0:
164,292,115228,2,0,B|146:247|146:247|74:272,1,98.9999969787599,0|8,1:2|0:3,0:0:0:0:
410,346,115428,6,0,B|472:321|472:321|437:220,1,121.000003692627,8|0,0:2|0:0,0:0:0:0:
320,145,115628,2,0,B|257:169|257:169|292:270,1,121.000003692627,8|8,0:2|0:3,0:0:0:0:
410,61,115828,6,0,L|419:8,2,38.4999988250733,8|8|8,0:3|0:3|0:3,0:0:0:0:
382,212,116028,2,0,L|373:265,2,38.4999988250733,8|8|8,0:2|0:3|0:3,0:0:0:0:
284,58,116228,5,4,1:2:0:0:
284,58,117028,5,8,0:2:0:0:
190,64,117228,1,0,0:0:0:0:
147,138,117428,1,0,0:0:0:0:
188,217,117628,1,0,0:0:0:0:
273,271,117828,6,0,L|353:251,1,76.9999976501466
462,354,118228,2,0,L|387:335,1,76.9999976501466
343,230,118628,5,8,0:2:0:0:
434,209,118828,1,0,0:0:0:0:
458,122,119028,1,0,0:0:0:0:
385,67,119228,1,0,0:0:0:0:
302,125,119428,6,0,L|213:106,1,76.9999976501466
180,40,119728,1,0,0:0:0:0:
174,29,119828,2,0,L|98:45,1,76.9999976501466
32,88,120128,1,8,0:1:0:0:
20,52,120228,5,8,0:2:0:0:
47,120,120328,1,0,0:0:0:0:
150,144,120628,5,0,0:0:0:0:
123,212,120728,1,0,0:0:0:0:
229,220,121028,5,0,0:0:0:0:
256,288,121128,1,0,0:0:0:0:
370,303,121428,5,0,0:0:0:0:
343,371,121528,1,0,0:0:0:0:
468,349,121728,5,8,0:1:0:0:
480,359,121828,2,0,L|459:262,1,76.9999976501466,8|0,0:2|0:0,0:0:0:0:
330,202,122228,2,0,L|351:105,1,76.9999976501466
512,53,122628,6,0,B|474:81|474:81|345:46,1,153.999995300293
302,105,123228,1,0,0:0:0:0:
247,44,123428,5,8,0:2:0:0:
200,116,123628,1,0,0:0:0:0:
246,188,123828,1,0,0:0:0:0:
334,194,124028,1,0,0:0:0:0:
412,144,124228,6,0,L|432:252,1,76.9999976501466
403,382,124628,2,0,L|417:306,1,76.9999976501466
337,237,125028,5,8,0:2:0:0:
255,216,125228,1,0,0:0:0:0:
186,265,125428,1,0,0:0:0:0:
186,346,125628,1,0,0:0:0:0:
258,384,125828,6,0,P|208:376|150:365,1,76.9999976501466
116,323,126128,1,0,0:0:0:0:
107,336,126228,6,0,P|57:344|-1:355,1,76.9999976501466
0,322,126528,1,8,0:1:0:0:
15,279,126628,5,8,0:2:0:0:
32,349,126728,1,0,0:0:0:0:
132,184,127028,5,0,0:0:0:0:
115,254,127128,1,0,0:0:0:0:
222,135,127428,6,0,L|239:222,1,65.9999979858399,0|0,1:2|0:0,0:0:0:0:
324,79,127628,2,0,L|307:166,1,65.9999979858399,0|0,1:2|0:0,0:0:0:0:
389,200,127828,2,0,L|406:287,1,65.9999979858399,0|0,1:2|0:0,0:0:0:0:
491,144,128028,2,0,L|474:231,1,65.9999979858399,0|0,1:2|0:0,0:0:0:0:
439,364,128228,5,0,0:0:0:0:
439,364,129028,6,0,P|394:368|365:395,1,73.3333333333333
229,301,129294,1,0,0:0:0:0:
225,286,129428,2,0,P|270:290|299:317,1,73.3333333333333
414,226,129694,1,0,0:0:0:0:
418,211,129828,2,0,P|373:215|344:242,1,73.3333333333333,8|0,0:2|0:0,0:0:0:0:
189,132,130094,5,0,0:0:0:0:
200,111,130228,2,0,L|227:284,1,146.666666666667,0|0,1:2|0:0,0:0:0:0:
292,324,130628,5,2,0:2:0:0:
357,175,130761,1,0,0:0:0:0:
431,317,130894,1,0,0:0:0:0:
431,131,131028,5,0,1:2:0:0:
359,280,131161,1,0,0:0:0:0:
283,142,131294,1,0,0:0:0:0:
167,267,131428,6,0,P|127:264|91:226,2,73.3333333333333,8|0|0,0:2|0:0|0:0,0:0:0:0:
172,110,131828,6,0,L|157:182,1,55,2|0,0:2|0:0,0:0:0:0:
269,305,132028,2,0,L|257:251,1,55,0|0,1:2|0:0,0:0:0:0:
399,59,132228,5,0,1:2:0:0:
264,133,132361,1,0,0:0:0:0:
430,205,132494,1,0,0:0:0:0:
299,66,132628,5,2,0:2:0:0:
357,253,132761,1,0,0:0:0:0:
453,127,132894,1,0,0:0:0:0:
257,251,133028,6,0,L|236:350,2,73.3333333333333,8|0|0,0:2|0:0|0:0,0:0:0:0:
195,50,133428,6,0,P|133:58|122:162,1,146.666666666667,0|0,1:2|0:0,0:0:0:0:
221,176,133828,5,2,0:2:0:0:
71,251,133961,1,0,0:0:0:0:
241,322,134094,1,0,0:0:0:0:
146,215,134228,5,0,1:2:0:0:
311,282,134361,1,0,0:0:0:0:
136,360,134494,1,0,0:0:0:0:
221,176,134628,6,0,L|237:75,2,73.3333333333333,8|0|0,0:2|0:0|0:0,0:0:0:0:
400,342,135028,6,0,L|391:254,1,55,0|0,1:2|0:0,0:0:0:0:
432,133,135228,1,8,0:3:0:0:
444,118,135328,1,8,0:3:0:0:
456,103,135428,5,0,1:2:0:0:
322,229,135561,1,0,0:0:0:0:
309,51,135694,1,0,0:0:0:0:
428,211,135828,5,0,1:2:0:0:
242,114,135961,1,0,0:0:0:0:
393,64,136094,1,0,0:0:0:0:
336,232,136228,5,8,0:2:0:0:
288,34,136361,1,0,0:0:0:0:
466,138,136494,1,0,0:0:0:0:
248,178,136628,6,0,L|236:100,1,55,0|0,1:2|0:0,0:0:0:0:
117,256,136828,2,0,L|108:310,1,55,2|0,0:2|0:0,0:0:0:0:
126,118,137028,5,0,1:2:0:0:
210,300,137161,1,0,0:0:0:0:
38,199,137294,1,0,0:0:0:0:
260,214,137428,5,0,1:2:0:0:
73,321,137561,1,0,0:0:0:0:
149,131,137694,1,0,0:0:0:0:
259,360,137828,5,8,0:2:0:0:
133,212,137961,1,0,0:0:0:0:
335,279,138094,1,0,0:0:0:0:
172,352,138228,6,0,P|188:291|226:269,1,73.3333333333333,8|0,0:2|0:0,0:0:0:0:
284,160,138428,2,0,L|277:117,2,27.5,2|2|2,0:2|0:2|0:2,0:0:0:0:
387,315,138628,5,0,1:2:0:0:
457,122,138761,1,0,0:0:0:0:
290,236,138894,1,0,0:0:0:0:
358,62,139028,2,0,L|391:261,1,146.666666666667,0|0,1:2|0:0,0:0:0:0:
236,297,139428,5,8,0:2:0:0:
107,100,139561,1,0,0:0:0:0:
277,199,139694,1,0,0:0:0:0:
158,277,139828,2,0,L|179:118,1,110,0|0,1:2|1:2,0:0:0:0:
84,43,140228,6,0,P|94:87|134:110,1,65.9999979858399,0|0,1:2|0:0,0:0:0:0:
351,151,140428,2,0,P|307:137|267:160,1,65.9999979858399,0|8,1:2|0:3,0:0:0:0:
129,345,140628,2,0,P|162:314|162:267,1,65.9999979858399,0|0,1:2|0:0,0:0:0:0:
242,23,140828,2,0,P|208:53|208:100,1,65.9999979858399,0|0,1:2|0:0,0:0:0:0:
300,331,141028,2,0,P|289:286|249:263,1,65.9999979858399,8|0,0:2|0:0,0:0:0:0:
17,211,141228,2,0,P|60:224|100:201,1,65.9999979858399,8|0,0:2|1:2,0:0:0:0:
289,142,141428,6,0,L|281:195,1,49.4999984893799,8|0,0:2|0:0,0:0:0:0:
305,130,141528,6,0,L|297:183,1,49.4999984893799,8|0,0:2|0:0,0:0:0:0:
393,94,141628,6,0,L|385:41,1,49.4999984893799,8|0,0:2|0:0,0:0:0:0:
407,105,141728,6,0,L|399:52,1,49.4999984893799,8|0,0:2|0:0,0:0:0:0:
486,181,141828,6,0,P|474:244|458:330,2,115.49999647522,4|0|0,1:2|0:0|0:0,0:0:0:0:
426,264,142628,2,0,P|438:327|454:413,2,115.49999647522
305,134,143428,2,0,P|249:145|221:213,1,115.49999647522
151,303,144028,1,0,0:0:0:0:
152,383,144228,2,0,P|208:372|236:304,1,115.49999647522
220,192,144828,1,2,0:2:0:0:
208,170,144928,1,2,0:2:0:0:
196,149,145028,6,0,P|157:187|176:275,2,115.49999647522,2|0|0,0:2|0:0|0:0,0:0:0:0:
318,216,145828,2,0,P|357:254|338:342,2,115.49999647522
224,342,146628,6,0,B|136:320|167:375|69:353,1,153.999995300293,0|8,0:0|0:2,0:0:0:0:
26,278,147228,1,0,0:0:0:0:
88,210,147428,2,0,P|130:217|164:258,1,76.9999976501466
234,195,147828,2,0,P|257:232|257:286,1,76.9999976501466,8|2,0:2|0:2,0:0:0:0:
272,348,148128,1,2,0:2:0:0:
278,366,148228,6,0,P|327:333|401:355,2,115.49999647522,2|0|0,0:2|0:0|0:0,0:0:0:0:
383,215,149028,2,0,P|432:222|477:300,2,115.49999647522,8|0|0,0:2|0:0|0:0,0:0:0:0:
283,319,149828,6,0,P|252:357|162:357,2,115.49999647522,8|0|0,0:2|0:0|0:0,0:0:0:0:
218,128,150628,2,0,L|206:312,1,153.999995300293,8|8,0:2|0:2,0:0:0:0:
51,178,151228,1,2,0:2:0:0:
43,155,151328,1,2,0:2:0:0:
38,132,151428,6,0,P|87:167|159:146,2,115.49999647522,8|0|0,0:2|0:0|0:0,0:0:0:0:
209,29,152228,2,0,P|258:-6|330:15,2,115.49999647522,8|0|0,0:2|0:0|0:0,0:0:0:0:
434,233,153028,6,0,P|442:158|468:51,1,153.999995300293,8|8,0:2|0:2,0:0:0:0:
404,163,153628,1,0,0:0:0:0:
454,6,153828,2,0,P|470:81|478:157,1,153.999995300293,8|8,0:2|0:2,0:0:0:0:
429,343,154428,1,2,0:2:0:0:
411,329,154528,1,2,0:2:0:0:
389,310,154628,6,0,P|324:327|247:348,1,102.666663533529,8|0,0:2|0:0,0:0:0:0:
211,373,155028,2,0,L|130:358,1,51.3333317667644,8|0,0:2|0:0,0:0:0:0:
72,300,155294,1,0,0:0:0:0:
68,288,155428,2,0,L|149:273,1,51.3333317667644,8|0,0:2|0:0,0:0:0:0:
232,211,155694,1,0,0:0:0:0:
236,199,155828,2,0,L|155:184,1,51.3333317667644,8|0,0:2|0:0,0:0:0:0:
79,122,156094,1,0,0:0:0:0:
87,105,156228,6,0,L|112:244,1,102.666663533529,8|0,0:2|0:0,0:0:0:0:
171,276,156628,2,0,L|161:352,2,51.3333317667644,8|0|0,0:2|0:0|0:0,0:0:0:0:
252,219,157028,2,0,L|270:117,1,102.666663533529,8|0,0:2|0:0,0:0:0:0:
349,69,157428,2,0,L|359:-7,2,51.3333317667644,8|0|0,0:2|0:0|0:0,0:0:0:0:
414,138,157828,6,0,L|433:240,1,102.666663533529,8|0,0:2|0:0,0:0:0:0:
488,348,158228,5,8,0:2:0:0:
450,334,158361,1,0,0:0:0:0:
417,320,158494,1,0,0:0:0:0:
382,309,158628,2,0,P|353:347|276:330,1,102.666663533529,8|0,0:2|0:0,0:0:0:0:
237,284,159028,5,8,0:2:0:0:
199,298,159161,1,0,0:0:0:0:
166,312,159294,1,0,0:0:0:0:
131,323,159428,2,0,P|102:285|25:302,1,102.666663533529,8|0,0:2|0:0,0:0:0:0:
4,349,159828,5,8,0:2:0:0:
13,305,159961,1,0,0:0:0:0:
23,262,160094,1,0,0:0:0:0:
32,226,160228,2,0,L|11:80,1,102.666663533529,8|0,0:2|0:0,0:0:0:0:
69,41,160628,5,8,0:2:0:0:
191,90,160761,1,0,0:0:0:0:
106,146,160894,1,0,0:0:0:0:
292,210,161028,5,0,0:0:0:0:
