osu file format v14

[General]
AudioFilename: audio.mp3
AudioLeadIn: 0
PreviewTime: 51677
Countdown: 0
SampleSet: Soft
StackLeniency: 0.5
Mode: 0
LetterboxInBreaks: 0
EpilepsyWarning: 1
WidescreenStoryboard: 1

[Editor]
Bookmarks: 1028,13828,39428,52228,65028,77828,90628,116228,129028,141828,154628,161028
DistanceSpacing: 1.2
BeatDivisor: 4
GridSize: 32
TimelineZoom: 2.899999

[Metadata]
Title:THE BADDEST feat. (G)I-DLE, Bea Miller, Wolftyla
TitleUnicode:THE BADDEST feat. (G)I-DLE, Bea Miller, Wolftyla
Artist:K/DA
ArtistUnicode:K/DA
Creator:Elinor
Version:Insane
Source:League of Legends
Tags:kujinn reform mir rosiie [_eli_] eli kda lol english korean pop k-pop kpop ahri evelynn kaisa kai'sa akali riot games miyeon soyeon (여자)아이들 gidle g_idle
BeatmapID:2590755
BeatmapSetID:1246447

[Difficulty]
HPDrainRate:4.8
CircleSize:3.8
OverallDifficulty:7.6
ApproachRate:9
SliderMultiplier:2.2
SliderTickRate:1

[Events]
//Background and Video events
0,0,"bg.jpg",0,0
//Break Periods
2,78028,83628
2,142028,147628
//Storyboard Layer 0 (Background)
//Storyboard Layer 1 (Fail)
//Storyboard Layer 2 (Pass)
//Storyboard Layer 3 (Foreground)
Sprite,Foreground,Centre,"sb\glow.png",0,0 C,0,65028,,255,128,230 M,0,65028,65078,346,204,319.412,196.9767 F,2,65028,65578,1,0 S,2,65028,65578,0.4,0.08 M,0,65078,65128,319.412,196.9767,292.8239,189.9535 M,0,65128,65178,292.8239,189.9535,266.2359,182.9302 M,0,65178,65228,266.2359,182.9302,239.7424,176.2576 M,0,65228,65278,239.7424,176.2576,220.297,195.703 M,0,65278,65328,220.297,195.703,200.8516,215.1484
Sprite,Foreground,Centre,"sb\glow.png",0,0 C,0,65428,,255,128,230 M,0,65428,65478,120,168,139.4454,148.5546 F,2,65428,65778,1,0 S,2,65428,65778,0.4,0.08 M,0,65478,65528,139.4454,148.5546,158.8909,129.1091
Sprite,Foreground,Centre,"sb\glow.png",0,0 C,0,65628,,255,128,230 M,0,65628,65678,264,88,290.4419,95.55483 F,2,65628,65978,1,0 S,2,65628,65978,0.4,0.08 M,0,65678,65728,290.4419,95.55483,316.8838,103.1097
Sprite,Foreground,Centre,"sb\glow.png",0,0 C,0,65828,,255,128,230 M,0,65828,65878,408,275,434.2839,266.9127 F,2,65828,66178,1,0 S,2,65828,66178,0.4,0.08 M,0,65878,65928,434.2839,266.9127,460,259
Sprite,Foreground,Centre,"sb\glow.png",0,0 C,0,66028,,255,128,230 M,0,66028,66078,552,136,525.6735,128.0524 F,2,66028,66378,1,0 S,2,66028,66378,0.4,0.08 M,0,66078,66128,525.6735,128.0524,499.347,120.1048
Sprite,Foreground,Centre,"sb\glow.png",0,0 C,0,66228,,255,128,230 M,0,66228,66278,316,103,294.3801,119.8402 F,2,66228,66778,1,0 S,2,66228,66778,0.4,0.08 M,0,66278,66328,294.3801,119.8402,277.4952,141.3908 M,0,66328,66378,277.4952,141.3908,266.3343,166.3749 M,0,66378,66428,266.3343,166.3749,261.4352,193.3011 M,0,66428,66478,261.4352,193.3011,263.5145,220.6008 M,0,66478,66528,263.5145,220.6008,271.8695,246.6984
Sprite,Foreground,Centre,"sb\glow.png",0,0 C,0,66628,,82,237,254 M,0,66628,66678,376,408,402.8896,402.2379 F,2,66628,66978,1,0 S,2,66628,66978,0.4,0.08 M,0,66678,66728,402.8896,402.2379,429.7791,396.4759
Sprite,Foreground,Centre,"sb\glow.png",0,0 C,0,66828,,82,237,254 M,0,66828,66878,552,304,525.1105,298.2379 F,2,66828,67178,1,0 S,2,66828,67178,0.4,0.08 M,0,66878,66928,525.1105,298.2379,498.2209,292.4759
Sprite,Foreground,Centre,"sb\glow.png",0,0 C,0,67028,,82,237,254 M,0,67028,67078,368,418,394.8452,412.0344 F,2,67028,67378,1,0 S,2,67028,67378,0.4,0.08 M,0,67078,67128,394.8452,412.0344,421.6903,406.0688
Sprite,Foreground,Centre,"sb\glow.png",0,0 C,0,67228,,82,237,254 M,0,67228,67278,568,299,541.1353,293.1234 F,2,67228,67578,1,0 S,2,67228,67578,0.4,0.08 M,0,67278,67328,541.1353,293.1234,514.2705,287.2467
Sprite,Foreground,Centre,"sb\glow.png",0,0 C,0,67428,,82,237,254 M,0,67428,67478,352,184,349.5728,211.3927 F,2,67428,67978,1,0 S,2,67428,67978,0.4,0.08 M,0,67478,67528,349.5728,211.3927,347.1456,238.7854 M,0,67528,67578,347.1456,238.7854,346.6415,265.7358 M,0,67578,67628,346.6415,265.7358,345.8058,292.7625 M,0,67628,67678,345.8058,292.7625,343.3787,320.1552 M,0,67678,67728,343.3787,320.1552,341,347
Sprite,Foreground,Centre,"sb\glow.png",0,0 C,0,67828,,200,146,254 M,0,67828,67878,224,396,222.0053,368.5724 F,2,67828,68178,1,0 S,2,67828,68178,0.4,0.08 M,0,67878,67928,222.0053,368.5724,220.0105,341.1449
Sprite,Foreground,Centre,"sb\glow.png",200,152 C,0,68028,,200,146,254 F,2,68028,68278,1,0 S,2,68028,68278,0.4,0.08
Sprite,Foreground,Centre,"sb\glow.png",200,152 C,0,68128,,200,146,254 F,2,68128,68378,1,0 S,2,68128,68378,0.4,0.08
Sprite,Foreground,Centre,"sb\glow.png",0,0 C,0,68228,,200,146,254 M,0,68228,68278,200,152,209.6116,126.3999 F,2,68228,68778,1,0 S,2,68228,68778,0.4,0.08 M,0,68278,68328,209.6116,126.3999,226.5563,104.9936 M,0,68328,68378,226.5563,104.9936,249.0601,89.47466 M,0,68378,68428,249.0601,89.47466,275.4039,82.16303 M,0,68428,68478,275.4039,82.16303,302.6805,83.24635 M,0,68478,68528,302.6805,83.24635,328,92
Sprite,Foreground,Centre,"sb\glow.png",0,0 C,0,68628,,255,255,89 M,0,68628,68678,344,300,316.9668,300.9141 F,2,68628,68978,1,0 S,2,68628,68978,0.4,0.08 M,0,68678,68728,316.9668,300.9141,292.8133,288.6713
Sprite,Foreground,Centre,"sb\glow.png",415,111 C,0,68828,,255,255,89 F,2,68828,69078,1,0 S,2,68828,69078,0.4,0.08
Sprite,Foreground,Centre,"sb\glow.png",415,111 C,0,68928,,255,255,89 F,2,68928,69178,1,0 S,2,68928,69178,0.4,0.08
Sprite,Foreground,Centre,"sb\glow.png",0,0 C,0,69028,,255,255,89 M,0,69028,69078,415,111,420.3932,137.966 F,2,69028,69378,1,0 S,2,69028,69378,0.4,0.08 M,0,69078,69128,420.3932,137.966,425.7864,164.9319
Sprite,Foreground,Centre,"sb\glow.png",0,0 C,0,69228,,255,255,89 M,0,69228,69278,500,344,503.8891,316.7764 F,2,69228,69578,1,0 S,2,69228,69578,0.4,0.08 M,0,69278,69328,503.8891,316.7764,507.7782,289.5528
Sprite,Foreground,Centre,"sb\glow.png",0,0 C,0,69428,,255,255,89 M,0,69428,69478,573,116,545.8245,113.7623 F,2,69428,69978,1,0 S,2,69428,69978,0.4,0.08 M,0,69478,69528,545.8245,113.7623,520.2865,123.4429 M,0,69528,69578,520.2865,123.4429,499.0954,140.8575 M,0,69578,69628,499.0954,140.8575,477.8123,158.1517 M,0,69628,69678,477.8123,158.1517,452.1377,167.4153 M,0,69678,69728,452.1377,167.4153,425.0827,164.1817
Sprite,Foreground,Centre,"sb\glow.png",0,0 C,0,69828,,255,128,230 M,0,69828,69878,268,120,273.5884,146.9262 F,2,69828,70178,1,0 S,2,69828,70178,0.4,0.08 M,0,69878,69928,273.5884,146.9262,279,173
Sprite,Foreground,Centre,"sb\glow.png",0,0 C,0,70028,,255,128,230 M,0,70028,70078,332,353,337.4891,326.0534 F,2,70028,70378,1,0 S,2,70028,70378,0.4,0.08 M,0,70078,70128,337.4891,326.0534,342.9782,299.1068
Sprite,Foreground,Centre,"sb\glow.png",0,0 C,0,70228,,255,128,230 M,0,70228,70278,252,120,257.5884,146.9262 F,2,70228,70578,1,0 S,2,70228,70578,0.4,0.08 M,0,70278,70328,257.5884,146.9262,263,173
Sprite,Foreground,Centre,"sb\glow.png",240,396 C,0,70428,,255,128,230 F,2,70428,70678,1,0 S,2,70428,70678,0.4,0.08
Sprite,Foreground,Centre,"sb\glow.png",240,396 C,0,70528,,255,128,230 F,2,70528,70778,1,0 S,2,70528,70778,0.4,0.08
Sprite,Foreground,Centre,"sb\glow.png",0,0 C,0,70628,,255,128,230 M,0,70628,70678,240,396,215.5051,408.0042 F,2,70628,71178,1,0 S,2,70628,71178,0.4,0.08 M,0,70678,70728,215.5051,408.0042,188.3722,410.1301 M,0,70728,70778,188.3722,410.1301,162.403,402.1141 M,0,70778,70828,162.403,402.1141,140.9668,385.3353 M,0,70828,70878,140.9668,385.3353,127.7498,361.5099 M,0,70878,70928,127.7498,361.5099,123.9151,334.5094
Sprite,Foreground,Centre,"sb\glow.png",0,0 C,0,71028,,82,237,254 M,0,71028,71078,116,216,138.4102,200.7102 F,2,71028,71378,1,0 S,2,71028,71378,0.4,0.08 M,0,71078,71128,138.4102,200.7102,165.4411,198.494
Sprite,Foreground,Centre,"sb\glow.png",0,0 C,0,71228,,82,237,254 M,0,71228,71278,280,316,253.135,317.2744 F,2,71228,71578,1,0 S,2,71228,71578,0.4,0.08 M,0,71278,71328,253.135,317.2744,230.4039,302.8894
Sprite,Foreground,Centre,"sb\glow.png",0,0 C,0,71428,,82,237,254 M,0,71428,71478,336,116,358.5289,131.7702 F,2,71428,71978,1,0 S,2,71428,71978,0.4,0.08 M,0,71478,71528,358.5289,131.7702,374.6807,150.0312 M,0,71528,71578,374.6807,150.0312,368.804,176.8959 M,0,71578,71628,368.804,176.8959,362.9274,203.7607 M,0,71628,71678,362.9274,203.7607,357.0507,230.6254 M,0,71678,71728,357.0507,230.6254,351.174,257.4902
Sprite,Foreground,Centre,"sb\glow.png",0,0 C,0,71828,,200,146,254 M,0,71828,71878,376,408,400.5844,419.4081 F,2,71828,72178,1,0 S,2,71828,72178,0.4,0.08 M,0,71878,71928,400.5844,419.4081,427.6767,420.052
Sprite,Foreground,Centre,"sb\glow.png",0,0 C,0,72028,,200,146,254 M,0,72028,72078,512,248,485.021,247.6099 F,2,72028,72378,1,0 S,2,72028,72378,0.4,0.08 M,0,72078,72128,485.021,247.6099,460.7599,259.3977
Sprite,Foreground,Centre,"sb\glow.png",0,0 C,0,72228,,200,146,254 M,0,72228,72278,512,424,517.7621,397.1104 F,2,72228,72578,1,0 S,2,72228,72578,0.4,0.08 M,0,72278,72328,517.7621,397.1104,523.5241,370.2209
Sprite,Foreground,Centre,"sb\glow.png",0,0 C,0,72428,,200,146,254 M,0,72428,72478,351,257,356.5884,283.9262 F,2,72428,72778,1,0 S,2,72428,72778,0.4,0.08 M,0,72478,72528,356.5884,283.9262,362,310
Sprite,Foreground,Centre,"sb\glow.png",0,0 C,0,72628,,200,146,254 M,0,72628,72678,576,208,568.301,181.8123 F,2,72628,73178,1,0 S,2,72628,73178,0.4,0.08 M,0,72678,72728,568.301,181.8123,551.9849,160.0016 M,0,72728,72778,551.9849,160.0016,529.2679,144.8898 M,0,72778,72828,529.2679,144.8898,502.5492,139.3401 M,0,72828,72878,502.5492,139.3401,475.6271,143.4517 M,0,72878,72928,475.6271,143.4517,452,156
Sprite,Foreground,Centre,"sb\glow.png",0,0 C,0,73028,,255,255,89 M,0,73028,73078,351,257,323.9293,259.0062 F,2,73028,73378,1,0 S,2,73028,73378,0.4,0.08 M,0,73078,73128,323.9293,259.0062,299.0243,248.2166
Sprite,Foreground,Centre,"sb\glow.png",0,0 C,0,73228,,255,255,89 M,0,73228,73278,236,112,259.8718,99.07751 F,2,73228,73578,1,0 S,2,73228,73578,0.4,0.08 M,0,73278,73328,259.8718,99.07751,287.011,98.71481
Sprite,Foreground,Centre,"sb\glow.png",0,0 C,0,73428,,255,255,89 M,0,73428,73478,208,324,196.1199,299.5052 F,2,73428,73778,1,0 S,2,73428,73778,0.4,0.08 M,0,73478,73528,196.1199,299.5052,195.19,272.297
Sprite,Foreground,Centre,"sb\glow.png",0,0 C,0,73628,,255,255,89 M,0,73628,73678,96,200,102.0454,173.4695 F,2,73628,73978,1,0 S,2,73628,73978,0.4,0.08 M,0,73678,73728,102.0454,173.4695,118.5619,151.845
Sprite,Foreground,Centre,"sb\glow.png",0,0 C,0,73828,,255,255,89 M,0,73828,73878,287,98,314.1755,95.76231 F,2,73828,74378,1,0 S,2,73828,74378,0.4,0.08 M,0,73878,73928,314.1755,95.76231,339.7136,105.4429 M,0,73928,73978,339.7136,105.4429,360.9046,122.8575 M,0,73978,74028,360.9046,122.8575,382.1877,140.1517 M,0,74028,74078,382.1877,140.1517,407.8623,149.4153 M,0,74078,74128,407.8623,149.4153,434.9173,146.1817
Sprite,Foreground,Centre,"sb\glow.png",0,0 C,0,74228,,255,128,230 M,0,74228,74278,576,152,572.3655,179.2588 F,2,74228,74578,1,0 S,2,74228,74578,0.4,0.08 M,0,74278,74328,572.3655,179.2588,568.731,206.5175
Sprite,Foreground,Centre,"sb\glow.png",536,352 C,0,74428,,255,128,230 F,2,74428,74678,1,0 S,2,74428,74678,0.4,0.08
Sprite,Foreground,Centre,"sb\glow.png",536,352 C,0,74528,,255,128,230 F,2,74528,74778,1,0 S,2,74528,74778,0.4,0.08
Sprite,Foreground,Centre,"sb\glow.png",0,0 C,0,74628,,255,128,230 M,0,74628,74678,536,352,511.787,338.9622 F,2,74628,75178,1,0 S,2,74628,75178,0.4,0.08 M,0,74678,74728,511.787,338.9622,487.5741,325.9245 M,0,74728,74778,487.5741,325.9245,462.1217,332.4147 M,0,74778,74828,462.1217,332.4147,436.4547,342.2867 M,0,74828,74878,436.4547,342.2867,410.7877,352.1586 M,0,74878,74928,410.7877,352.1586,385.1207,362.0305
Sprite,Foreground,Centre,"sb\glow.png",0,0 C,0,75028,,82,237,254 M,0,75028,75078,272,400,275.6345,372.7412 F,2,75028,75378,1,0 S,2,75028,75378,0.4,0.08 M,0,75078,75128,275.6345,372.7412,279.269,345.4825
Sprite,Foreground,Centre,"sb\glow.png",368,216 C,0,75228,,82,237,254 F,2,75228,75478,1,0 S,2,75228,75478,0.4,0.08
Sprite,Foreground,Centre,"sb\glow.png",368,216 C,0,75328,,82,237,254 F,2,75328,75578,1,0 S,2,75328,75578,0.4,0.08
Sprite,Foreground,Centre,"sb\glow.png",0,0 C,0,75428,,82,237,254 M,0,75428,75478,368,216,371.5352,243.2718 F,2,75428,75778,1,0 S,2,75428,75778,0.4,0.08 M,0,75478,75528,371.5352,243.2718,375,270
Sprite,Foreground,Centre,"sb\glow.png",0,0 C,0,75628,,82,237,254 M,0,75628,75678,260,412,263.6345,384.7412 F,2,75628,75978,1,0 S,2,75628,75978,0.4,0.08 M,0,75678,75728,263.6345,384.7412,267.269,357.4825
Sprite,Foreground,Centre,"sb\glow.png",0,0 C,0,75828,,82,237,254 M,0,75828,75878,272,148,244.8245,145.7623 F,2,75828,76378,1,0 S,2,75828,76378,0.4,0.08 M,0,75878,75928,244.8245,145.7623,219.2865,155.4429 M,0,75928,75978,219.2865,155.4429,198.0954,172.8575 M,0,75978,76028,198.0954,172.8575,176.8123,190.1517 M,0,76028,76078,176.8123,190.1517,151.1377,199.4153 M,0,76078,76128,151.1377,199.4153,124.0827,196.1817
Sprite,Foreground,Centre,"sb\glow.png",0,0 C,0,76228,,200,146,254 M,0,76228,76278,108,104,130.4028,88.91348 F,2,76228,76578,1,0 S,2,76228,76578,0.4,0.08 M,0,76278,76328,130.4028,88.91348,157.3871,87.45535
Sprite,Foreground,Centre,"sb\glow.png",260,224 C,0,76428,,200,146,254 F,2,76428,76678,1,0 S,2,76428,76678,0.4,0.08
Sprite,Foreground,Centre,"sb\glow.png",260,224 C,0,76528,,200,146,254 F,2,76528,76778,1,0 S,2,76528,76778,0.4,0.08
Sprite,Foreground,Centre,"sb\glow.png",0,0 C,0,76628,,200,146,254 M,0,76628,76678,260,224,282.4028,239.0865 F,2,76628,76978,1,0 S,2,76628,76978,0.4,0.08 M,0,76678,76728,282.4028,239.0865,309.3871,240.5446
Sprite,Foreground,Centre,"sb\glow.png",400,120 C,0,76828,,200,146,254 F,2,76828,77078,1,0 S,2,76828,77078,0.4,0.08
Sprite,Foreground,Centre,"sb\glow.png",400,120 C,0,76928,,200,146,254 F,2,76928,77178,1,0 S,2,76928,77178,0.4,0.08
Sprite,Foreground,Centre,"sb\glow.png",0,0 C,0,77028,,200,146,254 M,0,77028,77078,400,120,414.7927,97.02802 F,2,77028,77578,1,0 S,2,77028,77578,0.4,0.08 M,0,77078,77128,414.7927,97.02802,436.2166,80.15151 M,0,77128,77178,436.2166,80.15151,461.8798,70.81514 M,0,77178,77228,461.8798,70.81514,489.1927,70.98354 M,0,77228,77278,489.1927,70.98354,514.9206,80.01653 M,0,77278,77328,514.9206,80.01653,536,96
Sprite,Foreground,Centre,"sb\glow.png",540,236 C,0,77428,,255,255,89 F,2,77428,77678,1,0 S,2,77428,77678,0.4,0.08
Sprite,Foreground,Centre,"sb\glow.png",521,256 C,0,77528,,255,255,89 F,2,77528,77778,1,0 S,2,77528,77778,0.4,0.08
Sprite,Foreground,Centre,"sb\glow.png",497,268 C,0,77628,,255,255,89 F,2,77628,77878,1,0 S,2,77628,77878,0.4,0.08
Sprite,Foreground,Centre,"sb\glow.png",470,272 C,0,77728,,255,255,89 F,2,77728,77978,1,0 S,2,77728,77978,0.4,0.08
//Storyboard Layer 4 (Overlay)
//Storyboard Sound Samples

[TimingPoints]
1028,400,4,2,22,60,1,0
1028,-100,4,2,22,60,0,0
13028,-100,4,2,22,80,0,0
13828,-90.9090909090909,4,2,22,90,0,1
14128,-90.9090909090909,4,2,22,5,0,1
14228,-90.9090909090909,4,2,22,90,0,1
14528,-90.9090909090909,4,2,22,90,0,1
14628,-90.9090909090909,4,2,22,90,0,1
14928,-90.9090909090909,4,2,22,5,0,1
15028,-90.9090909090909,4,2,22,90,0,1
15328,-90.9090909090909,4,2,22,5,0,1
15428,-90.9090909090909,4,2,22,90,0,1
15728,-90.9090909090909,4,2,22,90,0,1
15828,-90.9090909090909,4,2,22,90,0,1
17328,-90.9090909090909,4,2,22,5,0,1
17428,-90.9090909090909,4,2,22,90,0,1
18128,-90.9090909090909,4,2,22,5,0,1
18228,-90.9090909090909,4,2,22,90,0,1
18528,-90.9090909090909,4,2,22,5,0,1
18628,-90.9090909090909,4,2,22,90,0,1
19328,-90.9090909090909,4,2,2,90,0,1
19428,-90.9090909090909,4,2,22,90,0,1
19828,-111.111111111111,4,2,6,90,0,1
20028,-111.111111111111,4,2,22,90,0,1
23428,-90.9090909090909,4,2,22,90,0,1
23728,-90.9090909090909,4,2,22,5,0,1
23828,-90.9090909090909,4,2,22,90,0,1
26628,-90.9090909090909,4,2,22,90,0,1
26928,-90.9090909090909,4,2,22,5,0,1
27028,-90.9090909090909,4,2,22,90,0,1
27728,-90.9090909090909,4,2,22,5,0,1
27828,-90.9090909090909,4,2,22,90,0,1
28128,-90.9090909090909,4,2,22,5,0,1
28228,-90.9090909090909,4,2,22,90,0,1
28528,-90.9090909090909,4,2,22,90,0,1
28628,-90.9090909090909,4,2,22,90,0,1
29728,-90.9090909090909,4,2,22,90,0,1
29828,-90.9090909090909,4,2,22,90,0,1
31728,-90.9090909090909,4,2,22,90,0,1
31828,-90.9090909090909,4,2,22,90,0,1
32128,-90.9090909090909,4,2,22,90,0,1
32178,-90.9090909090909,4,2,22,90,0,1
33028,-125,4,2,22,90,0,1
36228,-90.9090909090909,4,2,22,90,0,1
36528,-90.9090909090909,4,2,22,5,0,1
36628,-90.9090909090909,4,2,22,90,0,1
39428,-125,4,2,2,70,0,0
44428,-125,4,2,22,70,0,0
44628,-125,4,2,2,70,0,0
44828,-125,4,2,22,70,0,0
45028,-125,4,2,2,70,0,0
45078,-125,4,2,22,70,0,0
45428,-125,4,2,2,70,0,0
45828,-111.111111111111,4,2,2,70,0,0
46428,-111.111111111111,4,2,22,70,0,0
46628,-111.111111111111,4,2,2,70,0,0
47628,-111.111111111111,4,2,22,70,0,0
47828,-111.111111111111,4,2,2,70,0,0
48428,-111.111111111111,4,2,22,70,0,0
48628,-111.111111111111,4,2,2,70,0,0
49328,-111.111111111111,4,2,2,5,0,0
49428,-111.111111111111,4,2,2,70,0,0
50128,-111.111111111111,4,2,2,5,0,0
50228,-111.111111111111,4,2,2,70,0,0
51428,-111.111111111111,4,2,22,70,0,0
51828,-111.111111111111,4,2,22,70,0,0
52128,-111.111111111111,4,2,22,5,0,0
52228,-100,4,2,22,80,0,0
52528,-100,4,2,22,5,0,0
52628,-100,4,2,22,80,0,0
53728,-100,4,2,22,5,0,0
53828,-100,4,2,22,80,0,0
54928,-100,4,2,22,80,0,0
55028,-100,4,2,22,80,0,0
55278,-100,4,2,2,80,0,0
55428,-100,4,2,22,80,0,0
55728,-100,4,2,22,5,0,0
55828,-100,4,2,22,80,0,0
56928,-100,4,2,22,5,0,0
57028,-100,4,2,22,80,0,0
58128,-100,4,2,22,80,0,0
58228,-100,4,2,22,80,0,0
58928,-100,4,2,22,5,0,0
59028,-100,4,2,22,80,0,0
60128,-100,4,2,22,5,0,0
60228,-100,4,2,22,80,0,0
61328,-100,4,2,22,80,0,0
61428,-100,4,2,22,80,0,0
61678,-100,4,2,2,80,0,0
61828,-100,4,2,22,80,0,0
62128,-100,4,2,22,5,0,0
62228,-100,4,2,22,80,0,0
63328,-100,4,2,22,5,0,0
63428,-100,4,2,22,80,0,0
65028,-100,4,2,22,80,0,0
65328,-100,4,2,22,5,0,0
65428,-100,4,2,22,80,0,0
66528,-100,4,2,22,5,0,0
66628,-100,4,2,22,80,0,0
67428,-100,4,2,4,80,0,0
67528,-100,4,2,22,80,0,0
67728,-100,4,2,22,80,0,0
67828,-100,4,2,22,80,0,0
68078,-100,4,2,2,80,0,0
68228,-100,4,2,22,80,0,0
68528,-100,4,2,22,5,0,0
68628,-100,4,2,22,80,0,0
69728,-100,4,2,22,5,0,0
69828,-100,4,2,22,80,0,0
70628,-100,4,2,4,80,0,0
70928,-100,4,2,22,80,0,0
71028,-100,4,2,22,80,0,0
71728,-100,4,2,22,5,0,0
71828,-100,4,2,22,80,0,0
72928,-100,4,2,22,5,0,0
73028,-100,4,2,22,80,0,0
73828,-100,4,2,4,80,0,0
73928,-100,4,2,22,80,0,0
74128,-100,4,2,22,80,0,0
74228,-100,4,2,22,80,0,0
74478,-100,4,2,2,80,0,0
74628,-100,4,2,22,80,0,0
74928,-100,4,2,22,5,0,0
75028,-100,4,2,22,80,0,0
76128,-100,4,2,22,5,0,0
76228,-100,4,2,22,80,0,0
76478,-100,4,2,2,80,0,0
76628,-100,4,2,22,80,0,0
76878,-100,4,2,2,80,0,0
77028,-100,4,2,22,80,0,0
77828,-100,4,2,22,70,0,0
78228,-100,4,2,2,70,0,0
84228,-166.666666666667,4,2,2,70,0,0
87428,-125,4,2,2,70,0,0
89828,-125,4,2,4,80,0,0
89928,-125,4,2,22,80,0,0
90628,-90.9090909090909,4,2,22,90,0,1
90928,-90.9090909090909,4,2,22,5,0,1
91028,-90.9090909090909,4,2,22,90,0,1
91328,-90.9090909090909,4,2,22,90,0,1
91428,-90.9090909090909,4,2,22,90,0,1
91728,-90.9090909090909,4,2,22,5,0,1
91828,-90.9090909090909,4,2,22,90,0,1
92128,-90.9090909090909,4,2,22,5,0,1
92228,-90.9090909090909,4,2,22,90,0,1
92528,-90.9090909090909,4,2,22,90,0,1
92628,-90.9090909090909,4,2,22,90,0,1
94128,-90.9090909090909,4,2,22,5,0,1
94228,-90.9090909090909,4,2,22,90,0,1
94928,-90.9090909090909,4,2,22,5,0,1
95028,-90.9090909090909,4,2,22,90,0,1
95328,-90.9090909090909,4,2,22,5,0,1
95428,-90.9090909090909,4,2,22,90,0,1
96128,-90.9090909090909,4,2,22,90,0,1
96228,-90.9090909090909,4,2,22,90,0,1
96628,-90.9090909090909,4,2,6,90,0,1
96828,-90.9090909090909,4,2,22,90,0,1
97028,-111.111111111111,4,2,22,90,0,1
100228,-90.9090909090909,4,2,22,90,0,1
100528,-90.9090909090909,4,2,22,5,0,1
100628,-90.9090909090909,4,2,22,90,0,1
103728,-90.9090909090909,4,2,22,5,0,1
103828,-90.9090909090909,4,2,22,90,0,1
104128,-90.9090909090909,4,2,22,90,0,1
104228,-90.9090909090909,4,2,22,90,0,1
104528,-90.9090909090909,4,2,22,5,0,1
104628,-90.9090909090909,4,2,22,90,0,1
104928,-90.9090909090909,4,2,22,5,0,1
105028,-90.9090909090909,4,2,22,90,0,1
105328,-90.9090909090909,4,2,22,90,0,1
105428,-90.9090909090909,4,2,22,90,0,1
106528,-90.9090909090909,4,2,22,90,0,1
106628,-90.9090909090909,4,2,22,90,0,1
108528,-90.9090909090909,4,2,22,90,0,1
108628,-90.9090909090909,4,2,22,90,0,1
109828,-125,4,2,22,90,0,1
113028,-90.9090909090909,4,2,22,90,0,1
113328,-90.9090909090909,4,2,22,5,0,1
113428,-90.9090909090909,4,2,22,90,0,1
116228,-100,4,2,22,70,0,0
117028,-125,4,2,22,70,0,0
129028,-100,4,2,22,80,0,0
130428,-100,4,2,2,80,0,0
130628,-100,4,2,22,80,0,0
130928,-100,4,2,2,80,0,0
131028,-100,4,2,22,80,0,0
131228,-100,4,2,2,80,0,0
131428,-100,4,2,4,80,0,0
131528,-100,4,2,22,80,0,0
131628,-100,4,2,2,80,0,0
131828,-100,4,2,22,80,0,0
133628,-100,4,2,2,80,0,0
133828,-100,4,2,22,80,0,0
134628,-100,4,2,4,80,0,0
134728,-100,4,2,22,80,0,0
137828,-100,4,2,4,80,0,0
137928,-100,4,2,22,80,0,0
141828,-100,4,2,22,80,0,0
142228,-100,4,2,2,80,0,0
148228,-166.666666666667,4,2,2,80,0,0
154628,-100,4,2,2,60,0,0
161028,-100,4,2,2,60,0,0

[Colours]
Combo1 : 255,255,89
Combo2 : 255,128,230
Combo3 : 82,237,254
Combo4 : 200,146,254

[HitObjects]
108,372,12428,6,0,L|115:317,1,55
8,228,12628,2,0,L|16:284,1,55
100,356,12828,2,0,L|107:301,1,55
136,168,13028,5,8,0:3:0:0:
153,157,13128,1,8,0:3:0:0:
173,152,13228,1,8,0:3:0:0:
193,153,13328,1,8,0:3:0:0:
212,161,13428,6,0,L|220:217,1,55,8|0,0:2|0:0,0:0:0:0:
320,348,13628,2,0,L|327:293,1,55,8|0,0:3|0:0,0:0:0:0:
340,104,13828,6,0,B|432:138|422:49|510:77,1,181.500005538941,4|0,1:2|0:0,0:0:0:0:
510,129,14228,2,0,B|416:164|426:75|339:103,1,181.500005538941,2|8,0:0|0:3,0:0:0:0:
246,29,14628,6,0,P|210:105|254:189,1,181.500005538941,8|0,0:2|0:0,0:0:0:0:
340,332,15028,2,0,P|296:284|184:284,1,181.500005538941,0|0,1:2|0:0,0:0:0:0:
64,360,15428,2,0,B|104:312|104:312|76:192,1,181.500005538941,2|8,0:0|0:3,0:0:0:0:
32,52,15828,1,0,1:2:0:0:
32,52,16228,5,8,0:2:0:0:
164,256,16428,1,8,0:3:0:0:
164,32,16628,1,8,0:3:0:0:
32,236,16828,1,2,0:0:0:0:
164,32,17028,6,0,B|260:28|220:112|324:104,1,181.500005538941,0|0,1:2|0:0,0:0:0:0:
472,140,17428,1,2,0:0:0:0:
312,24,17628,1,8,0:3:0:0:
312,24,17728,1,8,0:3:0:0:
312,24,17828,2,0,P|260:76|260:180,1,181.500005538941,8|0,0:2|0:0,0:0:0:0:
308,344,18228,2,0,L|488:304,1,181.500005538941,0|0,1:2|0:0,0:0:0:0:
472,140,18628,5,8,0:3:0:0:
449,136,18728,1,8,0:3:0:0:
427,132,18828,1,8,0:3:0:0:
404,128,18928,1,8,0:3:0:0:
382,125,19028,2,0,B|338:113|308:156|308:156|268:205|226:189,1,181.500005538941,0|8,1:2|0:3,0:0:0:0:
168,32,19428,5,8,0:2:0:0:
376,208,19628,1,0,1:2:0:0:
140,268,19828,1,8,0:2:0:0:
280,40,20028,1,8,0:3:0:0:
200,340,20228,6,0,P|92:340|48:271,1,197.99999395752,0|2,1:2|0:2,0:0:0:0:
96,72,20828,1,2,0:2:0:0:
96,72,21028,2,0,P|164:108|164:224,1,197.99999395752,8|0,0:2|1:2,0:0:0:0:
200,352,21628,5,2,0:2:0:0:
200,352,21828,2,0,L|300:336,1,98.9999969787599,2|2,0:2|0:2,0:0:0:0:
336,332,22128,1,8,0:3:0:0:
336,332,22228,1,2,0:2:0:0:
508,200,22428,1,2,0:2:0:0:
508,200,22628,2,0,L|408:184,1,98.9999969787599,8|0,0:2|1:2,0:0:0:0:
380,180,22928,1,8,0:3:0:0:
380,180,23028,1,2,0:2:0:0:
472,344,23228,1,2,0:2:0:0:
308,88,23428,6,0,B|260:120|260:120|296:244,1,181.500005538941,0|0,1:2|0:0,0:0:0:0:
472,344,23828,1,2,0:2:0:0:
380,180,24028,1,2,0:2:0:0:
292,356,24228,2,0,P|232:356|188:316,1,121.000003692627,8|2,0:2|0:2,0:0:0:0:
104,212,24628,2,0,P|148:168|208:168,1,121.000003692627,0|2,1:2|0:2,0:0:0:0:
80,352,25028,6,0,L|68:288,1,60.5000018463135,2|2,0:2|0:2,0:0:0:0:
72,360,25228,2,0,L|60:296,1,60.5000018463135,0|0,1:2|0:0,0:0:0:0:
224,180,25428,2,0,L|212:239,1,60.5000018463135,8|0,0:2|0:0,0:0:0:0:
232,176,25628,2,0,L|220:235,1,60.5000018463135,2|2,0:2|0:2,0:0:0:0:
24,56,25828,5,8,0:2:0:0:
24,56,25928,1,0,0:0:0:0:
24,56,26028,2,0,P|52:36|84:36,1,60.5000018463135,2|2,0:2|0:2,0:0:0:0:
144,216,26228,1,8,0:2:0:0:
144,216,26328,1,2,0:2:0:0:
144,216,26428,2,0,P|112:216|88:196,1,60.5000018463135,2|2,0:2|0:2,0:0:0:0:
268,36,26628,6,0,B|308:76|308:76|277:209,1,181.500005538941,4|0,1:2|0:0,0:0:0:0:
168,360,27028,1,2,0:2:0:0:
187,336,27128,1,2,0:2:0:0:
213,322,27228,1,2,0:2:0:0:
243,317,27328,1,2,0:2:0:0:
272,324,27428,6,0,B|324:304|360:344|360:344|396:384|440:368,1,181.500005538941,8|0,0:2|0:0,0:0:0:0:
476,196,27828,2,0,B|424:176|388:216|388:216|352:256|308:240,1,181.500005538941,0|0,1:2|0:0,0:0:0:0:
256,28,28228,6,0,P|328:72|328:164,1,181.500005538941,2|8,0:2|0:3,0:0:0:0:
329,161,28628,1,0,1:2:0:0:
226,318,28828,1,2,0:2:0:0:
204,315,28928,1,2,0:2:0:0:
180,312,29028,6,0,L|112:296,1,60.5000018463135,8|0,0:2|0:0,0:0:0:0:
36,220,29228,2,0,L|104:204,1,60.5000018463135,2|2,0:2|0:2,0:0:0:0:
256,176,29428,2,0,B|343:148|333:237|427:202,1,181.500005538941,2|2,0:0|0:2,0:0:0:0:
408,40,29828,5,0,1:2:0:0:
280,276,30028,1,0,1:2:0:0:
288,64,30228,1,2,0:2:0:0:
416,300,30428,1,2,0:2:0:0:
416,300,30528,1,8,0:3:0:0:
416,300,30628,1,8,0:2:0:0:
456,76,30828,1,0,1:2:0:0:
232,180,31028,1,0,1:2:0:0:
484,208,31228,1,2,0:2:0:0:
272,32,31428,6,0,P|188:32|148:112,1,181.500005538941,2|8,0:2|0:3,0:0:0:0:
147,110,31828,1,0,1:2:0:0:
260,300,32028,1,2,0:2:0:0:
280,296,32128,1,2,0:2:0:0:
300,292,32228,6,0,L|360:276,1,60.5000018463135,8|0,0:2|0:0,0:0:0:0:
468,172,32428,2,0,L|408:160,1,60.5000018463135,0|2,1:2|0:2,0:0:0:0:
216,180,32628,1,0,1:2:0:0:
420,348,32828,1,8,0:3:0:0:
420,72,33028,6,0,B|336:56|360:136|256:116,1,176,0|2,1:2|0:2,0:0:0:0:
50,232,33628,1,0,1:2:0:0:
50,232,33728,1,8,0:3:0:0:
50,232,33828,2,0,B|136:212|120:300|214:276,1,176,8|0,0:2|1:2,0:0:0:0:
408,148,34428,5,2,0:2:0:0:
408,148,34628,2,0,L|396:236,1,88,2|0,0:2|1:2,0:0:0:0:
392,276,34928,1,8,0:3:0:0:
392,276,35028,1,0,1:2:0:0:
224,364,35228,1,2,0:2:0:0:
224,364,35428,2,0,L|212:276,1,88,8|0,0:2|1:2,0:0:0:0:
208,236,35728,1,8,0:3:0:0:
208,236,35828,1,2,0:2:0:0:
376,360,36028,1,2,0:2:0:0:
388,104,36228,6,0,B|300:84|324:176|216:152,1,181.500005538941,0|0,1:2|0:0,0:0:0:0:
248,32,36628,1,2,0:2:0:0:
380,200,36828,1,0,1:2:0:0:
184,260,37028,2,0,L|168:136,1,121.000003692627,8|2,0:2|0:2,0:0:0:0:
48,32,37428,2,0,L|32:152,1,121.000003692627,0|2,1:2|0:2,0:0:0:0:
104,316,37828,6,0,P|148:280|212:280,1,121.000003692627,2|0,0:2|1:2,0:0:0:0:
276,316,38128,1,8,0:3:0:0:
276,316,38228,2,0,P|320:352|384:352,1,121.000003692627,8|0,0:2|1:2,0:0:0:0:
452,96,38628,6,0,L|440:156,1,60.5000018463135,8|0,0:2|0:0,0:0:0:0:
352,256,38828,2,0,L|340:196,1,60.5000018463135,0|8,1:2|0:3,0:0:0:0:
464,92,39028,2,0,L|449:165,1,60.5000018463135,8|0,0:2|0:0,0:0:0:0:
345,271,39228,2,0,L|330:197,1,60.5000018463135,0|8,1:2|0:3,0:0:0:0:
164,24,39428,6,0,P|120:24|84:56,1,88,4|0,1:2|0:0,0:0:0:0:
36,124,39828,1,8,0:2:0:0:
36,124,40028,1,0,0:0:0:0:
100,184,40228,1,8,0:2:0:0:
100,184,40428,1,0,0:0:0:0:
36,244,40628,6,0,L|52:332,1,88,8|0,0:2|0:0,0:0:0:0:
132,364,41028,2,0,L|148:276,1,88,8|0,0:2|0:0,0:0:0:0:
176,196,41428,1,8,0:2:0:0:
176,196,41628,1,0,0:0:0:0:
248,244,41828,1,8,0:2:0:0:
248,244,42028,1,0,0:0:0:0:
308,180,42228,6,0,B|344:176|352:212|388:208,1,88,8|0,0:2|0:0,0:0:0:0:
460,156,42628,2,0,P|460:100|440:72,1,88,8|0,0:2|0:0,0:0:0:0:
368,28,43028,1,8,0:2:0:0:
368,28,43228,1,0,0:0:0:0:
296,84,43428,1,8,0:2:0:0:
296,84,43628,1,0,0:0:0:0:
224,28,43828,6,0,L|136:48,1,88,8|0,0:2|0:0,0:0:0:0:
96,128,44228,2,0,L|184:144,1,88,8|0,0:2|0:0,0:0:0:0:
272,160,44628,1,8,0:2:0:0:
272,160,44828,1,8,0:3:0:0:
348,104,45028,2,0,L|344:80,4,22,8|8|8|8|8,0:2|0:3|0:3|0:3|0:3,0:0:0:0:
360,196,45428,1,8,0:2:0:0:
360,196,45628,1,0,0:0:0:0:
280,320,45828,6,0,B|236:312|232:352|188:344,1,98.9999969787599,4|0,1:2|0:0,0:0:0:0:
140,328,46128,1,0,0:0:0:0:
140,328,46228,2,0,L|124:228,1,98.9999969787599,8|8,0:2|0:3,0:0:0:0:
116,180,46528,1,8,0:3:0:0:
116,180,46628,2,0,L|212:160,1,98.9999969787599,8|0,0:2|0:0,0:0:0:0:
336,128,47028,1,8,0:2:0:0:
336,128,47228,1,0,0:0:0:0:
300,36,47428,6,0,P|256:24|204:40,1,98.9999969787599,8|8,0:2|0:3,0:0:0:0:
176,80,47728,1,8,0:3:0:0:
176,80,47828,2,0,L|164:180,1,98.9999969787599,8|0,0:2|0:0,0:0:0:0:
160,276,48228,2,0,P|196:304|248:304,1,98.9999969787599,8|8,0:2|0:3,0:0:0:0:
292,284,48528,1,8,0:3:0:0:
292,284,48628,2,0,P|332:256|384:256,1,98.9999969787599,8|0,0:2|0:0,0:0:0:0:
436,336,49028,6,0,B|412:280|412:280|436:196,1,148.49999546814,8|0,0:2|0:0,0:0:0:0:
416,96,49428,1,8,0:2:0:0:
416,96,49628,1,0,0:0:0:0:
328,44,49828,2,0,B|292:34|263:65|263:65|229:100|194:88,1,148.49999546814,8|0,0:2|0:0,0:0:0:0:
96,56,50228,1,8,0:2:0:0:
96,56,50428,1,0,0:0:0:0:
112,304,50628,5,0,0:0:0:0:
112,304,51428,2,0,L|108:328,4,24.74999924469,8|8|8|8|8,0:3|0:3|0:3|0:3|0:3,0:0:0:0:
160,32,51828,6,0,B|236:12|232:80|300:60,1,148.49999546814,8|0,0:2|0:0,0:0:0:0:
472,112,52228,6,0,L|440:276,1,165,4|0,1:2|0:0,0:0:0:0:
332,348,52628,5,2,0:2:0:0:
256,188,52828,1,2,0:2:0:0:
184,348,53028,2,0,L|128:336,1,55,8|0,0:2|0:0,0:0:0:0:
56,224,53228,2,0,L|112:212,1,55,2|0,0:2|0:0,0:0:0:0:
256,188,53428,2,0,B|300:180|328:216|312:232|352:272|392:256,1,165,0|0,1:2|0:0,0:0:0:0:
480,48,53828,5,2,0:2:0:0:
384,180,54028,1,8,0:2:0:0:
300,20,54228,2,0,L|293:77,1,55,0|2,1:2|0:2,0:0:0:0:
212,212,54428,2,0,L|204:156,1,55,2|2,0:2|0:2,0:0:0:0:
80,40,54628,2,0,B|32:68|32:68|64:180,1,165,8|2,0:2|0:2,0:0:0:0:
128,344,55028,5,2,0:2:0:0:
212,212,55228,1,0,1:2:0:0:
304,340,55428,2,0,B|359:329|359:329|399:352|399:352|464:338,1,165,0|0,1:2|0:0,0:0:0:0:
512,200,55828,5,2,0:2:0:0:
400,96,56028,1,2,0:2:0:0:
400,96,56128,1,8,0:3:0:0:
400,96,56228,2,0,L|392:152,1,55,8|0,0:2|0:0,0:0:0:0:
272,272,56428,2,0,L|260:216,1,55,2|0,0:2|0:0,0:0:0:0:
176,96,56628,2,0,P|100:96|64:168,1,165,0|0,1:2|0:0,0:0:0:0:
92,340,57028,5,2,0:2:0:0:
192,176,57228,1,0,1:2:0:0:
284,356,57428,2,0,L|340:344,1,55,0|2,1:2|0:2,0:0:0:0:
469,205,57628,1,2,0:2:0:0:
469,205,57728,1,2,0:2:0:0:
469,205,57828,2,0,B|428:186|387:201|401:238|356:255|315:236,1,165,8|2,0:2|0:2,0:0:0:0:
192,240,58228,6,0,P|180:208|180:188,1,55,0|2,1:2|0:2,0:0:0:0:
112,100,58428,2,0,P|123:67|136:52,1,55,8|2,0:2|0:2,0:0:0:0:
256,8,58628,2,0,B|311:17|311:17|345:52|345:52|408:63,1,165,0|0,1:2|0:0,0:0:0:0:
476,150,59028,6,0,L|468:206,1,55,2|2,0:2|0:2,0:0:0:0:
368,296,59228,2,0,L|356:241,1,55,2|2,0:2|0:2,0:0:0:0:
272,88,59428,1,8,0:2:0:0:
188,248,59628,1,2,0:2:0:0:
76,52,59828,2,0,B|28:80|28:80|56:192,1,165,0|0,1:2|0:0,0:0:0:0:
136,340,60228,6,0,L|144:284,1,55,2|0,0:2|0:0,0:0:0:0:
240,104,60428,2,0,L|248:160,1,55,8|2,0:2|0:2,0:0:0:0:
276,344,60628,1,0,1:2:0:0:
384,140,60828,1,2,0:2:0:0:
468,348,61028,2,0,P|516:300|496:208,1,165,8|2,0:2|0:2,0:0:0:0:
436,56,61428,6,0,L|383:67,1,55,2|0,0:2|0:0,0:0:0:0:
288,188,61628,2,0,L|341:199,1,55,0|2,1:2|0:2,0:0:0:0:
204,36,61828,2,0,B|159:61|159:61|187:171,1,165,0|0,1:2|0:0,0:0:0:0:
276,348,62228,5,2,0:2:0:0:
436,264,62428,1,0,0:0:0:0:
436,264,62528,1,8,0:3:0:0:
436,264,62628,2,0,L|376:248,1,55,8|0,0:2|0:0,0:0:0:0:
276,168,62828,2,0,L|336:152,1,55,2|0,0:2|0:0,0:0:0:0:
448,32,63028,2,0,B|368:8|384:92|292:60,1,165,0|0,1:2|0:0,0:0:0:0:
176,32,63428,6,0,L|120:44,1,55,2|0,0:2|0:0,0:0:0:0:
25,134,63628,2,0,L|80:144,1,55,8|2,0:3|0:2,0:0:0:0:
216,208,63828,2,0,L|160:218,1,55,0|2,1:2|0:2,0:0:0:0:
48,296,64028,1,0,1:2:0:0:
48,296,64128,1,2,0:2:0:0:
48,296,64228,2,0,B|90:279|121:317|121:317|154:355|196:339,1,165,8|8,0:2|0:3,0:0:0:0:
336,252,64628,5,0,1:2:0:0:
344,219,64728,1,8,0:3:0:0:
336,185,64828,1,8,0:2:0:0:
314,160,64928,1,2,0:2:0:0:
282,148,65028,6,0,B|176:120|176:120|136:160,1,165,4|0,1:2|0:0,0:0:0:0:
56,112,65428,2,0,L|96:72,1,55,2|2,0:2|0:2,0:0:0:0:
200,32,65628,2,0,L|256:48,1,55,2|2,0:2|0:2,0:0:0:0:
344,219,65828,2,0,L|396:203,1,55,8|0,0:2|0:0,0:0:0:0:
488,80,66028,2,0,L|435:64,1,55,2|0,0:2|0:0,0:0:0:0:
252,47,66228,2,0,P|208:95|208:191,1,165,0|0,1:2|0:0,0:0:0:0:
312,352,66628,6,0,L|368:340,1,55,2|0,0:2|0:0,0:0:0:0:
488,248,66828,2,0,L|432:236,1,55,0|2,1:0|0:2,0:0:0:0:
304,362,67028,2,0,L|367:348,1,55,0|2,1:2|0:2,0:0:0:0:
504,243,67228,2,0,L|440:229,1,55,2|2,0:2|0:2,0:0:0:0:
288,128,67428,2,0,B|281:207|281:207|284:212|284:212|277:291,1,165,8|2,0:2|0:2,0:0:0:0:
160,340,67828,6,0,L|156:285,1,55,0|0,1:2|0:0,0:0:0:0:
136,96,68028,1,0,1:2:0:0:
136,96,68128,1,2,0:2:0:0:
136,96,68228,2,0,P|180:36|264:36,1,165,0|0,1:2|0:0,0:0:0:0:
280,244,68628,6,0,P|248:244|228:232,1,55,2|2,0:2|0:2,0:0:0:0:
351,55,68828,1,0,1:2:0:0:
351,55,68928,1,8,0:3:0:0:
351,55,69028,2,0,L|363:115,1,55,8|0,0:2|0:0,0:0:0:0:
436,288,69228,2,0,L|444:232,1,55,2|0,0:2|0:0,0:0:0:0:
509,60,69428,2,0,B|470:48|434:86|434:86|397:123|358:107,1,165,0|0,1:2|0:0,0:0:0:0:
204,64,69828,6,0,L|215:117,1,55,2|0,0:2|0:0,0:0:0:0:
268,297,70028,2,0,L|279:243,1,55,0|2,1:2|0:2,0:0:0:0:
188,64,70228,2,0,L|199:117,1,55,0|2,1:2|0:2,0:0:0:0:
176,340,70428,1,2,0:2:0:0:
176,340,70528,1,2,0:2:0:0:
176,340,70628,2,0,P|88:340|60:276,1,165,8|2,0:2|0:2,0:0:0:0:
52,160,71028,6,0,P|76:144|108:144,1,55,0|2,1:2|0:2,0:0:0:0:
216,260,71228,2,0,P|184:260|164:244,1,55,0|2,1:2|0:2,0:0:0:0:
272,60,71428,2,0,B|312:88|312:88|284:216,1,165,0|0,1:2|0:0,0:0:0:0:
312,352,71828,6,0,P|336:364|364:364,1,55,2|2,0:2|0:2,0:0:0:0:
448,192,72028,2,0,P|420:191|396:204,1,55,2|2,0:2|0:2,0:0:0:0:
448,368,72228,2,0,L|460:312,1,55,8|0,0:2|0:0,0:0:0:0:
287,201,72428,2,0,L|298:254,1,55,2|0,0:2|0:0,0:0:0:0:
512,152,72628,2,0,P|484:100|388:100,1,165,0|0,1:2|0:0,0:0:0:0:
287,201,73028,6,0,P|251:201|231:189,1,55,2|0,0:2|0:0,0:0:0:0:
172,56,73228,2,0,P|192:44|228:44,1,55,0|2,1:2|0:2,0:0:0:0:
144,268,73428,2,0,P|132:244|132:212,1,55,0|2,1:2|0:2,0:0:0:0:
32,144,73628,2,0,P|38:117|58:93,1,55,2|2,0:2|0:2,0:0:0:0:
223,42,73828,2,0,B|262:30|298:68|298:68|335:105|374:89,1,165,8|2,0:2|0:2,0:0:0:0:
512,96,74228,6,0,L|504:156,1,55,2|0,0:2|0:0,0:0:0:0:
472,296,74428,1,0,1:2:0:0:
472,296,74528,1,2,0:2:0:0:
472,296,74628,2,0,B|420:268|420:268|316:308,1,165,0|0,1:2|0:0,0:0:0:0:
208,344,75028,6,0,L|216:284,1,55,2|2,0:2|0:2,0:0:0:0:
304,160,75228,1,2,0:2:0:0:
304,160,75328,1,8,0:3:0:0:
304,160,75428,2,0,L|311:214,1,55,8|0,0:2|0:0,0:0:0:0:
196,356,75628,2,0,L|204:296,1,55,2|0,0:2|0:0,0:0:0:0:
208,92,75828,2,0,B|169:80|133:118|133:118|96:155|57:139,1,165,0|0,1:2|0:0,0:0:0:0:
44,48,76228,6,0,P|68:32|96:32,1,55,2|0,0:2|0:0,0:0:0:0:
196,168,76428,1,8,0:2:0:0:
196,168,76528,1,2,0:2:0:0:
196,168,76628,2,0,P|220:184|248:184,1,55,0|2,1:2|0:2,0:0:0:0:
336,64,76828,1,0,1:2:0:0:
336,64,76928,1,2,0:2:0:0:
336,64,77028,2,0,P|392:16|472:40,1,165,8|8,0:2|0:3,0:0:0:0:
476,180,77428,5,0,1:2:0:0:
457,200,77528,1,0,1:2:0:0:
433,212,77628,1,8,0:2:0:0:
406,216,77728,1,8,0:2:0:0:
379,211,77828,5,4,1:2:0:0:
380,212,84228,6,0,L|368:312,2,98.9999969787599,10|0|2,0:2|0:0|0:2,0:0:0:0:
304,136,85028,2,0,L|288:32,2,98.9999969787599,8|0|2,0:2|0:0|0:2,0:0:0:0:
284,244,85828,6,0,P|224:272|164:244,1,131.99999597168,8|8,0:2|0:2,0:0:0:0:
100,128,86428,1,2,0:2:0:0:
100,128,86628,2,0,P|164:108|216:148,1,131.99999597168,8|8,0:2|0:2,0:0:0:0:
140,292,87228,1,2,0:2:0:0:
140,292,87328,1,2,0:2:0:0:
140,292,87428,6,0,L|96:300,2,44,8|2|2,0:2|0:2|0:2,0:0:0:0:
256,352,87728,2,0,L|212:360,2,44,0|8|0,0:0|0:2|0:0,0:0:0:0:
276,240,88028,2,0,L|232:228,1,44,2|0,0:2|0:0,0:0:0:0:
140,160,88228,1,8,0:2:0:0:
131,142,88328,1,0,0:0:0:0:
127,124,88428,1,2,0:2:0:0:
126,104,88528,1,0,0:0:0:0:
130,86,88628,1,8,0:2:0:0:
137,68,88728,1,0,0:0:0:0:
148,52,88828,1,0,0:0:0:0:
162,39,88928,1,0,0:0:0:0:
179,30,89028,6,0,B|328:4|276:160|456:128,1,308,8|0,0:2|0:0,0:0:0:0:
412,28,89828,5,8,0:2:0:0:
375,51,89928,1,8,0:1:0:0:
352,88,90028,1,4,0:3:0:0:
346,132,90128,1,4,0:3:0:0:
358,173,90228,2,0,L|406:181,1,44,8|0,0:2|0:0,0:0:0:0:
488,320,90428,2,0,L|440:328,1,44
280,356,90628,6,0,B|238:372|200:323|200:323|168:280|124:292,1,181.500005538941,4|0,1:2|0:0,0:0:0:0:
124,291,91028,2,0,B|168:303|202:258|202:258|238:211|280:227,1,181.500005538941,2|8,0:0|0:3,0:0:0:0:
392,232,91428,6,0,P|392:152|308:112,1,181.500005538941,8|0,0:2|0:0,0:0:0:0:
212,88,91828,2,0,P|256:28|356:28,1,181.500005538941,0|0,1:2|0:0,0:0:0:0:
472,184,92228,2,0,B|412:156|412:156|308:204,1,181.500005538941,2|8,0:0|0:3,0:0:0:0:
124,291,92628,1,0,1:2:0:0:
124,291,93028,5,8,0:2:0:0:
208,56,93228,1,8,0:3:0:0:
260,308,93428,1,8,0:3:0:0:
88,132,93628,1,2,0:0:0:0:
312,40,93828,6,0,P|368:64|368:180,1,181.500005538941,0|0,1:2|0:0,0:0:0:0:
288,312,94228,1,2,0:0:0:0:
88,208,94428,1,8,0:3:0:0:
88,208,94528,1,8,0:3:0:0:
88,208,94628,2,0,L|280:176,1,181.500005538941,8|0,0:2|0:0,0:0:0:0:
400,52,95028,2,0,B|316:36|328:116|232:96,1,181.500005538941,0|0,1:2|0:0,0:0:0:0:
96,16,95428,5,8,0:3:0:0:
98,30,95528,1,8,0:3:0:0:
101,45,95628,1,8,0:3:0:0:
104,60,95728,1,8,0:3:0:0:
107,75,95828,2,0,L|131:199,1,121.000003692627,0|0,1:2|0:0,0:0:0:0:
264,300,96228,6,0,L|286:181,1,121.000003692627,8|0,0:2|1:2,0:0:0:0:
344,76,96528,1,0,0:0:0:0:
344,76,96628,2,0,L|366:194,1,121.000003692627,8|8,0:2|0:3,0:0:0:0:
436,356,97028,6,0,P|500:312|500:200,1,197.99999395752,0|2,1:2|0:2,0:0:0:0:
264,196,97628,1,2,0:2:0:0:
264,196,97828,2,0,P|320:260|428:260,1,197.99999395752,8|0,0:2|1:2,0:0:0:0:
388,32,98428,5,2,0:2:0:0:
388,32,98628,2,0,L|372:136,1,98.9999969787599,2|2,0:2|0:2,0:0:0:0:
368,164,98928,1,8,0:3:0:0:
368,164,99028,1,2,0:2:0:0:
284,328,99228,1,2,0:2:0:0:
284,328,99428,2,0,L|268:224,1,98.9999969787599,8|0,0:2|1:2,0:0:0:0:
264,196,99728,1,8,0:3:0:0:
264,196,99828,1,2,0:2:0:0:
136,340,100028,1,2,0:2:0:0:
260,92,100228,6,0,B|308:76|340:116|340:116|376:160|420:144,1,181.500005538941,0|0,1:2|0:0,0:0:0:0:
396,28,100628,1,2,0:2:0:0:
348,220,100828,1,2,0:2:0:0:
220,16,101028,2,0,L|204:136,1,121.000003692627,8|2,0:2|0:2,0:0:0:0:
124,328,101428,2,0,L|97:209,1,121.000003692627,0|2,1:2|0:2,0:0:0:0:
80,64,101828,6,0,P|108:48|136:48,1,60.5000018463135,2|2,0:2|0:2,0:0:0:0:
68,52,102028,2,0,P|96:36|124:36,1,60.5000018463135,0|0,1:2|0:0,0:0:0:0:
284,184,102228,2,0,P|252:183|228:167,1,60.5000018463135,8|0,0:2|0:0,0:0:0:0:
276,200,102428,2,0,P|244:199|220:183,1,60.5000018463135,2|2,0:2|0:2,0:0:0:0:
352,24,102628,5,8,0:2:0:0:
352,24,102728,1,0,0:0:0:0:
352,24,102828,2,0,L|364:84,1,60.5000018463135,2|2,0:2|0:2,0:0:0:0:
472,196,103028,1,8,0:2:0:0:
472,196,103128,1,2,0:2:0:0:
472,196,103228,2,0,L|457:255,1,60.5000018463135,2|2,0:2|0:2,0:0:0:0:
304,348,103428,6,0,L|124:300,1,181.500005538941,4|0,1:2|0:0,0:0:0:0:
128,301,103828,2,0,L|308:253,1,181.500005538941,2|2,0:2|0:2,0:0:0:0:
368,88,104228,6,0,P|288:88|244:172,1,181.500005538941,8|0,0:2|0:0,0:0:0:0:
184,28,104628,2,0,P|132:92|132:188,1,181.500005538941,0|0,1:2|0:0,0:0:0:0:
184,284,105028,6,0,B|240:248|240:248|352:288,1,181.500005538941,2|8,0:2|0:3,0:0:0:0:
348,286,105428,1,0,1:2:0:0:
496,320,105628,1,2,0:2:0:0:
500,296,105728,1,2,0:2:0:0:
504,272,105828,6,0,L|496:212,1,60.5000018463135,8|0,0:2|0:0,0:0:0:0:
376,96,106028,2,0,L|368:156,1,60.5000018463135,2|2,0:2|0:2,0:0:0:0:
292,284,106228,2,0,B|212:252|216:348|120:308,1,181.500005538941,2|2,0:0|0:2,0:0:0:0:
148,152,106628,5,0,1:2:0:0:
264,364,106828,1,0,1:2:0:0:
264,104,107028,1,2,0:2:0:0:
148,316,107228,1,2,0:2:0:0:
148,316,107328,1,8,0:3:0:0:
148,316,107428,1,8,0:2:0:0:
364,200,107628,1,0,1:2:0:0:
124,164,107828,1,0,1:2:0:0:
336,308,108028,1,2,0:2:0:0:
228,32,108228,6,0,B|188:68|188:68|216:192,1,181.500005538941,2|8,0:2|0:3,0:0:0:0:
216,192,108628,1,0,1:2:0:0:
219,336,108828,1,2,0:2:0:0:
196,332,108928,1,2,0:2:0:0:
174,329,109028,6,0,L|112:320,1,60.5000018463135,8|0,0:2|0:0,0:0:0:0:
36,208,109228,2,0,L|98:198,1,60.5000018463135,0|2,1:2|0:2,0:0:0:0:
260,32,109428,1,0,1:2:0:0:
60,112,109628,1,8,0:3:0:0:
196,248,109828,6,0,B|236:260|269:217|269:217|308:172|348:184,1,176,0|2,1:2|0:2,0:0:0:0:
488,344,110428,1,0,1:2:0:0:
488,344,110528,1,8,0:3:0:0:
488,344,110628,2,0,B|448:356|414:313|414:313|376:268|336:280,1,176,8|0,0:2|1:2,0:0:0:0:
228,352,111228,5,2,0:2:0:0:
228,352,111428,2,0,L|240:260,1,88,2|0,0:2|1:2,0:0:0:0:
248,224,111728,1,8,0:3:0:0:
248,224,111828,1,0,1:2:0:0:
80,96,112028,1,2,0:2:0:0:
80,96,112228,2,0,L|92:188,1,88,8|0,0:2|1:2,0:0:0:0:
100,224,112528,1,8,0:3:0:0:
100,224,112628,1,2,0:2:0:0:
120,356,112828,1,2,0:2:0:0:
212,148,113028,6,0,B|304:113|294:202|384:172,1,181.500005538941,0|0,1:2|0:0,0:0:0:0:
368,48,113428,1,2,0:2:0:0:
244,232,113628,1,0,1:2:0:0:
476,264,113828,2,0,L|456:144,1,121.000003692627,8|2,0:2|0:2,0:0:0:0:
280,20,114228,2,0,L|260:140,1,121.000003692627,0|2,1:2|0:2,0:0:0:0:
220,304,114628,6,0,P|184:340|116:340,1,121.000003692627,2|0,0:2|1:2,0:0:0:0:
44,280,114928,1,8,0:3:0:0:
44,280,115028,2,0,P|20:220|36:168,1,121.000003692627,8|0,0:2|1:2,0:0:0:0:
116,40,115428,6,0,L|128:104,1,60.5000018463135,8|0,0:2|0:0,0:0:0:0:
224,216,115628,2,0,L|235:156,1,60.5000018463135,8|8,0:2|0:3,0:0:0:0:
272,48,115828,2,0,L|304:56,2,30.2500009231568,8|8|8,0:3|0:3|0:3,0:0:0:0:
368,168,116028,2,0,L|336:176,2,30.2500009231568,8|8|8,0:2|0:3|0:3,0:0:0:0:
488,28,116228,5,4,1:2:0:0:
488,28,117028,6,0,L|472:120,1,88,8|0,0:2|0:0,0:0:0:0:
387,253,117428,2,0,L|367:165,1,88
312,40,117828,2,0,P|264:40|232:64,1,88
216,200,118228,2,0,B|288:192|268:252|336:244,1,132
372,252,118628,6,0,L|356:348,1,88,8|0,0:2|0:0,0:0:0:0:
248,360,119028,2,0,L|160:344,1,88
104,244,119428,2,0,P|148:172|232:172,1,176
352,216,120128,5,8,0:1:0:0:
352,216,120228,2,0,L|440:200,1,88,8|0,0:2|0:0,0:0:0:0:
472,40,120628,1,0,0:0:0:0:
472,40,120728,1,0,0:0:0:0:
352,216,121028,1,0,0:0:0:0:
352,216,121128,1,0,0:0:0:0:
248,32,121428,6,0,P|200:32|168:60,1,88
152,96,121728,1,8,0:1:0:0:
152,96,121828,2,0,L|164:188,1,88,8|0,0:2|0:0,0:0:0:0:
148,332,122228,2,0,P|108:348|64:332,1,88
52,152,122628,2,0,B|96:136|132:172|132:172|172:212|220:192,1,176
364,192,123428,6,0,L|380:280,1,88,8|0,0:2|0:0,0:0:0:0:
460,348,123828,2,0,L|475:261,1,88
504,128,124228,2,0,P|468:100|428:100,1,88
328,176,124628,2,0,P|288:220|220:220,1,132
192,192,125028,6,0,L|176:104,1,88,8|0,0:2|0:0,0:0:0:0:
92,40,125428,2,0,L|76:126,1,88
68,260,125828,2,0,B|164:244|132:328|228:312,1,176
336,204,126528,5,8,0:1:0:0:
336,204,126628,2,0,L|248:184,1,88,8|0,0:2|0:0,0:0:0:0:
144,68,127028,2,0,L|232:48,1,88
360,56,127428,6,0,L|384:48,2,22,0|0|0,1:2|0:0|0:0,0:0:0:0:
276,148,127628,2,0,L|284:192,1,44,0|0,1:2|0:0,0:0:0:0:
364,304,127828,2,0,L|372:260,1,44,0|0,1:2|0:0,0:0:0:0:
276,148,128028,2,0,L|284:192,1,44,0|0,1:2|0:0,0:0:0:0:
220,352,128228,6,0,L|132:332,1,88
36,240,128628,2,0,L|121:220,1,88
283,191,129028,6,0,L|356:200,2,73.3333333333333
256,60,129428,2,0,L|184:76,2,73.3333333333333
488,76,129828,6,0,L|476:148,1,73.3333333333333,8|0,0:2|0:0,0:0:0:0:
428,288,130094,1,0,0:0:0:0:
428,288,130228,2,0,B|381:277|381:277|338:299|338:299|286:289,1,146.666666666667,0|0,1:2|0:0,0:0:0:0:
248,176,130628,6,0,L|258:104,2,73.3333333333333,2|0|0,0:2|0:0|0:0,0:0:0:0:
164,296,131028,2,0,L|178:367,2,73.3333333333333,0|0|0,1:2|0:0|0:0,0:0:0:0:
32,184,131428,6,0,L|40:112,1,73.3333333333333,8|0,0:2|0:0,0:0:0:0:
112,20,131694,1,0,0:0:0:0:
112,20,131828,2,0,B|157:14|157:14|201:38|201:38|253:30,1,146.666666666667,2|0,0:2|0:0,0:0:0:0:
416,28,132228,6,0,L|488:12,2,73.3333333333333,0|0|0,1:2|0:0|0:0,0:0:0:0:
324,128,132628,2,0,L|252:112,2,73.3333333333333,2|0|0,0:2|0:0|0:0,0:0:0:0:
484,188,133028,6,0,L|472:260,1,73.3333333333333,8|0,0:2|0:0,0:0:0:0:
400,344,133294,1,0,0:0:0:0:
400,344,133428,2,0,B|327:316|323:376|259:348,1,146.666666666667,0|0,1:2|0:0,0:0:0:0:
96,328,133828,6,0,L|24:344,2,73.3333333333333,2|0|0,0:2|0:0|0:0,0:0:0:0:
212,248,134228,2,0,L|284:264,2,73.3333333333333,0|0|0,1:2|0:0|0:0,0:0:0:0:
64,184,134628,6,0,L|72:104,1,73.3333333333333,8|0,0:2|0:0,0:0:0:0:
132,20,134894,1,0,0:0:0:0:
132,20,135028,2,0,B|180:4|188:56|244:36,1,110,0|8,1:2|0:3,0:0:0:0:
488,28,135428,5,0,1:2:0:0:
488,28,135561,2,0,L|496:100,1,73.3333333333333
480,284,135828,1,0,1:2:0:0:
480,284,135961,2,0,L|408:296,1,73.3333333333333
312,140,136228,6,0,L|302:68,2,73.3333333333333,8|0|0,0:2|0:0|0:0,0:0:0:0:
328,344,136628,2,0,B|280:316|280:316|192:348,1,146.666666666667,0|0,1:2|0:0,0:0:0:0:
44,360,137028,5,0,1:2:0:0:
44,360,137161,2,0,L|52:288,1,73.3333333333333
208,232,137428,1,0,1:2:0:0:
208,232,137561,2,0,L|196:160,1,73.3333333333333
104,36,137828,6,0,L|32:56,2,73.3333333333333,8|0|0,0:2|0:0|0:0,0:0:0:0:
296,28,138228,2,0,P|336:76|320:156,1,146.666666666667,8|0,0:2|0:0,0:0:0:0:
348,356,138628,5,0,1:2:0:0:
348,356,138761,1,0,0:0:0:0:
348,356,138894,1,0,0:0:0:0:
348,356,139028,2,0,L|456:336,1,110,0|2,1:2|0:2,0:0:0:0:
512,192,139428,5,8,0:2:0:0:
512,192,139561,1,0,0:0:0:0:
512,192,139694,1,0,0:0:0:0:
512,192,139828,2,0,L|402:170,1,110,0|0,1:2|1:2,0:0:0:0:
208,40,140228,5,0,1:2:0:0:
199,80,140361,1,0,0:0:0:0:
191,120,140494,1,0,0:0:0:0:
280,192,140628,5,0,1:2:0:0:
288,152,140761,1,0,0:0:0:0:
296,112,140894,1,0,0:0:0:0:
400,64,141028,6,0,L|389:120,1,55,8|0,0:2|0:0,0:0:0:0:
256,316,141228,2,0,L|245:262,1,55,8|0,0:2|1:2,0:0:0:0:
88,64,141428,5,8,0:2:0:0:
53,86,141528,1,8,0:2:0:0:
34,122,141628,1,8,0:2:0:0:
34,162,141728,1,8,0:2:0:0:
54,198,141828,5,4,1:2:0:0:
54,198,148228,6,0,L|42:298,2,98.9999969787599,2|0|0,0:2|0:0|0:0,0:0:0:0:
152,124,149028,2,0,L|136:20,2,98.9999969787599,8|0|0,0:2|0:0|0:0,0:0:0:0:
188,244,149828,6,0,B|256:240|244:296|308:292,1,131.99999597168,8|8,0:2|0:2,0:0:0:0:
416,244,150428,1,0,0:0:0:0:
416,244,150628,2,0,P|444:180|416:128,1,131.99999597168,8|8,0:2|0:2,0:0:0:0:
320,56,151228,1,2,0:2:0:0:
320,56,151328,1,2,0:2:0:0:
320,56,151428,6,0,B|284:36|284:36|192:64,1,131.99999597168,8|8,0:2|0:2,0:0:0:0:
112,148,152028,1,0,0:0:0:0:
112,148,152228,2,0,L|132:280,1,131.99999597168,8|8,0:2|0:2,0:0:0:0:
220,340,152828,1,0,0:0:0:0:
320,292,153028,6,0,B|392:280|380:340|448:328,2,131.99999597168,8|8|8,0:2|0:2|0:2,0:0:0:0:
96,228,154228,5,8,0:2:0:0:
94,203,154328,1,0,0:0:0:0:
92,178,154428,1,2,0:2:0:0:
90,153,154528,1,2,0:2:0:0:
88,128,154628,2,0,P|128:88|216:88,1,146.666666666667,8|0,0:2|0:0,0:0:0:0:
304,184,155028,6,0,L|292:256,2,73.3333333333333,8|0|0,0:2|0:0|0:0,0:0:0:0:
392,104,155428,2,0,L|380:32,2,73.3333333333333,8|0|0,0:2|0:0|0:0,0:0:0:0:
448,228,155828,6,0,L|424:308,1,73.3333333333333,8|0,0:2|0:0,0:0:0:0:
316,348,156094,1,0,0:0:0:0:
316,348,156228,2,0,B|248:348|272:284|192:284,1,146.666666666667,8|0,0:2|0:0,0:0:0:0:
88,192,156628,5,8,0:2:0:0:
88,192,156761,1,0,0:0:0:0:
88,192,156894,1,0,0:0:0:0:
88,192,157028,2,0,L|232:164,1,146.666666666667,8|0,0:2|0:0,0:0:0:0:
364,56,157428,5,8,0:2:0:0:
364,56,157561,1,0,0:0:0:0:
364,56,157694,1,0,0:0:0:0:
364,56,157828,2,0,L|220:28,1,146.666666666667,8|0,0:2|0:0,0:0:0:0:
60,40,158228,6,0,L|52:116,1,73.3333333333333,8|0,0:2|0:0,0:0:0:0:
72,232,158494,1,0,0:0:0:0:
72,232,158628,2,0,B|148:208|140:276|212:252,1,146.666666666667,8|0,0:2|0:0,0:0:0:0:
360,184,159028,6,0,L|432:204,1,73.3333333333333,8|0,0:2|0:0,0:0:0:0:
404,324,159294,1,0,0:0:0:0:
404,324,159428,2,0,B|328:300|336:368|264:344,1,146.666666666667,8|0,0:2|0:0,0:0:0:0:
132,288,159828,6,0,L|140:360,2,73.3333333333333,8|0|0,0:2|0:0|0:0,0:0:0:0:
140,140,160228,2,0,P|196:104|268:132,1,146.666666666667,8|0,0:2|0:0,0:0:0:0:
352,252,160628,6,0,L|280:236,2,73.3333333333333,8|0|0,0:2|0:0|0:0,0:0:0:0:
432,128,161028,1,0,0:0:0:0:
