osu file format v14

[General]
AudioFilename: audio.mp3
AudioLeadIn: 0
PreviewTime: 51677
Countdown: 0
SampleSet: Soft
StackLeniency: 0.7
Mode: 0
LetterboxInBreaks: 0
EpilepsyWarning: 1
WidescreenStoryboard: 1

[Editor]
DistanceSpacing: 1.2
BeatDivisor: 4
GridSize: 32
TimelineZoom: 1.600001

[Metadata]
Title:THE BADDEST feat. (G)I-DLE, Bea Miller, Wolftyla
TitleUnicode:THE BADDEST feat. (G)I-DLE, Bea Miller, Wolftyla
Artist:K/DA
ArtistUnicode:K/DA
Creator:Elinor
Version:Easy
Source:League of Legends
Tags:kujinn reform mir rosiie [_eli_] eli kda lol english korean pop k-pop kpop ahri evelynn kaisa kai'sa akali riot games miyeon soyeon (여자)아이들 gidle g_idle
BeatmapID:2593882
BeatmapSetID:1246447

[Difficulty]
HPDrainRate:3
CircleSize:3.2
OverallDifficulty:2.2
ApproachRate:4
SliderMultiplier:0.799999999999999
SliderTickRate:1

[Events]
//Background and Video events
0,0,"bg.jpg",0,0
//Break Periods
2,78028,86108
2,142028,150108
//Storyboard Layer 0 (Background)
//Storyboard Layer 1 (Fail)
//Storyboard Layer 2 (Pass)
//Storyboard Layer 3 (Foreground)
Sprite,Foreground,Centre,"sb\glow.png",0,0 C,0,65028,,82,237,254 M,0,65028,65078,304,192,313.9341,190.8746 F,2,65028,66078,1,0 S,2,65028,66078,0.4,0.08 P,0,65028,66078,A M,0,65078,65128,313.9341,190.8746,323.9263,190.5999 M,0,65128,65178,323.9263,190.5999,333.8896,191.3765 M,0,65178,65228,333.8896,191.3765,343.6688,193.4241 M,0,65228,65278,343.6688,193.4241,353.0538,196.8498 M,0,65278,65328,353.0538,196.8498,361.8762,201.5425 M,0,65328,65378,361.8762,201.5425,370.153,207.149 M,0,65378,65428,370.153,207.149,378.1132,213.2012 M,0,65428,65478,378.1132,213.2012,386.1107,219.2035 M,0,65478,65528,386.1107,219.2035,394.4909,224.6526 M,0,65528,65578,394.4909,224.6526,403.4409,229.0951 M,0,65578,65628,403.4409,229.0951,412.9309,232.2185 M,0,65628,65678,412.9309,232.2185,422.7719,233.9484 M,0,65678,65728,422.7719,233.9484,432.7535,234.4466 M,0,65728,65778,432.7535,234.4466,442.7358,233.921 M,0,65778,65828,442.7358,233.921,452.645,232.5959
Sprite,Foreground,Centre,"sb\glow.png",0,0 C,0,66228,,82,237,254 M,0,66228,66278,540,192,542.332,182.2995 F,2,66228,66878,1,0 S,2,66228,66878,0.4,0.08 P,0,66228,66878,A M,0,66278,66328,542.332,182.2995,543.4222,172.3945 M,0,66328,66378,543.4222,172.3945,543.256,162.441 M,0,66378,66428,543.256,162.441,541.8378,152.5955 M,0,66428,66478,541.8378,152.5955,539.1915,143.0127 M,0,66478,66528,539.1915,143.0127,535.3599,133.8431 M,0,66528,66578,535.3599,133.8431,530.7669,124.9962 M,0,66578,66628,530.7669,124.9962,524.6975,117.0656
Sprite,Foreground,Centre,"sb\glow.png",436,80 C,0,67028,,82,237,254 F,2,67028,67278,1,0 S,2,67028,67278,0.4,0.08 P,0,67028,67278,A
Sprite,Foreground,Centre,"sb\glow.png",0,0 C,0,67428,,82,237,254 M,0,67428,67478,340,88,330.1942,89.96117 F,2,67428,68078,1,0 S,2,67428,68078,0.4,0.08 P,0,67428,68078,A M,0,67478,67528,330.1942,89.96117,320.3884,91.92232 M,0,67528,67578,320.3884,91.92232,310.5826,93.88348 M,0,67578,67628,310.5826,93.88348,300.7768,95.84465 M,0,67628,67678,300.7768,95.84465,290.9709,97.80581 M,0,67678,67728,290.9709,97.80581,281.1652,99.76697 M,0,67728,67778,281.1652,99.76697,271.3593,101.7281 M,0,67778,67828,271.3593,101.7281,261.5535,103.6893
Sprite,Foreground,Centre,"sb\glow.png",0,0 C,0,68228,,200,146,254 M,0,68228,68278,192,172,194.5102,181.6797 F,2,68228,69278,1,0 S,2,68228,69278,0.4,0.08 P,0,68228,69278,A M,0,68278,68328,194.5102,181.6797,196.9459,191.3784 M,0,68328,68378,196.9459,191.3784,199.307,201.0955 M,0,68378,68428,199.307,201.0955,201.5936,210.8304 M,0,68428,68478,201.5936,210.8304,203.8053,220.5825 M,0,68478,68528,203.8053,220.5825,205.9595,230.3475 M,0,68528,68578,205.9595,230.3475,208.0108,240.1347 M,0,68578,68628,208.0108,240.1347,209.9868,249.9373 M,0,68628,68678,209.9868,249.9373,211.8876,259.7549 M,0,68678,68728,211.8876,259.7549,213.7129,269.5866 M,0,68728,68778,213.7129,269.5866,215.4813,279.4288 M,0,68778,68828,215.4813,279.4288,217.1449,289.2894 M,0,68828,68878,217.1449,289.2894,218.7328,299.1623 M,0,68878,68928,218.7328,299.1623,220.2447,309.0471 M,0,68928,68978,220.2447,309.0471,221.6808,318.9433 M,0,68978,69028,221.6808,318.9433,223.0645,328.847
Sprite,Foreground,Centre,"sb\glow.png",284,400 C,0,69428,,200,146,254 F,2,69428,69678,1,0 S,2,69428,69678,0.4,0.08 P,0,69428,69678,A
Sprite,Foreground,Centre,"sb\glow.png",0,0 C,0,69828,,200,146,254 M,0,69828,69878,380,400,389.8234,398.1289 F,2,69828,70478,1,0 S,2,69828,70478,0.4,0.08 P,0,69828,70478,A M,0,69878,69928,389.8234,398.1289,399.6468,396.2578 M,0,69928,69978,399.6468,396.2578,409.4702,394.3866 M,0,69978,70028,409.4702,394.3866,419.2935,392.5155 M,0,70028,70078,419.2935,392.5155,429.1169,390.6444 M,0,70078,70128,429.1169,390.6444,438.9403,388.7733 M,0,70128,70178,438.9403,388.7733,448.7637,386.9022 M,0,70178,70228,448.7637,386.9022,458.5871,385.031
Sprite,Foreground,Centre,"sb\glow.png",0,0 C,0,70628,,200,146,254 M,0,70628,70678,492,296,482.1005,294.5858 F,2,70628,71278,1,0 S,2,70628,71278,0.4,0.08 P,0,70628,71278,A M,0,70678,70728,482.1005,294.5858,472.201,293.1716 M,0,70728,70778,472.201,293.1716,462.3015,291.7574 M,0,70778,70828,462.3015,291.7574,452.402,290.3431 M,0,70828,70878,452.402,290.3431,442.5025,288.9289 M,0,70878,70928,442.5025,288.9289,432.603,287.5147 M,0,70928,70978,432.603,287.5147,422.7036,286.1005 M,0,70978,71028,422.7036,286.1005,412.804,284.6863
Sprite,Foreground,Centre,"sb\glow.png",0,0 C,0,71428,,255,255,89 M,0,71428,71478,320,264,310.1599,262.2507 F,2,71428,72478,1,0 S,2,71428,72478,0.4,0.08 P,0,71428,72478,A M,0,71478,71528,310.1599,262.2507,300.1796,261.8081 M,0,71528,71578,300.1796,261.8081,290.2664,263.0076 M,0,71578,71628,290.2664,263.0076,280.7407,266.0004 M,0,71628,71678,280.7407,266.0004,271.8621,270.5797 M,0,71678,71728,271.8621,270.5797,263.6244,276.2419 M,0,71728,71778,263.6244,276.2419,255.7774,282.4398 M,0,71778,71828,255.7774,282.4398,247.9731,288.6918 M,0,71828,71878,247.9731,288.6918,239.883,294.5658 M,0,71878,71928,239.883,294.5658,231.2766,299.6461 M,0,71928,71978,231.2766,299.6461,222.0876,303.5677 M,0,71978,72028,222.0876,303.5677,212.4266,306.1112 M,0,72028,72078,212.4266,306.1112,202.5019,307.2669 M,0,72078,72128,202.5019,307.2669,192.5082,307.1876 M,0,72128,72178,192.5082,307.1876,182.5731,306.0871 M,0,72178,72228,182.5731,306.0871,172.76,304.1767
Sprite,Foreground,Centre,"sb\glow.png",104,236 C,0,72628,,255,255,89 F,2,72628,72878,1,0 S,2,72628,72878,0.4,0.08 P,0,72628,72878,A
Sprite,Foreground,Centre,"sb\glow.png",0,0 C,0,73028,,255,255,89 M,0,73028,73078,120,140,129.8058,138.0388 F,2,73028,73678,1,0 S,2,73028,73678,0.4,0.08 P,0,73028,73678,A M,0,73078,73128,129.8058,138.0388,139.6116,136.0777 M,0,73128,73178,139.6116,136.0777,149.4174,134.1165 M,0,73178,73228,149.4174,134.1165,159.2232,132.1554 M,0,73228,73278,159.2232,132.1554,169.029,130.1942 M,0,73278,73328,169.029,130.1942,178.8348,128.233 M,0,73328,73378,178.8348,128.233,188.6407,126.2719 M,0,73378,73428,188.6407,126.2719,198.4465,124.3107
Sprite,Foreground,Centre,"sb\glow.png",0,0 C,0,73828,,255,255,89 M,0,73828,73878,296,128,297.4142,137.8995 F,2,73828,74478,1,0 S,2,73828,74478,0.4,0.08 P,0,73828,74478,A M,0,73878,73928,297.4142,137.8995,298.8284,147.799 M,0,73928,73978,298.8284,147.799,300.2426,157.6985 M,0,73978,74028,300.2426,157.6985,301.6569,167.598 M,0,74028,74078,301.6569,167.598,303.0711,177.4975 M,0,74078,74128,303.0711,177.4975,304.4853,187.397 M,0,74128,74178,304.4853,187.397,305.8995,197.2965 M,0,74178,74228,305.8995,197.2965,307.3137,207.196
Sprite,Foreground,Centre,"sb\glow.png",0,0 C,0,74628,,255,128,230 M,0,74628,74678,344,296,350.9746,303.1411 F,2,74628,75678,1,0 S,2,74628,75678,0.4,0.08 P,0,74628,75678,A M,0,74678,74728,350.9746,303.1411,358.6513,309.5074 M,0,74728,74778,358.6513,309.5074,366.9466,315.0316 M,0,74778,74828,366.9466,315.0316,375.771,319.6551 M,0,74828,74878,375.771,319.6551,384.9214,323.6381 M,0,74878,74928,384.9214,323.6381,394.5722,326.1783 M,0,74928,74978,394.5722,326.1783,404.4275,327.6933 M,0,74978,75028,404.4275,327.6933,414.3812,328.1681 M,0,75028,75078,414.3812,328.1681,424.3264,327.5985 M,0,75078,75128,424.3264,327.5985,434.2114,326.2725 M,0,75128,75178,434.2114,326.2725,443.793,323.4919 M,0,75178,75228,443.793,323.4919,453.0239,319.7267 M,0,75228,75278,453.0239,319.7267,461.8052,315.0184 M,0,75278,75328,461.8052,315.0184,470.0429,309.4183 M,0,75328,75378,470.0429,309.4183,477.8109,303.172 M,0,75378,75428,477.8109,303.172,484.71,295.9478
Sprite,Foreground,Centre,"sb\glow.png",0,0 C,0,75828,,255,128,230 M,0,75828,75878,528,212,530.2803,202.2896 F,2,75828,76478,1,0 S,2,75828,76478,0.4,0.08 P,0,75828,76478,A M,0,75878,75928,530.2803,202.2896,531.3481,192.385 M,0,75928,75978,531.3481,192.385,531.1898,182.4332 M,0,75978,76028,531.1898,182.4332,529.8093,172.5814 M,0,76028,76078,529.8093,172.5814,527.5088,162.892 M,0,76078,76128,527.5088,162.892,523.5804,153.7331 M,0,76128,76178,523.5804,153.7331,518.5608,145.1355 M,0,76178,76228,518.5608,145.1355,512.7914,136.9893
Sprite,Foreground,Centre,"sb\glow.png",432,88 C,0,76628,,255,128,230 F,2,76628,76878,1,0 S,2,76628,76878,0.4,0.08 P,0,76628,76878,A
Sprite,Foreground,Centre,"sb\glow.png",0,0 C,0,77028,,255,128,230 M,0,77028,77078,336,92,326.079,93.25438 F,2,77028,77678,1,0 S,2,77028,77678,0.4,0.08 P,0,77028,77678,A M,0,77078,77128,326.079,93.25438,316.158,94.50876 M,0,77128,77178,316.158,94.50876,306.2369,95.76315 M,0,77178,77228,306.2369,95.76315,296.3159,97.01752 M,0,77228,77278,296.3159,97.01752,286.3949,98.2719 M,0,77278,77328,286.3949,98.2719,276.4739,99.52629 M,0,77328,77378,276.4739,99.52629,266.5529,100.7807 M,0,77378,77428,266.5529,100.7807,256.6319,102.035
//Storyboard Layer 4 (Overlay)
//Storyboard Sound Samples

[TimingPoints]
1028,400,4,2,22,100,1,0
1028,-100,4,2,22,60,0,0
13028,-100,4,2,22,80,0,0
13828,-100,4,2,22,90,0,1
19328,-100,4,2,2,90,0,1
19428,-100,4,2,22,90,0,1
19828,-100,4,2,6,90,0,1
20028,-100,4,2,22,90,0,1
32128,-100,4,2,22,90,0,1
32178,-100,4,2,22,90,0,1
39428,-100,4,2,2,70,0,0
44428,-100,4,2,22,70,0,0
44628,-100,4,2,2,70,0,0
44828,-100,4,2,22,70,0,0
45028,-100,4,2,2,70,0,0
45078,-100,4,2,22,70,0,0
45428,-100,4,2,2,70,0,0
46428,-100,4,2,22,70,0,0
46628,-100,4,2,2,70,0,0
47628,-100,4,2,22,70,0,0
47828,-100,4,2,2,70,0,0
48428,-100,4,2,22,70,0,0
48628,-100,4,2,2,70,0,0
51428,-100,4,2,22,70,0,0
52228,-100,4,2,22,80,0,0
55278,-100,4,2,2,80,0,0
55428,-100,4,2,22,80,0,0
61678,-100,4,2,2,80,0,0
61828,-100,4,2,22,80,0,0
65028,-100,4,2,22,80,0,0
67428,-100,4,2,4,80,0,0
67528,-100,4,2,22,80,0,0
68078,-100,4,2,2,80,0,0
68228,-100,4,2,22,80,0,0
70628,-100,4,2,4,80,0,0
70728,-100,4,2,4,80,0,0
70828,-100,4,2,4,80,0,0
70928,-100,4,2,22,80,0,0
73828,-100,4,2,4,80,0,0
73928,-100,4,2,22,80,0,0
74478,-100,4,2,2,80,0,0
74628,-100,4,2,22,80,0,0
76478,-100,4,2,2,80,0,0
76628,-100,4,2,22,80,0,0
76878,-100,4,2,2,80,0,0
77028,-100,4,2,22,80,0,0
77828,-100,4,2,22,70,0,0
78228,-100,4,2,2,70,0,0
89828,-100,4,2,4,80,0,0
89928,-100,4,2,22,80,0,0
90628,-100,4,2,22,90,0,1
96128,-100,4,2,22,90,0,1
96228,-100,4,2,22,90,0,1
96628,-100,4,2,6,90,0,1
96828,-100,4,2,22,90,0,1
116228,-100,4,2,22,70,0,0
129028,-100,4,2,22,80,0,0
130428,-100,4,2,2,80,0,0
130628,-100,4,2,22,80,0,0
130928,-100,4,2,2,80,0,0
131028,-100,4,2,22,80,0,0
131228,-100,4,2,2,80,0,0
131428,-100,4,2,4,80,0,0
131528,-100,4,2,22,80,0,0
131628,-100,4,2,2,80,0,0
131828,-100,4,2,22,80,0,0
133628,-100,4,2,2,80,0,0
133828,-100,4,2,22,80,0,0
134628,-100,4,2,4,80,0,0
134728,-100,4,2,22,80,0,0
137828,-100,4,2,4,80,0,0
137928,-100,4,2,22,80,0,0
141828,-100,4,2,22,80,0,0
142228,-100,4,2,2,80,0,0
154628,-100,4,2,2,60,0,0

[Colours]
Combo1 : 255,255,89
Combo2 : 255,128,230
Combo3 : 82,237,254
Combo4 : 200,146,254

[HitObjects]
296,344,13028,6,0,L|376:336,1,79.9999999999999,8|8,0:3|0:2,0:0:0:0:
452,280,13828,6,0,P|484:204|448:140,1,160,4|8,1:2|0:2,0:0:0:0:
364,100,15028,1,0,1:2:0:0:
276,140,15428,2,0,L|260:228,1,79.9999999999999,2|0,0:0|1:2,0:0:0:0:
208,296,16228,2,0,L|124:276,2,79.9999999999999,8|8|0,0:2|0:3|1:2,0:0:0:0:
300,324,17428,5,2,0:0:0:0:
392,348,17828,2,0,P|432:348|464:320,1,79.9999999999999,8|0,0:2|1:2,0:0:0:0:
468,228,18628,2,0,B|380:228|404:164|328:164,1,160,8|8,0:3|0:2,0:0:0:0:
236,140,19828,1,8,0:2:0:0:
148,176,20228,6,0,L|176:340,1,160,0|8,1:2|0:2,0:0:0:0:
268,360,21428,1,0,1:2:0:0:
364,352,21828,2,0,L|448:340,1,79.9999999999999,2|2,0:2|0:2,0:0:0:0:
468,248,22628,2,0,L|388:228,1,79.9999999999999,8|2,0:2|0:2,0:0:0:0:
296,204,23428,6,0,L|284:284,2,79.9999999999999,0|2|8,1:2|0:2|0:2,0:0:0:0:
316,112,24628,1,0,1:2:0:0:
392,52,25028,2,0,P|440:52|468:72,1,79.9999999999999,2|8,0:2|0:2,0:0:0:0:
492,160,25828,2,0,P|492:208|472:240,1,79.9999999999999,8|8,0:2|0:2,0:0:0:0:
404,300,26628,6,0,L|244:316,1,160,4|8,1:2|0:2,0:0:0:0:
172,252,27828,1,0,1:2:0:0:
216,164,28228,2,0,L|296:152,1,79.9999999999999,2|0,0:2|1:2,0:0:0:0:
356,80,29028,2,0,L|436:92,2,79.9999999999999,8|2|0,0:2|0:0|1:2,0:0:0:0:
268,40,30228,5,2,0:2:0:0:
172,36,30628,2,0,L|88:56,1,79.9999999999999,8|0,0:2|1:2,0:0:0:0:
32,128,31428,2,0,P|32:216|76:272,1,160,2|8,0:2|0:2,0:0:0:0:
156,316,32628,1,0,1:2:0:0:
236,264,33028,6,0,B|312:264|288:332|384:332,1,160,0|8,1:2|0:2,0:0:0:0:
448,268,34228,1,0,1:2:0:0:
396,188,34628,2,0,L|316:180,1,79.9999999999999,2|0,0:2|1:2,0:0:0:0:
224,148,35428,2,0,L|144:168,1,79.9999999999999,8|2,0:2|0:2,0:0:0:0:
52,172,36228,6,0,P|40:212|40:252,2,79.9999999999999,0|2|8,1:2|0:2|0:2,0:0:0:0:
84,80,37428,1,0,1:2:0:0:
164,28,37828,2,0,B|240:16|232:84|316:72,1,160,2|8,0:2|0:2,0:0:0:0:
408,56,39028,1,8,0:2:0:0:
460,136,39428,6,0,L|432:304,1,160,4|8,1:2|0:2,0:0:0:0:
348,336,40628,1,8,0:2:0:0:
272,276,41028,2,0,B|196:276|220:348|132:348,1,160,8|8,0:2|0:2,0:0:0:0:
72,280,42228,1,8,0:2:0:0:
44,188,42628,6,0,P|32:108|88:64,1,160,8|8,0:2|0:2,0:0:0:0:
184,72,43828,1,8,0:2:0:0:
220,160,44228,2,0,L|241:320,1,160,8|8,0:2|0:2,0:0:0:0:
332,352,45428,1,8,0:2:0:0:
416,300,45828,6,0,L|496:320,2,79.9999999999999,4|8|8,1:2|0:2|0:2,0:0:0:0:
380,212,47028,1,8,0:2:0:0:
292,172,47428,2,0,L|212:192,2,79.9999999999999,8|8|8,0:2|0:2|0:2,0:0:0:0:
360,104,48628,5,8,0:2:0:0:
292,36,49028,2,0,P|252:28|216:40,1,79.9999999999999,8|8,0:2|0:2,0:0:0:0:
144,104,49828,2,0,P|132:144|144:188,1,79.9999999999999,8|8,0:2|0:2,0:0:0:0:
176,268,50628,1,0,0:0:0:0:
452,344,51828,1,8,0:2:0:0:
468,248,52228,6,0,B|484:144|484:144|448:96,1,160,4|8,1:2|0:2,0:0:0:0:
380,36,53428,1,0,1:2:0:0:
284,40,53828,2,0,L|272:120,1,79.9999999999999,2|0,0:2|1:2,0:0:0:0:
252,212,54628,2,0,L|268:302,1,79.9999999999999,8|2,0:2|0:2,0:0:0:0:
184,344,55428,6,0,P|108:344|60:276,1,160,0|8,1:2|0:2,0:0:0:0:
60,184,56628,1,0,1:2:0:0:
104,100,57028,2,0,P|140:72|180:72,1,79.9999999999999,2|0,0:2|1:2,0:0:0:0:
252,124,57828,2,0,P|288:152|328:152,1,79.9999999999999,8|0,0:2|1:2,0:0:0:0:
388,84,58628,6,0,P|432:112|432:212,1,160,0|8,1:2|0:2,0:0:0:0:
360,276,59828,1,0,1:2:0:0:
264,260,60228,2,0,L|252:180,1,79.9999999999999,2|0,0:2|1:2,0:0:0:0:
188,112,61028,2,0,L|104:124,1,79.9999999999999,8|2,0:2|0:2,0:0:0:0:
40,188,61828,6,0,P|40:280|84:328,1,160,0|8,1:2|0:2,0:0:0:0:
176,356,63028,1,0,1:2:0:0:
248,292,63428,2,0,L|332:308,2,79.9999999999999,2|0|8,0:2|1:2|0:2,0:0:0:0:
188,216,64628,1,0,1:2:0:0:
240,136,65028,6,0,B|320:124|308:192|392:176,1,160,4|8,1:2|0:2,0:0:0:0:
476,136,66228,2,0,P|476:88|456:56,1,79.9999999999999,0|2,1:2|0:2,0:0:0:0:
372,24,67028,1,0,1:2:0:0:
276,32,67428,2,0,L|196:48,1,79.9999999999999,8|0,0:2|1:2,0:0:0:0:
128,116,68228,6,0,P|144:184|160:280,1,160,0|8,1:2|0:2,0:0:0:0:
220,344,69428,1,0,1:2:0:0:
316,344,69828,2,0,L|400:328,1,79.9999999999999,2|0,0:2|1:2,0:0:0:0:
428,240,70628,2,0,L|344:228,1,79.9999999999999,8|0,0:2|1:2,0:0:0:0:
256,208,71428,6,0,B|188:192|192:268|108:248,1,160,0|8,1:2|0:2,0:0:0:0:
40,180,72628,1,0,1:2:0:0:
56,84,73028,2,0,L|136:68,1,79.9999999999999,2|0,0:2|1:2,0:0:0:0:
232,72,73828,2,0,L|244:156,1,79.9999999999999,8|2,0:2|0:2,0:0:0:0:
280,240,74628,6,0,P|360:272|424:236,1,160,0|8,1:2|0:2,0:0:0:0:
464,156,75828,2,0,P|464:108|448:80,1,79.9999999999999,0|2,1:2|0:2,0:0:0:0:
368,32,76628,1,0,1:2:0:0:
272,36,77028,2,0,L|185:47,1,79.9999999999999,8|0,0:2|1:2,0:0:0:0:
96,60,77828,5,4,1:2:0:0:
256,192,87428,12,8,89028,0:2:0:0:
96,60,90628,6,0,B|128:100|128:100|112:208,1,160,4|8,1:2|0:2,0:0:0:0:
100,304,91828,1,0,1:2:0:0:
188,344,92228,2,0,P|232:344|264:320,1,79.9999999999999,2|0,0:0|1:2,0:0:0:0:
312,244,93028,1,8,0:2:0:0:
268,156,93428,1,8,0:3:0:0:
324,80,93828,6,0,B|416:88,1,79.9999999999999,0|2,1:2|0:0,0:0:0:0:
484,140,94628,2,0,B|476:220,1,79.9999999999999,8|0,0:2|1:2,0:0:0:0:
432,304,95428,2,0,B|360:292|368:368|280:352,1,160,8|8,0:3|0:2,0:0:0:0:
192,336,96628,1,8,0:2:0:0:
120,272,97028,6,0,P|96:188|136:136,1,160,0|8,1:2|0:2,0:0:0:0:
232,124,98228,1,0,1:2:0:0:
272,212,98628,2,0,L|288:300,1,79.9999999999999,2|2,0:2|0:2,0:0:0:0:
376,328,99428,2,0,L|388:244,1,79.9999999999999,8|2,0:2|0:2,0:0:0:0:
412,156,100228,6,0,L|496:168,2,79.9999999999999,0|2|8,1:2|0:2|0:2,0:0:0:0:
332,104,101428,1,0,1:2:0:0:
252,52,101828,2,0,L|172:72,1,79.9999999999999,2|8,0:2|0:2,0:0:0:0:
92,124,102628,2,0,P|72:160|72:204,1,79.9999999999999,8|8,0:2|0:2,0:0:0:0:
116,284,103428,6,0,B|166:287|166:287|214:255|214:255|266:259,1,160,4|8,1:2|0:2,0:0:0:0:
360,272,104628,1,0,1:2:0:0:
432,208,105028,2,0,L|428:128,1,79.9999999999999,2|0,0:2|1:2,0:0:0:0:
380,44,105828,2,0,L|300:52,1,79.9999999999999,8|2,0:2|0:0,0:0:0:0:
204,56,106628,5,0,1:2:0:0:
164,144,107028,1,2,0:2:0:0:
228,216,107428,2,0,L|308:204,1,79.9999999999999,8|0,0:2|1:2,0:0:0:0:
404,216,108228,2,0,P|448:268|424:352,1,160,2|8,0:2|0:2,0:0:0:0:
332,360,109428,1,0,1:2:0:0:
248,312,109828,6,0,B|168:296|186:371|100:356,1,160,0|8,1:2|0:2,0:0:0:0:
24,300,111028,1,0,1:2:0:0:
28,200,111428,2,0,L|40:116,1,79.9999999999999,2|0,0:2|1:2,0:0:0:0:
100,48,112228,2,0,L|184:60,1,79.9999999999999,8|2,0:2|0:2,0:0:0:0:
252,120,113028,6,0,L|236:208,2,79.9999999999999,0|2|8,1:2|0:2|0:2,0:0:0:0:
276,28,114228,1,0,1:2:0:0:
372,28,114628,2,0,P|416:28|448:56,1,79.9999999999999,2|8,0:2|0:2,0:0:0:0:
480,140,115428,2,0,P|492:180|480:220,1,79.9999999999999,8|8,0:2|0:3,0:0:0:0:
416,288,116228,1,4,1:2:0:0:
232,348,117028,6,0,B|176:312|136:376|76:336,1,160,8|0,0:2|0:0,0:0:0:0:
40,248,118228,1,0,0:0:0:0:
72,156,118628,2,0,L|56:72,2,79.9999999999999,8|0|0,0:2|0:0|0:0,0:0:0:0:
188,308,120228,6,0,P|228:320|264:308,1,79.9999999999999,8|0,0:2|0:0,0:0:0:0:
308,224,121028,2,0,P|348:212|384:224,1,79.9999999999999
464,276,121828,2,0,L|454:358,2,79.9999999999999,8|0|0,0:2|0:0|0:0,0:0:0:0:
484,84,123428,6,0,P|420:40|348:72,1,160,8|0,0:2|0:0,0:0:0:0:
336,164,124628,1,0,0:0:0:0:
412,220,125028,2,0,L|492:204,2,79.9999999999999,8|0|0,0:2|0:0|0:0,0:0:0:0:
276,356,126628,6,0,L|196:344,1,79.9999999999999,8|0,0:2|0:0,0:0:0:0:
100,332,127428,1,0,1:2:0:0:
28,268,127828,2,0,L|40:184,1,79.9999999999999,0|0,1:2|0:0,0:0:0:0:
232,180,129028,6,0,B|304:180|284:248|372:248,1,160,0|8,0:0|0:2,0:0:0:0:
456,204,130228,1,0,1:2:0:0:
464,108,130628,2,0,P|464:64|444:36,1,79.9999999999999,2|0,0:2|1:2,0:0:0:0:
348,20,131428,2,0,P|304:20|272:44,1,79.9999999999999,8|2,0:2|0:2,0:0:0:0:
212,112,132228,6,0,L|228:204,1,79.9999999999999,0|2,1:2|0:2,0:0:0:0:
208,284,133028,1,8,0:2:0:0:
120,324,133428,1,0,1:2:0:0:
36,280,133828,2,0,L|44:200,1,79.9999999999999,2|0,0:2|1:2,0:0:0:0:
76,108,134628,1,8,0:2:0:0:
164,144,135028,1,0,1:2:0:0:
232,72,135428,6,0,P|280:72|308:88,1,79.9999999999999,0|0,1:2|1:2,0:0:0:0:
332,180,136228,2,0,L|320:264,1,79.9999999999999,8|0,0:2|1:2,0:0:0:0:
276,344,137028,2,0,L|196:328,2,79.9999999999999,0|0|8,1:2|1:2|0:2,0:0:0:0:
372,356,138228,1,8,0:2:0:0:
448,296,138628,6,0,P|464:252|464:220,1,79.9999999999999,0|0,1:2|1:2,0:0:0:0:
440,128,139428,2,0,P|404:108|364:108,1,79.9999999999999,8|0,0:2|1:2,0:0:0:0:
284,160,140228,2,0,L|296:240,2,79.9999999999999,0|0|8,1:2|1:2|0:2,0:0:0:0:
220,88,141428,1,8,0:2:0:0:
148,148,141828,5,4,1:2:0:0:
256,192,151428,12,8,153028,0:2:0:0:
148,148,154628,5,8,0:2:0:0:
124,240,155028,2,0,L|44:264,2,79.9999999999999,8|8|8,0:2|0:2|0:2,0:0:0:0:
216,216,156228,1,8,0:2:0:0:
308,248,156628,2,0,L|324:336,1,79.9999999999999,8|8,0:2|0:2,0:0:0:0:
416,348,157428,2,0,L|430:269,1,79.9999999999999,8|8,0:2|0:2,0:0:0:0:
436,172,158228,6,0,P|400:148|360:148,1,79.9999999999999,8|8,0:2|0:2,0:0:0:0:
276,184,159028,2,0,P|240:208|200:208,1,79.9999999999999,8|8,0:2|0:2,0:0:0:0:
116,168,159828,2,0,L|108:88,1,79.9999999999999,8|8,0:2|0:2,0:0:0:0:
172,16,160628,1,8,0:2:0:0:
264,48,161028,5,0,0:0:0:0:
