osu file format v14

[General]
AudioFilename: audioPOPSTARS [Extra] x1.25 by Nathan.mp3
AudioLeadIn: 0
PreviewTime: 43181
Countdown: 0
SampleSet: None
StackLeniency: 0.7
Mode: 0
LetterboxInBreaks: 0
WidescreenStoryboard: 0

[Editor]
DistanceSpacing: 1.7
BeatDivisor: 4
GridSize: 4
TimelineZoom: 2.3

[Metadata]
Title:Speedup map pack
TitleUnicode:POP£STARS
Artist:K/DA
ArtistUnicode:K/DA
Creator:TTL
Version:POP/STARS [Extra] x1.25 by Nathan
Source:League of Legends
Tags:
BeatmapID:1845985
BeatmapSetID:882966

[Difficulty]
HPDrainRate:5
CircleSize:4.2
OverallDifficulty:8.5
ApproachRate:9.7
SliderMultiplier:1.8
SliderTickRate:1

[Events]
//Background and Video events
0,0,"KDA_MUSICVIDEO_AkaliDragon_Wallpaper.jpg",0,0
//Break Periods
2,63710,65215
2,111145,119427
//Storyboard Layer 0 (Background)
//Storyboard Layer 1 (Fail)
//Storyboard Layer 2 (Pass)
//Storyboard Layer 3 (Foreground)
//Storyboard Sound Samples

[TimingPoints]
264,282.3529,4,2,1,70,1,0
264,-133.3333,4,2,1,70,0,0
2734,-133.3333,4,2,1,30,0,0
2804,-133.3333,4,2,1,70,0,0
2875,-133.3333,4,2,1,30,0,0
2945,-133.3333,4,2,1,70,0,0
3016,-133.3333,4,2,1,30,0,0
3087,-133.3333,4,2,1,70,0,0
4428,-133.3333,4,2,1,5,0,0
4499,-133.3333,4,2,1,70,0,0
4710,-133.3333,4,2,1,5,0,0
4781,-100,4,2,1,70,0,0
7040,-80,4,2,1,70,0,0
9299,-100,4,2,1,70,0,0
12687,-66.66666,4,2,1,70,0,0
13957,-100,4,2,1,70,0,0
17204,-80,4,2,1,70,0,0
17557,-80,4,2,1,30,0,0
17628,-80,4,2,1,70,0,0
17699,-80,4,2,1,30,0,0
17769,-80,4,2,1,70,0,0
17910,-66.66666,4,2,1,70,0,0
17981,-80,4,2,1,30,0,0
18052,-66.66666,4,2,1,70,0,0
18122,-80,4,2,1,30,0,0
18192,-66.66666,4,2,1,70,0,0
18263,-80,4,2,1,30,0,0
18334,-90.90909,4,2,1,70,0,0
22992,-90.90909,4,2,1,70,0,0
23063,-90.90909,4,2,1,30,0,0
23134,-90.90909,4,2,1,70,0,0
23204,-90.90909,4,2,1,30,0,0
23275,-90.90909,4,2,1,70,0,0
23345,-90.90909,4,2,1,30,0,0
23416,-90.90909,4,2,1,70,0,0
24263,-90.90909,4,2,1,70,0,0
24334,-80,4,2,1,30,0,0
24404,-90.90909,4,2,1,70,0,0
24475,-80,4,2,1,30,0,0
24545,-90.90909,4,2,1,70,0,0
25392,-90.90909,4,2,1,70,0,0
25463,-80,4,2,1,30,0,0
25534,-90.90909,4,2,1,70,0,0
25604,-80,4,2,1,30,0,0
25675,-90.90909,4,2,1,70,0,0
28499,-100,4,2,1,70,0,0
28781,-117.6471,4,2,1,70,0,0
29063,-142.8571,4,2,1,70,0,0
29345,-181.8182,4,2,1,70,0,0
29628,-250,4,2,1,70,0,0
31322,-181.8182,4,2,1,70,0,0
36404,-100,4,2,1,70,0,0
41769,-66.66666,4,2,1,70,0,0
42052,-100,4,2,1,70,0,0
42899,-66.66666,4,2,1,70,0,0
44063,-66.66666,4,2,1,40,0,0
44592,-80,4,2,1,70,0,0
44663,-80,4,2,1,30,0,0
44734,-74.07407,4,2,1,70,0,0
44804,-80,4,2,1,30,0,0
44875,-68.96552,4,2,1,70,0,0
44945,-80,4,2,1,30,0,0
45016,-64.51613,4,2,1,70,0,0
45087,-80,4,2,1,30,0,0
45157,-60.60606,4,2,1,70,0,0
45228,-80,4,2,1,30,0,0
45299,-57.14286,4,2,1,70,0,0
45369,-80,4,2,1,30,0,0
45440,-66.66666,4,2,1,70,0,1
45722,-66.66666,4,2,1,70,0,1
46287,-50,4,2,1,70,0,1
46852,-40,4,2,1,70,0,1
47699,-133.3333,4,2,1,70,0,1
49110,-80,4,2,1,70,0,1
49181,-50,4,2,1,40,0,1
49252,-74.07407,4,2,1,70,0,1
49322,-50,4,2,1,40,0,1
49392,-68.96552,4,2,1,70,0,1
49463,-50,4,2,1,40,0,1
49534,-64.51613,4,2,1,70,0,1
49604,-50,4,2,1,40,0,1
49675,-60.60606,4,2,1,70,0,1
49745,-50,4,2,1,40,0,1
49816,-57.14286,4,2,1,70,0,1
49887,-50,4,2,1,40,0,1
49957,-57.14286,4,2,1,70,0,1
50240,-66.66666,4,2,1,70,0,1
50804,-50,4,2,1,70,0,1
51369,-40,4,2,1,70,0,1
52216,-133.3333,4,2,1,70,0,1
54192,-71.42857,4,2,1,70,0,1
54475,-50,4,2,1,70,0,1
54510,-50,4,2,1,40,0,1
55040,-66.66666,4,2,1,70,0,1
55604,-66.66666,4,2,1,70,0,1
56734,-50,4,2,1,70,0,1
56769,-50,4,2,1,40,0,1
57299,-66.66666,4,2,1,70,0,1
61534,-80,4,2,1,70,0,1
61604,-50,4,2,1,40,0,1
61675,-74.07407,4,2,1,70,0,1
61745,-50,4,2,1,40,0,1
61816,-68.96552,4,2,1,70,0,1
61887,-50,4,2,1,40,0,1
61957,-64.51613,4,2,1,70,0,1
62028,-50,4,2,1,40,0,1
62099,-60.60606,4,2,1,70,0,1
62169,-50,4,2,1,40,0,1
62240,-57.14286,4,2,1,70,0,1
62310,-50,4,2,1,40,0,1
62381,-66.66666,4,2,1,70,0,1
63228,-100,4,2,1,70,0,1
63510,-100,4,2,1,70,0,0
73110,-66.66666,4,2,1,70,0,0
74240,-50,4,2,1,70,0,0
74381,-66.66666,4,2,1,70,0,0
74522,-100,4,2,1,70,0,0
74663,-200,4,2,1,70,0,0
74804,-100,4,2,1,70,0,0
84969,-100,4,2,1,70,0,0
85252,-117.6471,4,2,1,70,0,0
85533,-142.8571,4,2,1,70,0,0
85816,-181.8182,4,2,1,70,0,0
86098,-250,4,2,1,70,0,0
87792,-181.8182,4,2,1,70,0,0
88357,-100,4,2,1,70,0,0
89204,-66.66666,4,2,1,70,0,0
89487,-100,4,2,1,70,0,0
90334,-66.66666,4,2,1,70,0,0
91499,-66.66666,4,2,1,40,0,0
92028,-80,4,2,1,70,0,0
92099,-80,4,2,1,30,0,0
92169,-74.07407,4,2,1,70,0,0
92240,-80,4,2,1,30,0,0
92310,-68.96552,4,2,1,70,0,0
92381,-80,4,2,1,30,0,0
92452,-64.51613,4,2,1,70,0,0
92522,-80,4,2,1,30,0,0
92592,-60.60606,4,2,1,70,0,0
92663,-80,4,2,1,30,0,0
92734,-57.14286,4,2,1,70,0,0
92804,-80,4,2,1,30,0,0
92875,-66.66666,4,2,1,70,0,1
93157,-66.66666,4,2,1,70,0,1
93722,-50,4,2,1,70,0,1
94287,-40,4,2,1,70,0,1
95134,-133.3333,4,2,1,70,0,1
96545,-80,4,2,1,70,0,1
96616,-50,4,2,1,40,0,1
96687,-74.07407,4,2,1,70,0,1
96757,-50,4,2,1,40,0,1
96828,-68.96552,4,2,1,70,0,1
96899,-50,4,2,1,40,0,1
96969,-64.51613,4,2,1,70,0,1
97040,-50,4,2,1,40,0,1
97110,-60.60606,4,2,1,70,0,1
97181,-50,4,2,1,40,0,1
97252,-57.14286,4,2,1,70,0,1
97322,-50,4,2,1,40,0,1
97392,-57.14286,4,2,1,70,0,1
97675,-66.66666,4,2,1,70,0,1
98240,-50,4,2,1,70,0,1
98804,-40,4,2,1,70,0,1
99652,-133.3333,4,2,1,70,0,1
101628,-71.42857,4,2,1,70,0,1
101910,-50,4,2,1,70,0,1
101945,-50,4,2,1,40,0,1
102475,-66.66666,4,2,1,70,0,1
103040,-66.66666,4,2,1,70,0,1
104169,-50,4,2,1,70,0,1
104204,-50,4,2,1,40,0,1
104734,-66.66666,4,2,1,70,0,1
106569,-133.3333,4,2,1,70,0,1
106992,-66.66666,4,2,1,70,0,1
108969,-80,4,2,1,70,0,1
109040,-50,4,2,1,40,0,1
109110,-74.07407,4,2,1,70,0,1
109181,-50,4,2,1,40,0,1
109252,-68.96552,4,2,1,70,0,1
109322,-50,4,2,1,40,0,1
109392,-64.51613,4,2,1,70,0,1
109463,-50,4,2,1,40,0,1
109534,-60.60606,4,2,1,70,0,1
109604,-50,4,2,1,40,0,1
109675,-57.14286,4,2,1,70,0,1
109745,-50,4,2,1,40,0,1
109816,-66.66666,4,2,1,70,0,1
110663,-100,4,2,1,70,0,1
110945,-100,4,2,1,70,0,0
119981,-100,4,2,1,70,0,0
130428,-80,4,2,1,70,0,0
130499,-80,4,2,1,30,0,0
130569,-74.07407,4,2,1,70,0,0
130640,-80,4,2,1,30,0,0
130710,-68.96552,4,2,1,70,0,0
130781,-80,4,2,1,30,0,0
130852,-64.51613,4,2,1,70,0,0
130922,-80,4,2,1,30,0,0
130992,-60.60606,4,2,1,70,0,0
131063,-80,4,2,1,30,0,0
131134,-57.14286,4,2,1,70,0,0
131204,-80,4,2,1,30,0,0
131275,-57.14286,4,2,1,70,0,1
131557,-66.66666,4,2,1,70,0,1
132122,-50,4,2,1,70,0,1
132687,-40,4,2,1,70,0,1
133534,-133.3333,4,2,1,70,0,1
134945,-80,4,2,1,70,0,1
135016,-80,4,2,1,30,0,1
135087,-74.07407,4,2,1,70,0,1
135157,-80,4,2,1,30,0,1
135228,-68.96552,4,2,1,70,0,1
135299,-80,4,2,1,30,0,1
135369,-64.51613,4,2,1,70,0,1
135440,-80,4,2,1,30,0,1
135510,-60.60606,4,2,1,70,0,1
135581,-80,4,2,1,30,0,1
135652,-57.14286,4,2,1,70,0,1
135722,-80,4,2,1,30,0,1
135792,-57.14286,4,2,1,70,0,1
136075,-66.66666,4,2,1,70,0,1
136640,-50,4,2,1,70,0,1
137204,-40,4,2,1,70,0,1
138052,-133.3333,4,2,1,70,0,1
140028,-71.42857,4,2,1,70,0,1
140310,-50,4,2,1,70,0,1
140345,-50,4,2,1,40,0,1
140875,-66.66666,4,2,1,70,0,1
141440,-66.66666,4,2,1,70,0,1
142569,-50,4,2,1,70,0,1
142604,-50,4,2,1,40,0,1
143134,-66.66666,4,2,1,70,0,1
144969,-133.3333,4,2,1,70,0,1
145392,-66.66666,4,2,1,70,0,1
147369,-80,4,2,1,70,0,1
147440,-80,4,2,1,30,0,1
147510,-74.07407,4,2,1,70,0,1
147581,-80,4,2,1,30,0,1
147652,-68.96552,4,2,1,70,0,1
147722,-80,4,2,1,30,0,1
147792,-64.51613,4,2,1,70,0,1
147863,-80,4,2,1,30,0,1
147934,-60.60606,4,2,1,70,0,1
148004,-80,4,2,1,30,0,1
148075,-57.14286,4,2,1,70,0,1
148145,-80,4,2,1,30,0,1
148216,-57.14286,4,2,1,70,0,1
149063,-100,4,2,1,70,0,1
149345,-100,4,2,1,70,0,0

[HitObjects]
446,133,264,6,0,L|518:124,1,67.5
415,318,545,6,0,P|377:247|410:176,1,135
338,0,969,2,0,P|376:71|343:142,1,135
308,184,1392,2,0,L|167:170,1,135
174,171,2522,5,4,0:0:0:0:
174,344,2663,6,0,L|218:355,1,33.75
238,238,2804,2,0,L|206:270,1,33.75
298,346,2945,2,0,L|285:302,1,33.75
323,225,3087,2,0,P|394:207|472:181,1,135
174,344,3510,2,0,P|102:361|25:388,1,135
207,33,4216,6,0,P|248:82|209:109,1,101.25
245,200,4499,2,0,P|204:151|243:124,1,101.25
315,128,4781,5,4,0:0:0:0:
304,275,4922,1,2,0:0:0:0:
167,207,5063,1,2,0:0:0:0:
324,140,5204,1,2,0:0:0:0:
304,291,5345,2,0,L|294:357,3,45
307,349,5628,2,0,P|259:356|205:363,1,90
57,113,5910,5,2,0:0:0:0:
214,197,6052,1,2,0:0:0:0:
52,309,6192,1,2,0:0:0:0:
73,105,6334,1,2,0:0:0:0:
132,193,6475,1,2,0:0:0:0:
137,214,6545,1,0,0:0:0:0:
142,236,6616,1,0,0:0:0:0:
146,257,6687,1,0,0:0:0:0:
150,278,6757,2,0,L|174:384,1,90
278,83,7040,6,0,P|213:98|174:139,1,112.5
378,239,7322,2,0,P|420:274|475:284,1,112.5
328,0,7604,2,0,L|281:240,1,225
127,255,8028,1,2,0:0:0:0:
130,265,8099,1,2,0:0:0:0:
134,275,8169,5,0,0:0:0:0:
322,141,8310,1,0,0:0:0:0:
190,141,8452,1,0,0:0:0:0:
378,275,8592,1,0,0:0:0:0:
256,12,8734,1,0,0:0:0:0:
256,357,9016,6,0,L|256:244,1,112.5
77,52,9299,5,0,0:0:0:0:
77,52,9440,2,0,L|102:133,1,45
156,263,9581,1,0,0:0:0:0:
184,114,9722,1,0,0:0:0:0:
30,175,9863,2,0,P|3:239|18:295,1,90
197,364,10145,2,0,P|245:286|224:202,1,180
107,341,10569,5,0,0:0:0:0:
314,367,10710,2,0,P|375:349|434:338,1,90
296,92,10992,1,8,0:0:0:0:
332,267,11134,2,0,P|373:213|376:88,1,180
498,242,11557,6,0,P|462:207|400:192,1,90
196,192,11840,1,0,0:0:0:0:
332,267,11981,1,0,0:0:0:0:
381,103,12122,2,0,P|332:116|288:162,1,90
225,324,12404,1,0,0:0:0:0:
425,193,12545,1,0,0:0:0:0:
203,83,12687,6,0,P|130:101|37:116,1,135
368,346,12969,2,0,P|434:358|499:374,1,135
397,22,13252,2,0,P|356:113|346:198,1,135
167,358,13534,2,0,P|234:333|246:150,1,270
106,285,13957,5,0,0:0:0:0:
280,330,14099,1,0,0:0:0:0:
97,285,14240,1,0,0:0:0:0:
252,157,14381,2,0,P|297:161|339:176,1,90
193,312,14663,2,0,P|150:327|18:309,1,180
279,70,15087,5,0,0:0:0:0:
165,210,15228,2,0,P|119:174|103:115,1,90
411,83,15510,1,8,0:0:0:0:
203,14,15652,2,0,P|254:77|255:200,1,180
251,299,16075,5,0,0:0:0:0:
387,242,16216,1,0,0:0:0:0:
368,236,16287,1,0,0:0:0:0:
351,230,16357,1,0,0:0:0:0:
466,126,16499,1,0,0:0:0:0:
295,82,16640,2,0,P|250:92|190:104,1,90
22,41,16922,1,0,0:0:0:0:
179,205,17063,1,0,0:0:0:0:
139,16,17204,6,0,P|116:81|104:158,1,112.5
380,329,17487,2,0,P|414:295|418:258,1,56.25
425,216,17628,2,0,P|414:184|396:167,1,56.25
179,205,17769,5,12,0:0:0:0:
332,241,17910,6,0,P|299:237|256:222,1,67.5
107,123,18052,2,0,P|140:119|183:104,1,67.5
392,37,18192,2,0,P|357:32|316:18,1,67.5
113,36,18334,6,0,P|215:75|291:75,1,148.5
284,89,18616,1,2,0:0:0:0:
223,291,18757,2,0,P|182:236|180:181,1,99
107,123,19040,1,2,0:0:0:0:
269,204,19181,1,2,0:0:0:0:
112,318,19322,1,2,0:0:0:0:
349,277,19463,6,0,P|367:334|357:389,1,99
76,214,19745,2,0,P|81:165|106:122,1,99
422,147,20028,2,0,P|466:236|487:333,2,198
108,125,20875,5,2,0:0:0:0:
277,81,21016,2,0,P|197:68|161:43,1,99
93,24,21299,1,2,0:0:0:0:
36,253,21440,2,0,P|81:234|130:231,1,99
398,300,21722,5,2,0:0:0:0:
255,183,21863,1,2,0:0:0:0:
420,113,22004,2,0,L|395:245,1,99
323,246,22216,1,0,0:0:0:0:
323,246,22287,6,0,L|314:284,6,24.75
172,166,22569,2,0,L|163:128,6,24.75
237,319,22852,5,0,0:0:0:0:
114,292,22992,6,0,L|125:352,1,49.5
182,188,23134,2,0,L|193:248,1,49.5
260,99,23275,2,0,L|271:159,1,49.5
195,255,23416,5,10,0:0:0:0:
157,77,23557,1,2,0:0:0:0:
311,232,23699,1,2,0:0:0:0:
79,287,23840,1,2,0:0:0:0:
365,66,23981,5,4,0:0:0:0:
372,80,24263,2,0,L|363:129,1,49.5
478,174,24404,2,0,L|469:223,1,49.5
306,316,24545,6,0,L|327:205,1,99
464,82,24828,1,2,0:0:0:0:
413,350,24969,1,2,0:0:0:0:
149,213,25110,5,6,0:0:0:0:
153,197,25392,2,0,L|162:148,1,49.5
85,93,25534,2,0,L|94:44,1,49.5
240,40,25675,5,10,0:0:0:0:
39,188,25816,1,2,0:0:0:0:
243,213,25957,1,2,0:0:0:0:
93,25,26099,1,2,0:0:0:0:
354,271,26240,6,0,L|367:172,1,99
383,78,26522,1,4,0:0:0:0:
94,120,26663,1,0,0:0:0:0:
94,120,26734,1,0,0:0:0:0:
94,120,26804,6,0,L|87:180,1,49.5
182,308,26945,2,0,L|177:259,1,49.5
227,177,27087,2,0,L|178:172,1,49.5
47,258,27228,2,0,L|97:253,1,49.5
354,271,27369,5,4,0:0:0:0:
388,98,28075,5,2,0:0:0:0:
416,179,28216,1,2,0:0:0:0:
469,111,28357,1,0,0:0:0:0:
201,26,28499,6,0,P|205:70|233:106,1,90
388,98,28781,2,0,P|354:116|333:147,1,76.5
370,287,29063,2,0,P|348:265|318:254,1,63
193,312,29345,2,0,P|208:293|211:269,1,49.5
170,168,29628,6,0,P|131:175|98:85,1,144
247,122,30334,2,0,L|256:84,2,36
292,299,30757,5,2,0:0:0:0:
254,213,30899,1,0,0:0:0:0:
342,220,31040,1,2,0:0:0:0:
285,308,31181,1,0,0:0:0:0:
412,136,31322,2,0,L|429:234,1,99
215,112,31745,1,0,0:0:0:0:
215,112,31887,6,0,L|198:14,2,99
190,348,32592,2,0,P|147:342|124:328,1,49.5
76,171,32875,1,2,0:0:0:0:
62,288,33016,6,0,P|99:257|148:248,3,99
362,353,34145,6,0,P|360:315|388:237,1,99
439,133,34569,1,2,0:0:0:0:
341,167,34710,2,0,P|309:137|304:128,1,49.5
468,219,34992,2,0,P|499:241|513:263,1,49.5
286,295,35275,5,2,0:0:0:0:
376,258,35416,1,2,0:0:0:0:
362,353,35557,1,2,0:0:0:0:
264,307,35699,1,2,0:0:0:0:
389,159,35840,2,0,L|506:134,1,99
234,95,36263,1,2,0:0:0:0:
234,95,36404,6,0,P|183:138|57:137,1,180
142,322,36828,2,0,P|183:271|165:151,1,180
140,59,37252,1,0,0:0:0:0:
70,245,37392,1,0,0:0:0:0:
364,182,37534,6,0,P|321:172|276:168,1,90
448,144,37816,1,0,0:0:0:0:
303,21,37957,1,0,0:0:0:0:
374,87,38099,2,0,P|404:55|430:18,1,90
448,144,38381,2,0,P|460:187|480:227,1,90
202,22,38663,6,0,P|175:135|107:192,1,180
0,112,39087,2,0,P|111:78|194:109,1,180
213,360,39510,1,0,0:0:0:0:
50,228,39652,1,0,0:0:0:0:
311,192,39792,6,0,L|294:308,1,90
152,198,40075,1,0,0:0:0:0:
387,333,40216,1,0,0:0:0:0:
122,374,40357,2,0,L|139:258,1,90
406,223,40640,2,0,L|414:166,1,45
259,113,40781,2,0,L|267:56,1,45
490,121,40922,6,0,L|476:19,1,90
310,289,41204,2,0,L|296:187,1,90
512,344,41487,1,0,0:0:0:0:
512,344,41628,1,0,0:0:0:0:
386,74,41769,6,0,L|413:274,1,202.5
202,289,42052,6,0,L|214:199,1,90
22,121,42334,1,0,0:0:0:0:
212,299,42475,1,0,0:0:0:0:
1,381,42616,2,0,L|15:279,1,90
126,74,42899,6,0,L|98:274,1,202.5
96,289,43181,5,4,0:0:0:0:
149,196,43322,1,0,0:0:0:0:
202,280,43463,1,0,0:0:0:0:
205,103,43604,1,0,0:0:0:0:
309,273,43745,1,0,0:0:0:0:
260,12,43887,1,0,0:0:0:0:
417,266,44028,6,2,L|442:307,8,33.75
417,266,44592,6,0,B|381:275|381:275|327:254,1,56.25
111,294,44734,2,0,B|120:259|120:259|146:234,1,60.75
239,15,44875,2,0,B|265:41|265:41|270:73,1,65.25
272,368,45016,6,0,B|246:342|246:342|242:307,1,69.75
400,89,45158,2,0,B|391:124|391:124|361:148,1,74.25
95,117,45299,2,0,B|130:108|130:108|184:128,1,78.75
450,209,45440,6,0,P|350:224|255:192,1,202.5
24,30,45722,6,0,L|-4:175,1,135
131,213,46004,2,0,L|158:363,1,135
222,15,46287,6,0,L|259:211,1,180
0,163,46569,2,0,L|32:341,1,180
407,103,46852,6,0,L|366:329,1,225
107,0,47134,2,0,L|66:226,1,225
487,62,47416,5,2,0:0:0:0:
308,131,47557,1,2,0:0:0:0:
448,260,47699,6,0,P|390:230|315:234,1,135
321,231,48122,1,0,0:0:0:0:
105,37,48263,5,10,0:0:0:0:
208,224,48404,1,2,0:0:0:0:
251,22,48545,1,2,0:0:0:0:
53,133,48687,1,2,0:0:0:0:
341,83,48828,2,0,L|428:70,1,67.5
407,73,49040,1,0,0:0:0:0:
407,73,49110,6,0,P|429:102|424:159,1,56.25
451,330,49252,2,0,P|419:334|385:324,1,60.75
208,224,49392,2,0,P|218:193|245:167,1,65.25
494,190,49534,6,0,P|478:222|423:248,1,69.75
292,354,49675,2,0,P|272:329|265:289,1,74.25
262,90,49816,2,0,P|293:85|337:106,1,78.75
350,208,49957,6,0,P|268:215|124:102,1,236.25
0,36,50240,6,0,P|57:14|137:16,1,135
142,136,50522,2,0,P|112:148|-3:134,1,135
497,58,50804,6,0,P|511:143|442:226,1,180
287,132,51087,2,0,P|312:48|390:7,1,180
150,358,51369,6,0,P|24:293|0:199,1,225
406,132,51652,2,0,P|388:271|308:327,1,225
95,201,51934,5,0,0:0:0:0:
291,138,52075,1,0,0:0:0:0:
226,292,52216,6,0,P|199:245|213:153,1,135
205,166,52640,1,0,0:0:0:0:
181,369,52781,5,8,0:0:0:0:
173,71,52922,1,0,0:0:0:0:
351,307,53063,1,0,0:0:0:0:
69,220,53204,1,0,0:0:0:0:
347,125,53345,2,0,L|421:106,1,67.5
356,106,53628,5,2,0:0:0:0:
297,188,53769,1,2,0:0:0:0:
269,114,53910,6,0,L|210:98,1,33.75
329,259,54052,2,0,L|297:306,1,33.75
133,64,54192,6,0,L|152:125,1,63
239,384,54334,2,0,L|221:324,1,63
16,300,54475,6,0,L|74:275,14,45
71,192,55040,6,0,B|122:205|122:205|157:293|157:293|122:348,1,202.5
233,335,55322,2,0,B|252:305|252:305|241:276,1,67.5
192,157,55463,2,0,B|173:126|173:126|143:122,1,67.5
57,282,55604,5,4,0:0:0:0:
322,178,55745,2,0,L|474:128,1,135
86,16,56028,1,4,0:0:0:0:
327,163,56169,2,0,B|344:118|344:118|347:89|315:36,1,135
150,303,56452,2,0,B|114:253|114:253|114:179|163:114,1,202.5
150,321,56734,6,0,L|105:312,14,45
322,286,57299,6,0,P|289:200|230:274,1,202.5
400,309,57581,2,0,P|408:277|407:242,1,67.5
172,179,57722,2,0,P|156:208|148:241,1,67.5
249,361,57863,5,4,0:0:0:0:
319,122,58004,2,0,B|266:124|266:124|234:111|196:79,1,135
258,372,58287,1,4,0:0:0:0:
322,108,58428,2,0,B|379:104|379:104|411:120|447:156,1,135
76,276,58710,1,0,0:0:0:0:
72,289,58992,5,4,0:0:0:0:
128,186,59134,1,0,0:0:0:0:
157,212,59205,1,0,0:0:0:0:
176,248,59276,1,0,0:0:0:0:
175,290,59346,1,0,0:0:0:0:
162,330,59416,1,0,0:0:0:0:
81,112,59557,6,0,B|186:68|172:168|301:103,1,202.5
275,6,59840,2,0,P|229:42|232:78,1,67.5
175,227,59981,2,0,P|129:191|132:155,1,67.5
57,12,60122,5,4,0:0:0:0:
392,208,60263,2,0,B|417:164|417:164|416:136|379:82,1,135
125,357,60545,1,4,0:0:0:0:
397,219,60687,2,0,L|254:241,1,135
44,63,60969,2,0,B|115:74|115:74|143:99|143:99|242:111,1,202.5
237,125,61252,5,2,0:0:0:0:
239,140,61322,1,2,0:0:0:0:
241,155,61392,1,2,0:0:0:0:
142,255,61534,6,0,B|131:222|131:222|158:186,1,56.25
339,36,61675,2,0,B|350:69|350:69|328:102,1,60.75
406,307,61816,2,0,B|395:274|395:274|415:242,1,65.25
503,126,61957,6,0,L|427:113,1,69.75
314,270,62099,2,0,L|236:256,1,74.25
212,73,62240,2,0,L|132:58,1,78.75
46,275,62381,6,0,P|92:305|118:188,1,202.5
15,135,62663,5,2,0:0:0:0:
142,204,62945,1,2,0:0:0:0:
134,58,63228,2,0,P|183:38|227:44,1,90
510,167,63510,5,6,0:0:0:0:
414,139,65769,5,0,0:0:0:0:
405,151,66052,2,0,L|382:343,1,180
383,329,66475,1,0,0:0:0:0:
80,320,66616,1,2,0:0:0:0:
187,292,66757,1,0,0:0:0:0:
94,213,66899,5,2,0:0:0:0:
281,358,67040,1,0,0:0:0:0:
303,246,67181,1,2,0:0:0:0:
187,292,67322,1,0,0:0:0:0:
495,190,67463,5,10,0:0:0:0:
433,112,67604,1,0,0:0:0:0:
477,288,67745,1,2,0:0:0:0:
470,26,67887,1,0,0:0:0:0:
205,147,68028,5,2,0:0:0:0:
205,147,68169,2,0,P|271:148|332:176,1,135
345,193,68452,5,2,0:0:0:0:
389,131,68522,1,2,0:0:0:0:
363,59,68592,1,10,0:0:0:0:
289,361,68734,5,0,0:0:0:0:
356,313,68875,1,2,0:0:0:0:
282,280,69016,1,0,0:0:0:0:
460,270,69157,5,2,0:0:0:0:
151,363,69299,2,0,P|113:361|28:338,2,90
299,124,69722,6,0,P|317:145|339:186,1,45
116,275,69863,2,0,P|98:254|76:213,1,45
261,61,70004,2,0,P|260:159|208:209,1,135
207,265,70287,1,0,0:0:0:0:
56,163,70428,5,2,0:0:0:0:
48,87,70498,1,0,0:0:0:0:
90,22,70569,1,2,0:0:0:0:
207,265,70710,5,2,0:0:0:0:
145,309,70781,1,0,0:0:0:0:
67,306,70852,1,10,0:0:0:0:
220,72,70992,1,4,0:0:0:0:
39,210,71134,6,0,P|105:170|227:188,1,180
380,366,71557,5,2,0:0:0:0:
455,378,71628,1,0,0:0:0:0:
506,320,71699,1,2,0:0:0:0:
331,185,71840,5,2,0:0:0:0:
336,262,71910,1,0,0:0:0:0:
412,269,71981,2,0,P|402:227|386:210,1,45
261,13,72122,2,0,P|271:55|287:72,1,45
336,262,72263,6,0,P|391:171|365:66,1,180
218,335,72687,5,2,0:0:0:0:
249,267,72757,1,2,0:0:0:0:
228,195,72828,1,2,0:0:0:0:
165,154,72898,1,2,0:0:0:0:
91,164,72968,1,2,0:0:0:0:
42,221,73040,1,2,0:0:0:0:
45,297,73110,6,0,P|91:281|114:245,1,67.5
239,98,73252,2,0,P|231:49|199:21,1,67.5
353,352,73392,6,0,P|337:306|301:283,1,67.5
228,195,73534,2,0,P|179:202|151:234,1,67.5
151,379,73675,5,6,0:0:0:0:
216,278,73816,1,2,0:0:0:0:
103,268,73957,1,2,0:0:0:0:
151,379,74099,1,2,0:0:0:0:
452,106,74240,6,0,L|437:210,1,90
323,298,74381,6,0,L|336:204,1,67.5
463,148,74522,6,0,L|453:224,1,45
350,265,74663,6,0,L|352:242,1,22.5
196,232,74804,6,0,P|122:214|99:181,1,90
286,31,75087,2,0,P|343:5|426:26,1,135
471,62,75369,1,8,0:0:0:0:
414,331,75510,5,0,0:0:0:0:
343,302,75581,2,0,P|328:260|337:216,1,90
403,179,75792,1,2,0:0:0:0:
406,255,75863,1,2,0:0:0:0:
323,218,75934,6,0,P|256:234|223:246,1,90
339,111,76145,2,0,P|406:95|439:83,1,90
474,211,76357,1,2,0:0:0:0:
281,355,76499,6,0,P|239:342|195:333,1,90
212,154,76710,2,0,P|222:198|236:241,1,90
323,276,76922,1,2,0:0:0:0:
69,97,77063,6,0,P|128:91|177:56,1,90
414,252,77345,2,0,P|368:195|299:185,1,135
235,240,77628,1,8,0:0:0:0:
470,23,77769,5,0,0:0:0:0:
505,95,77840,2,0,P|490:137|456:165,1,90
380,155,78052,1,2,0:0:0:0:
426,94,78122,1,2,0:0:0:0:
453,183,78192,6,0,P|461:230|469:310,1,90
351,88,78404,2,0,P|345:43|337:-2,1,90
294,198,78616,1,2,0:0:0:0:
303,273,78687,1,2,0:0:0:0:
315,348,78757,1,10,0:0:0:0:
163,233,78899,1,0,0:0:0:0:
166,250,78969,1,0,0:0:0:0:
169,267,79040,1,0,0:0:0:0:
25,137,79181,1,0,0:0:0:0:
197,16,79322,5,0,0:0:0:0:
127,98,79463,2,0,P|93:39|93:0,2,90
350,105,79887,5,10,0:0:0:0:
430,230,80028,1,0,0:0:0:0:
423,33,80169,1,2,0:0:0:0:
336,307,80310,1,0,0:0:0:0:
421,148,80452,6,0,P|333:138|272:181,1,135
286,178,80734,2,0,P|257:173|241:146,1,45
294,28,80875,2,0,P|301:60|290:89,1,45
128,210,81016,5,10,0:0:0:0:
53,116,81157,1,0,0:0:0:0:
46,332,81299,1,2,0:0:0:0:
164,61,81440,1,0,0:0:0:0:
67,253,81581,6,0,P|128:228|194:242,1,135
201,258,81863,2,0,L|274:240,1,45
262,131,82004,2,0,L|335:113,1,45
348,334,82145,5,10,0:0:0:0:
118,158,82287,1,0,0:0:0:0:
394,158,82428,1,2,0:0:0:0:
164,334,82569,1,0,0:0:0:0:
432,233,82710,6,0,L|446:73,2,135
354,288,83204,1,0,0:0:0:0:
354,288,83275,6,0,P|325:274|310:243,1,45
253,54,83416,2,0,P|263:74|262:97,1,45
188,311,83557,2,0,P|190:289|201:269,1,45
123,157,83699,2,0,P|145:153|166:159,1,45
388,155,83840,5,4,0:0:0:0:
3,102,84545,5,2,0:0:0:0:
69,161,84687,1,2,0:0:0:0:
86,74,84828,1,0,0:0:0:0:
6,284,84969,6,0,L|135:260,1,90
174,49,85252,2,0,L|284:70,1,76.5
259,238,85534,2,0,L|332:223,1,63
365,86,85816,2,0,L|418:96,1,49.5
467,156,86099,6,0,B|442:128|442:128|478:15,1,144
508,234,86804,2,0,P|504:251|496:267,2,36
285,194,87228,5,2,0:0:0:0:
323,267,87369,1,0,0:0:0:0:
367,197,87510,1,2,0:0:0:0:
255,334,87652,1,0,0:0:0:0:
383,184,87792,2,0,L|374:78,1,99
491,321,88216,1,0,0:0:0:0:
491,321,88357,6,0,L|392:306,1,90
211,236,88640,2,0,L|112:221,1,90
158,374,88922,1,0,0:0:0:0:
158,374,89063,1,0,0:0:0:0:
298,346,89204,6,0,L|58:315,1,202.5
59,135,89487,6,0,L|158:150,1,90
214,38,89769,1,0,0:0:0:0:
60,117,89910,1,0,0:0:0:0:
301,148,90052,2,0,L|400:163,1,90
214,38,90334,6,0,L|454:69,1,202.5
426,65,90616,5,4,0:0:0:0:
343,132,90757,1,0,0:0:0:0:
435,170,90898,1,0,0:0:0:0:
261,203,91040,1,0,0:0:0:0:
460,291,91180,1,0,0:0:0:0:
460,291,91252,1,0,0:0:0:0:
460,291,91322,1,0,0:0:0:0:
460,291,91392,1,0,0:0:0:0:
460,291,91463,6,2,L|513:276,8,33.75
100,342,92028,6,0,L|74:264,1,56.25
49,198,92169,2,0,L|108:181,1,60.75
190,355,92310,6,0,L|164:277,1,65.25
135,99,92452,2,0,L|202:79,1,69.75
281,365,92592,6,0,L|255:287,1,74.25
264,25,92734,2,0,L|340:3,1,78.75
426,185,92875,6,0,P|239:138|224:98,1,202.5
512,157,93157,6,0,B|497:304,1,135
339,227,93440,2,0,B|323:379,1,135
407,5,93722,6,0,B|430:226,1,180
108,167,94004,2,0,B|88:362,1,180
26,0,94287,6,0,B|3:255,1,225
198,153,94569,2,0,B|175:399,1,225
410,18,94852,5,2,0:0:0:0:
430,213,94992,1,2,0:0:0:0:
485,122,95134,6,0,B|419:110|419:110|348:140,1,135
356,136,95557,1,0,0:0:0:0:
298,56,95699,5,10,0:0:0:0:
298,293,95840,1,2,0:0:0:0:
503,197,95981,1,2,0:0:0:0:
200,158,96122,1,2,0:0:0:0:
405,376,96263,2,0,L|419:302,1,67.5
417,309,96475,1,0,0:0:0:0:
417,309,96545,6,0,L|321:324,1,56.25
309,178,96687,2,0,L|285:268,1,60.75
449,221,96828,6,0,L|344:236,1,65.25
217,90,96969,2,0,L|191:187,1,69.75
475,126,97110,6,0,L|364:143,1,74.25
116,13,97252,2,0,L|87:119,1,78.75
180,280,97392,6,0,B|246:247|246:247|255:165|216:89,1,236.25
6,106,97675,6,0,P|61:174|112:180,1,135
315,16,97957,2,0,P|251:34|217:90,1,135
430,174,98240,6,0,P|464:112|417:-6,1,180
103,180,98522,2,0,P|99:265|180:326,1,180
238,10,98804,6,0,P|128:13|54:94,1,225
408,300,99087,2,0,P|441:195|389:98,1,225
173,140,99369,5,2,0:0:0:0:
509,71,99510,1,2,0:0:0:0:
320,41,99652,6,0,P|305:71|293:194,1,135
290,171,100075,1,0,0:0:0:0:
184,235,100216,5,8,0:0:0:0:
428,14,100357,1,0,0:0:0:0:
124,71,100499,1,0,0:0:0:0:
409,192,100640,1,0,0:0:0:0:
267,29,100781,2,0,L|280:124,1,67.5
263,11,101063,5,0,0:0:0:0:
285,173,101204,1,0,0:0:0:0:
187,82,101345,6,0,L|165:122,1,33.75
353,56,101487,2,0,L|383:85,1,33.75
123,253,101628,6,0,L|184:235,1,63
471,186,101769,2,0,L|409:192,1,63
319,364,101910,6,0,L|311:319,14,45
345,225,102475,6,0,B|369:293|369:293|222:269,1,202.5
122,308,102757,2,0,B|108:274|108:274|129:228,1,67.5
246,105,102899,2,0,B|260:140|260:140|239:185,1,67.5
48,188,103040,5,4,0:0:0:0:
354,97,103181,2,0,B|369:141|369:141|375:180|343:227,1,135
231,380,103463,1,4,0:0:0:0:
356,79,103604,2,0,L|221:89,1,135
394,327,103887,2,0,B|449:302|449:302|458:263|441:160,1,202.5
379,340,104169,6,0,L|381:384,14,45
333,193,104734,6,0,P|235:184|167:254,1,202.5
270,355,105016,2,0,P|261:322|241:295,1,67.5
106,183,105157,2,0,P|85:209|77:242,1,67.5
95,341,105299,5,4,0:0:0:0:
197,44,105440,2,0,L|47:61,1,135
473,124,105722,1,4,0:0:0:0:
211,48,105863,2,0,B|180:99|180:99|175:122|194:172,1,135
395,374,106145,1,0,0:0:0:0:
410,374,106428,5,4,0:0:0:0:
304,231,106569,6,0,L|299:265,1,33.75
385,199,106710,2,0,L|380:233,1,33.75
467,170,106852,2,0,L|462:204,1,33.75
207,185,106992,6,0,B|161:149|111:157|111:157|74:194|25:205,1,202.5
142,317,107275,2,0,B|125:290|125:290|137:240,1,67.5
160,9,107416,2,0,L|178:97,1,67.5
207,185,107557,5,4,0:0:0:0:
412,119,107699,2,0,B|370:94|370:94|285:105,1,135
254,358,107981,1,4,0:0:0:0:
420,135,108122,2,0,B|445:93|445:93|434:8,1,135
55,161,108404,2,0,B|43:225|41:298|41:298|89:341,1,202.5
102,339,108687,5,2,0:0:0:0:
115,336,108757,1,2,0:0:0:0:
128,333,108828,1,2,0:0:0:0:
159,87,108969,6,0,B|147:118|147:118|147:132|151:155,1,56.25
116,223,109110,2,0,B|137:249|137:249|149:256|172:265,1,60.75
392,156,109252,6,0,B|374:134|374:134|362:127|333:120,1,65.25
213,328,109392,2,0,B|246:323|246:323|258:316|286:289,1,69.75
298,55,109534,6,0,B|265:60|265:60|253:67|229:89,1,74.25
353,297,109675,2,0,B|365:266|365:266|365:251|361:218,1,78.75
256,192,109816,6,0,B|213:194|178:206|178:206|149:176|149:176|117:188|54:191,1,202.5
46,190,110099,5,2,0:0:0:0:
119,268,110240,1,0,0:0:0:0:
216,19,110381,6,0,L|233:88,1,67.5
256,192,110522,2,0,L|272:257,1,67.5
373,363,110663,5,2,0:0:0:0:
428,303,110804,1,0,0:0:0:0:
349,284,110945,5,6,0:0:0:0:
456,140,119981,6,0,P|486:216|468:320,1,180
278,234,120404,2,0,P|248:158|266:54,1,180
314,327,120828,2,0,P|223:296|193:260,1,135
198,268,121110,6,0,P|146:306|27:294,1,180
71,86,121534,2,0,P|125:83|163:107,1,90
369,277,121816,1,2,0:0:0:0:
118,224,121957,2,0,P|157:186|253:188,1,135
235,180,122240,6,0,P|289:190|403:111,1,180
298,330,122663,2,0,P|367:276|455:280,1,180
210,333,123087,2,0,P|180:292|190:229,1,90
348,19,123369,6,0,P|404:86|394:193,1,180
99,226,123792,2,0,P|130:188|186:172,1,90
347,271,124075,1,2,0:0:0:0:
147,82,124216,2,0,P|172:80|204:87,1,45
256,141,124357,2,0,P|263:182|258:198,1,45
182,261,124499,6,0,L|164:156,1,90
352,171,124781,2,0,L|370:66,1,90
66,144,125063,2,0,L|48:39,1,90
446,100,125345,2,0,L|464:-5,1,90
166,172,125628,6,0,L|135:349,1,180
346,172,126052,2,0,L|366:291,1,90
256,71,126334,1,2,0:0:0:0:
256,191,126475,2,0,L|256:289,1,90
28,55,126757,5,6,0:0:0:0:
159,98,126899,1,0,0:0:0:0:
115,11,127040,1,0,0:0:0:0:
73,142,127181,1,0,0:0:0:0:
447,324,127322,5,2,0:0:0:0:
341,289,127464,1,0,0:0:0:0:
378,359,127604,1,0,0:0:0:0:
409,252,127746,1,0,0:0:0:0:
483,55,127887,5,6,0:0:0:0:
352,98,128028,1,0,0:0:0:0:
396,11,128169,1,0,0:0:0:0:
438,142,128311,1,0,0:0:0:0:
63,324,128452,5,2,0:0:0:0:
169,289,128593,1,0,0:0:0:0:
132,359,128734,1,0,0:0:0:0:
101,252,128876,1,0,0:0:0:0:
417,266,130428,6,0,B|406:301|361:337,1,56.25
111,294,130569,2,0,B|85:268|76:233,1,60.75
239,15,130710,2,0,B|274:5|304:17,1,65.25
272,368,130852,6,0,B|236:377|236:377|204:363,1,69.75
95,117,130992,2,0,B|104:82|104:82|134:56,1,74.25
400,88,131134,2,0,B|425:114|425:114|434:158,1,78.75
244,245,131275,6,0,P|222:152|309:192,1,236.25
433,155,131557,6,0,B|464:305,1,135
366,253,131840,2,0,L|335:397,1,135
271,14,132122,6,0,L|313:212,1,180
123,188,132404,2,0,B|167:389,1,180
472,0,132687,6,0,B|408:287,1,225
52,124,132969,2,0,B|-11:411,1,225
379,379,133252,5,2,0:0:0:0:
128,281,133392,1,2,0:0:0:0:
331,141,133534,6,0,B|346:199|346:199|304:282,1,135
312,266,133957,1,0,0:0:0:0:
477,315,134099,5,10,0:0:0:0:
227,366,134240,1,2,0:0:0:0:
439,71,134381,1,2,0:0:0:0:
477,315,134522,1,2,0:0:0:0:
160,161,134663,6,0,P|178:102|195:73,1,67.5
180,97,134875,1,0,0:0:0:0:
180,97,134945,6,0,P|215:123|234:144,1,56.25
205,279,135087,2,0,P|210:236|223:204,1,60.75
358,158,135228,2,0,P|318:174|278:177,1,65.25
66,190,135369,6,0,B|101:172|101:172|131:170,1,69.75
317,17,135511,2,0,B|319:52|319:52|302:88,1,74.25
342,320,135652,2,0,B|306:294|306:294|288:256,1,78.75
75,74,135792,6,0,B|196:34|161:138|319:82,1,236.25
170,287,136075,6,0,P|124:217|142:150,1,135
355,4,136357,2,0,P|401:74|383:141,1,135
75,74,136640,6,0,P|141:71|249:173,1,180
156,364,136922,2,0,P|67:360|0:304,1,180
472,135,137204,6,0,P|460:271|364:343,1,225
0,200,137487,2,0,P|12:64|108:-8,1,225
392,220,137769,5,2,0:0:0:0:
113,174,137910,1,2,0:0:0:0:
268,129,138052,6,0,P|251:194|243:261,1,135
243,261,138475,1,0,0:0:0:0:
113,174,138616,1,8,0:0:0:0:
349,125,138757,1,0,0:0:0:0:
270,357,138899,1,0,0:0:0:0:
221,71,139040,1,0,0:0:0:0:
445,262,139181,6,0,P|437:212|431:187,1,67.5
438,282,139463,1,0,0:0:0:0:
354,240,139604,1,0,0:0:0:0:
461,181,139745,6,0,P|443:180|427:184,1,33.75
235,153,139887,2,0,P|255:154|279:148,1,33.75
425,9,140028,6,0,P|397:31|381:54,1,63
284,272,140169,2,0,P|309:253|327:226,1,63
495,107,140310,6,0,P|491:82|484:63,14,45
462,336,140875,6,0,B|482:189|482:189|408:231,1,202.5
384,304,141157,2,0,B|350:319|350:319|304:309,1,67.5
157,183,141299,2,0,B|127:176|127:176|93:191,1,67.5
98,380,141440,5,4,0:0:0:0:
341,230,141581,2,0,L|358:81,1,135
105,31,141863,1,4,0:0:0:0:
341,242,142004,2,0,B|401:258|401:258|437:255|469:235,1,135
93,27,142287,2,0,B|60:81|60:81|61:161|98:213,1,202.5
74,24,142569,6,0,B|54:20|54:20|23:31,14,45
229,140,143134,6,0,P|262:84|169:96,1,202.5
81,168,143416,2,0,P|115:177|170:166,1,67.5
345,73,143557,2,0,P|335:39|298:-3,1,67.5
74,24,143699,5,4,0:0:0:0:
408,153,143840,2,0,B|444:125|444:125|454:79|436:33,1,135
60,306,144122,1,4,0:0:0:0:
407,168,144263,2,0,L|428:307,1,135
21,163,144545,1,0,0:0:0:0:
5,162,144828,5,4,0:0:0:0:
300,98,144969,1,0,0:0:0:0:
273,69,145040,1,0,0:0:0:0:
237,50,145111,1,0,0:0:0:0:
195,51,145181,1,0,0:0:0:0:
155,64,145252,1,0,0:0:0:0:
274,222,145392,6,0,B|260:182|260:182|212:154|212:154|154:160|154:160|124:195,1,202.5
174,321,145675,2,0,L|190:250,1,67.5
46,175,145816,2,0,B|36:207|36:207|70:256,1,67.5
334,309,145957,5,4,0:0:0:0:
155,64,146099,2,0,L|10:85,1,135
443,230,146381,1,4,0:0:0:0:
166,73,146522,2,0,B|135:117|134:141|134:141|159:206,1,135
451,103,146804,2,0,L|250:130,1,202.5
252,144,147087,5,2,0:0:0:0:
254,157,147157,1,2,0:0:0:0:
256,170,147228,1,2,0:0:0:0:
95,266,147369,6,0,B|130:255|166:210,1,56.25
401,294,147511,2,0,B|375:268|340:259,1,60.75
273,15,147652,2,0,B|263:50|275:80,1,65.25
240,368,147793,6,0,B|276:377|276:377|308:363,1,69.75
417,117,147934,2,0,B|408:82|408:82|378:56,1,74.25
112,88,148076,2,0,B|87:114|87:114|78:158,1,78.75
268,244,148216,6,0,P|290:152|203:190,1,236.25
132,281,148499,5,2,0:0:0:0:
380,281,148781,1,2,0:0:0:0:
89,366,149063,1,2,0:0:0:0:
423,366,149345,1,2,0:0:0:0:
