osu file format v14

[General]
AudioFilename: audio.mp3
AudioLeadIn: 0
PreviewTime: 330
Countdown: 0
SampleSet: Soft
StackLeniency: 0.7
Mode: 0
LetterboxInBreaks: 0
WidescreenStoryboard: 1

[Editor]
Bookmarks: 330,5977,11624,22918,34212,45506,55388,56800,79388,82212,104800,110447,114682,116094,138682,149977,161271,164094,186682
DistanceSpacing: 1.7
BeatDivisor: 4
GridSize: 4
TimelineZoom: 1.8

[Metadata]
Title:POP/STARS (ft. Madison Beer, (G)I-DLE, Jaira Burns)
TitleUnicode:POP/STARS (ft. Madison Beer, (G)I-DLE, Jaira Burns)
Artist:K/DA
ArtistUnicode:K/DA
Creator:WillCookie
Version:not a normal map
Source:League of Legends
Tags:
BeatmapID:1950375
BeatmapSetID:934181

[Difficulty]
HPDrainRate:7
CircleSize:3
OverallDifficulty:8
ApproachRate:7
SliderMultiplier:2.4
SliderTickRate:1

[Events]
//Background and Video events
0,0,"star.png",0,0
//Break Periods
2,34412,44456
//Storyboard Layer 0 (Background)
//Storyboard Layer 1 (Fail)
//Storyboard Layer 2 (Pass)
//Storyboard Layer 3 (Foreground)
//Storyboard Sound Samples

[TimingPoints]
330,352.941176470588,4,2,0,100,1,0
330,-200,4,2,0,100,0,0
34212,-250,4,2,0,100,0,0
45506,-222.222222222222,4,2,0,100,0,0
56800,-25,4,2,0,100,0,1
79388,-100,4,2,0,100,0,0
116094,-80,4,2,0,100,0,1
138682,-100,4,2,0,100,0,0
164094,-66.6666666666667,4,2,0,100,0,1
186682,-100,4,2,0,100,0,0

[HitObjects]
41,240,5977,6,0,P|123:238|167:211,1,120
251,245,6682,2,0,P|311:189|327:153,1,120
280,61,7388,5,0,0:0:0:0:
178,146,7741,1,0,0:0:0:0:
52,169,8094,1,0,0:0:0:0:
167,240,8447,1,0,0:0:0:0:
252,353,8800,6,0,P|324:316|345:277,3,120
268,164,10212,6,0,L|354:157,3,60
421,198,10918,2,0,P|438:122|414:60,1,120
329,260,11624,5,0,0:0:0:0:
234,302,11977,2,0,L|170:282,6,60
139,191,13388,6,0,L|201:173,3,60
296,213,14094,2,0,L|364:226,1,60
446,189,14447,1,0,0:0:0:0:
385,338,14800,6,0,L|316:323,1,60
234,360,15153,2,0,L|170:343,3,60
110,264,15859,2,0,P|177:232|226:182,4,120
76,141,17624,6,0,L|149:112,1,60
222,162,17977,2,0,L|356:140,2,120
207,287,19035,6,0,L|281:280,1,60
339,348,19388,2,0,L|478:368,2,120
430,250,20447,6,0,L|420:184,1,60
345,149,20800,2,0,L|233:98,1,120
220,202,21506,6,0,L|148:231,1,60
217,296,21859,2,0,L|145:325,1,60
87,265,22212,2,0,L|15:294,1,60
79,362,22565,2,0,L|7:391,1,60
174,375,22918,5,0,0:0:0:0:
207,284,23094,1,0,0:0:0:0:
207,284,23271,1,0,0:0:0:0:
286,338,23447,2,0,L|353:306,1,60
372,218,23800,1,0,0:0:0:0:
461,264,23977,2,0,L|521:235,1,60
497,153,24329,5,0,0:0:0:0:
497,153,24506,1,0,0:0:0:0:
426,112,24682,1,0,0:0:0:0:
426,112,24859,1,0,0:0:0:0:
358,158,25035,1,0,0:0:0:0:
358,158,25212,1,0,0:0:0:0:
308,93,25388,1,0,0:0:0:0:
308,93,25565,1,0,0:0:0:0:
262,166,25741,6,0,L|208:211,1,60
154,144,26094,1,0,0:0:0:0:
72,158,26271,1,0,0:0:0:0:
63,237,26447,2,0,L|34:303,1,60
115,315,26800,2,0,L|130:378,1,60
194,325,27153,5,0,0:0:0:0:
261,380,27329,1,0,0:0:0:0:
326,326,27506,2,0,L|372:281,1,60
446,258,27859,5,0,0:0:0:0:
468,125,28212,1,0,0:0:0:0:
341,167,28565,5,0,0:0:0:0:
311,95,28741,1,0,0:0:0:0:
311,95,28917,1,0,0:0:0:0:
341,167,29094,1,0,0:0:0:0:
276,220,29271,1,0,0:0:0:0:
240,148,29447,1,0,0:0:0:0:
191,216,29624,2,0,L|134:234,1,60
177,306,29977,2,0,L|115:326,1,60
50,265,30329,5,0,0:0:0:0:
57,182,30506,1,0,0:0:0:0:
102,113,30682,2,0,L|179:98,1,60
213,38,31035,2,0,L|279:55,1,60
274,135,31388,6,0,L|281:180,1,30
291,182,31565,1,0,0:0:0:0:
245,261,31741,5,0,0:0:0:0:
323,285,31918,1,0,0:0:0:0:
392,238,32094,2,0,L|414:176,1,60
493,168,32447,1,0,0:0:0:0:
476,86,32624,1,0,0:0:0:0:
256,192,32800,12,0,34212,0:0:0:0:
37,248,45506,6,0,P|106:238|181:180,1,161.999995056153
262,198,46212,1,0,0:0:0:0:
133,31,46918,6,0,P|247:55|310:48,1,161.999995056153
359,100,47624,1,0,0:0:0:0:
236,346,48329,6,0,P|388:341|413:332,1,161.999995056153
452,275,49035,1,0,0:0:0:0:
371,86,49741,6,0,P|324:198|290:229,1,161.999995056153
215,248,50447,1,0,0:0:0:0:
143,204,50624,1,0,0:0:0:0:
212,158,50800,1,0,0:0:0:0:
212,158,50977,1,0,0:0:0:0:
292,189,51153,6,0,L|286:300,1,107.999996704102
370,298,51859,2,0,L|376:187,1,107.999996704102
347,109,52565,6,0,L|341:-2,1,107.999996704102
425,0,53271,2,0,L|431:111,1,107.999996704102
197,147,53977,6,0,L|260:156,7,53.9999983520508
97,329,55741,6,0,L|154:315,5,53.9999983520508
242,356,56800,1,0,0:0:0:0:
377,340,57153,6,0,P|454:251|330:338,1,480
355,244,57506,2,0,P|396:134|310:258,1,480
305,162,57859,2,0,P|306:44|267:190,1,480
228,102,58212,2,0,P|189:-9|202:141,1,480
138,71,58565,2,0,P|63:-20|127:116,1,480
44,75,58918,2,0,P|-57:14|50:121,1,480
17,164,59271,5,0,0:0:0:0:
94,233,59447,1,0,0:0:0:0:
184,190,59624,1,0,0:0:0:0:
184,190,59800,1,0,0:0:0:0:
214,284,59977,5,0,0:0:0:0:
300,337,60153,1,0,0:0:0:0:
394,302,60329,1,0,0:0:0:0:
394,302,60506,1,0,0:0:0:0:
317,233,60682,1,0,0:0:0:0:
317,233,60859,1,0,0:0:0:0:
414,205,61035,1,0,0:0:0:0:
310,98,61388,5,0,0:0:0:0:
217,131,61565,1,0,0:0:0:0:
203,227,61741,1,0,0:0:0:0:
203,227,61918,1,0,0:0:0:0:
105,222,62094,1,0,0:0:0:0:
105,222,62271,1,0,0:0:0:0:
61,312,62447,1,0,0:0:0:0:
189,335,62800,6,0,P|73:357|210:293,1,480
116,268,63153,2,0,P|13:210|159:250,1,480
102,173,63506,2,0,P|60:63|146:187,1,480
151,92,63859,2,0,P|189:-19|176:131,1,480
242,61,64212,2,0,P|343:0|235:107,1,480
331,96,64565,2,0,P|447:115|296:128,1,480
376,183,64918,5,0,0:0:0:0:
348,279,65094,1,0,0:0:0:0:
257,317,65271,1,0,0:0:0:0:
257,317,65447,1,0,0:0:0:0:
275,214,65624,5,0,0:0:0:0:
171,191,65800,1,0,0:0:0:0:
73,168,65977,1,0,0:0:0:0:
73,168,66153,1,0,0:0:0:0:
148,101,66329,5,0,0:0:0:0:
251,80,66506,1,0,0:0:0:0:
326,146,66682,1,0,0:0:0:0:
256,192,66859,12,0,68094,0:0:0:0:
87,198,69153,5,0,0:0:0:0:
87,198,69329,1,0,0:0:0:0:
182,162,69506,5,0,0:0:0:0:
182,162,69682,1,0,0:0:0:0:
191,301,70035,5,0,0:0:0:0:
191,301,70212,1,0,0:0:0:0:
284,326,70388,1,0,0:0:0:0:
376,289,70565,1,0,0:0:0:0:
299,171,70918,5,0,0:0:0:0:
299,171,71094,1,0,0:0:0:0:
299,171,71271,1,0,0:0:0:0:
299,171,71447,1,0,0:0:0:0:
299,171,71624,1,0,0:0:0:0:
171,247,71977,5,0,0:0:0:0:
163,144,72153,1,0,0:0:0:0:
237,74,72329,1,0,0:0:0:0:
237,74,72506,1,0,0:0:0:0:
272,169,72682,5,0,0:0:0:0:
361,123,72859,1,0,0:0:0:0:
361,123,73035,1,0,0:0:0:0:
412,211,73212,1,0,0:0:0:0:
406,311,73388,1,0,0:0:0:0:
270,306,73741,5,0,0:0:0:0:
182,242,73918,1,0,0:0:0:0:
192,235,74006,1,0,0:0:0:0:
201,227,74094,1,0,0:0:0:0:
294,209,74271,1,0,0:0:0:0:
308,109,74447,1,0,0:0:0:0:
427,220,74800,5,0,0:0:0:0:
444,118,74977,1,0,0:0:0:0:
395,28,75153,1,0,0:0:0:0:
395,28,75329,1,0,0:0:0:0:
395,28,75506,1,0,0:0:0:0:
349,121,75682,5,0,0:0:0:0:
303,212,75859,1,0,0:0:0:0:
366,291,76035,5,0,0:0:0:0:
286,349,76212,1,0,0:0:0:0:
157,268,76565,5,0,0:0:0:0:
157,268,76741,1,0,0:0:0:0:
90,192,76918,5,0,0:0:0:0:
117,97,77094,1,0,0:0:0:0:
190,165,77271,5,0,0:0:0:0:
270,94,77447,1,0,0:0:0:0:
375,135,77624,5,0,0:0:0:0:
442,205,77800,1,0,0:0:0:0:
409,316,77977,1,0,0:0:0:0:
239,282,78329,5,0,0:0:0:0:
388,206,78682,5,0,0:0:0:0:
239,282,79035,5,0,0:0:0:0:
388,206,79388,5,0,0:0:0:0:
