osu file format v14

[General]
AudioFilename: audio.mp3
AudioLeadIn: 0
PreviewTime: 330
Countdown: 0
SampleSet: None
StackLeniency: 0.2
Mode: 0
LetterboxInBreaks: 0
WidescreenStoryboard: 1

[Editor]
Bookmarks: 330,5977,11624,22918,34212,45506,55388,56800,79388,82212,104800,110447,114682,116094,138682,149977,161271,164094,186682
DistanceSpacing: 1.7
BeatDivisor: 4
GridSize: 4
TimelineZoom: 1.8

[Metadata]
Title:POP/STARS (ft. Madison Beer, (G)I-DLE, Jaira Burns)
TitleUnicode:POP/STARS (ft. Madison Beer, (G)I-DLE, Jaira Burns)
Artist:K/DA
ArtistUnicode:K/DA
Creator:WillCookie
Version:league lol
Source:League of Legends
Tags:
BeatmapID:1950458
BeatmapSetID:934181

[Difficulty]
HPDrainRate:6
CircleSize:5
OverallDifficulty:9
ApproachRate:10
SliderMultiplier:0.400000005960464
SliderTickRate:1

[Events]
//Background and Video events
0,0,"star.png",0,0
//Break Periods
//Storyboard Layer 0 (Background)
//Storyboard Layer 1 (Fail)
//Storyboard Layer 2 (Pass)
//Storyboard Layer 3 (Foreground)
//Storyboard Sound Samples

[TimingPoints]
330,352.941176470588,4,2,0,100,1,0
330,-200,4,2,0,100,0,0
34212,-250,4,2,0,100,0,0
45506,-100,4,2,0,100,0,0
56800,-100,4,2,0,100,0,1
79388,-100,4,2,0,100,0,0
116094,-80,4,2,0,100,0,1
138682,-100,4,2,0,100,0,0
164094,-66.6666666666667,4,2,0,100,0,1
186682,-100,4,2,0,100,0,0

[HitObjects]
487,22,53977,6,0,L|632:7,1,140.000002086163
83,339,54153,2,0,L|44:220,1,120.000001788139
445,189,54329,2,0,L|545:214,1,100.000001490116
138,98,54506,2,0,L|125:15,1,80.0000011920929
389,335,54682,2,0,L|451:357,1,60.0000008940697
274,11,54859,2,0,L|272:-37,1,40.0000005960464
228,320,55035,2,0,L|219:344,1,20.0000002980232
0,0,55741,6,0,L|-92:80,1,120.000001788139
512,384,55918,6,0,L|608:336,1,100.000001490116
0,0,56094,6,0,L|-84:4,1,80.0000011920928
512,384,56271,6,0,L|576:392,1,60.0000008940696
0,0,56447,6,0,L|-20:-40,1,40.0000005960464
512,384,56624,6,0,L|516:408,1,20.0000002980232
512,0,57153,6,0,B|-184:-88|-184:-88|-184:408|-184:408|696:408|696:408|696:-40|696:-40,1,2520.00003755092
0,380,57329,6,0,B|-184:-88|-184:-88|-184:408|-184:408|696:408|696:408|696:-88|696:-88|568:-88|568:-88,1,2500.0000372529
512,0,57506,6,0,B|-184:-88|-184:-88|-184:408|-184:408|696:408|696:408|696:0|696:0,1,2480.00003695488
0,380,57682,6,0,B|-184:-88|-184:-88|-184:408|-184:408|696:408|696:408|696:-88|696:-88|608:-88|608:-88,1,2460.00003665685
512,0,57859,6,0,B|-184:-88|-184:-88|-184:408|-184:408|696:408|696:408|696:40|696:40,1,2440.00003635883
0,380,58035,6,0,B|-184:-88|-184:-88|-184:408|-184:408|696:408|696:408|696:-88|696:-88|648:-88|648:-88,1,2420.00003606081
512,0,58212,6,0,B|-184:-88|-184:-88|-184:408|-184:408|696:408|696:408|696:84|696:84,1,2400.00003576278
0,380,58388,6,0,B|-184:-88|-184:-88|-184:408|-184:408|696:408|696:408|696:-88|696:-88|684:-88|684:-88,1,2380.00003546476
512,0,58565,6,0,B|-184:-88|-184:-88|-184:408|-184:408|696:408|696:408|696:120|696:120,1,2360.00003516674
0,380,58741,6,0,B|-184:-88|-184:-88|-184:408|-184:408|696:408|696:408|696:-56|696:-56,1,2340.00003486871
512,0,58918,6,0,B|-184:-88|-184:-88|-184:408|-184:408|696:408|696:408|696:164|696:164,1,2320.00003457069
135,345,59271,5,0,0:0:0:0:
379,260,59447,1,0,0:0:0:0:
457,31,59624,1,0,0:0:0:0:
457,31,59800,1,0,0:0:0:0:
337,349,59977,5,0,0:0:0:0:
175,35,60153,1,0,0:0:0:0:
455,109,60330,1,0,0:0:0:0:
91,206,60506,1,0,0:0:0:0:
459,333,60682,5,0,0:0:0:0:
357,17,60859,1,0,0:0:0:0:
111,314,61035,1,0,0:0:0:0:
465,248,61388,5,0,0:0:0:0:
36,159,61565,1,0,0:0:0:0:
512,0,61741,5,0,0:0:0:0:
0,0,61918,1,0,0:0:0:0:
512,0,62094,5,0,0:0:0:0:
0,0,62271,1,0,0:0:0:0:
512,0,62447,1,0,0:0:0:0:
512,384,62800,6,0,B|-184:-88|-184:-88|-184:408|-184:408|368:408|368:408,1,1880.00002801418
0,0,62977,6,0,B|-184:-88|-184:-88|-184:408|-184:408|696:408|696:408|696:120|696:120,1,1860.00002771616
512,384,63153,6,0,B|-184:-88|-184:-88|-184:408|-184:408|320:408|320:408,1,1840.00002741813
0,0,63329,6,0,B|-184:-88|-184:-88|-184:408|-184:408|696:408|696:408|696:164|696:164,1,1820.00002712011
512,384,63506,6,0,B|-184:-88|-184:-88|-184:408|-184:408|288:408|288:408,1,1800.00002682209
0,0,63682,6,0,B|-184:-88|-184:-88|-184:408|-184:408|696:408|696:408|696:200|696:200,1,1780.00002652406
512,384,63859,6,0,B|-184:-88|-184:-88|-184:408|-184:408|240:408|240:408,1,1760.00002622604
0,0,64035,6,0,B|-184:-88|-184:-88|-184:408|-184:408|696:408|696:408|696:240|696:240,1,1740.00002592802
512,384,64212,6,0,B|-184:-88|-184:-88|-184:408|-184:408|204:408|204:408,1,1720.00002563
0,0,64388,6,0,B|-184:-88|-184:-88|-184:408|-184:408|696:408|696:408|696:280|696:280,1,1700.00002533197
512,384,64565,6,0,B|-184:-88|-184:-88|-184:408|-184:408|164:408|164:408,1,1680.00002503395
84,304,64918,5,0,0:0:0:0:
220,32,65094,1,0,0:0:0:0:
248,352,65271,1,0,0:0:0:0:
248,352,65447,1,0,0:0:0:0:
32,212,65624,5,0,0:0:0:0:
380,68,65800,1,0,0:0:0:0:
172,348,65977,5,0,0:0:0:0:
496,96,66153,1,0,0:0:0:0:
80,324,66329,5,0,0:0:0:0:
152,12,66506,1,0,0:0:0:0:
488,176,66682,1,0,0:0:0:0:
60,248,67035,6,0,L|52:224,1,20.0000002980232
216,332,67388,2,0,L|236:320,1,20.0000002980232
116,320,67741,2,0,L|96:332,1,20.0000002980232
342,347,68094,5,0,0:0:0:0:
409,113,68271,1,0,0:0:0:0:
190,268,68447,1,0,0:0:0:0:
345,13,68624,1,0,0:0:0:0:
466,297,68800,2,0,L|486:282,1,20.0000002980232
339,315,69153,5,0,0:0:0:0:
426,94,69329,1,0,0:0:0:0:
37,203,69506,5,0,0:0:0:0:
448,15,69682,1,0,0:0:0:0:
448,15,69859,1,0,0:0:0:0:
15,95,70035,5,0,0:0:0:0:
477,167,70212,1,0,0:0:0:0:
477,167,70388,1,0,0:0:0:0:
140,158,70565,1,0,0:0:0:0:
405,95,70741,1,0,0:0:0:0:
145,339,70918,5,0,0:0:0:0:
218,21,71094,1,0,0:0:0:0:
444,348,71271,5,0,0:0:0:0:
404,41,71447,1,0,0:0:0:0:
40,235,71624,2,0,L|65:239,1,20.0000002980232
257,348,71977,5,0,0:0:0:0:
214,106,72153,1,0,0:0:0:0:
503,238,72329,5,0,0:0:0:0:
4,143,72506,1,0,0:0:0:0:
4,143,72682,1,0,0:0:0:0:
471,57,72859,5,0,0:0:0:0:
51,313,73035,1,0,0:0:0:0:
51,313,73212,1,0,0:0:0:0:
422,223,73388,1,0,0:0:0:0:
212,4,73565,1,0,0:0:0:0:
248,348,73741,5,0,0:0:0:0:
89,23,73918,1,0,0:0:0:0:
185,46,74006,1,0,0:0:0:0:
228,128,74094,1,0,0:0:0:0:
324,136,74182,1,0,0:0:0:0:
391,202,74271,1,0,0:0:0:0:
154,296,74447,5,0,0:0:0:0:
277,16,74624,1,0,0:0:0:0:
360,364,74800,5,0,0:0:0:0:
45,42,74977,1,0,0:0:0:0:
490,195,75153,5,0,0:0:0:0:
7,296,75329,1,0,0:0:0:0:
7,296,75506,1,0,0:0:0:0:
506,354,75682,5,0,0:0:0:0:
21,8,75859,1,0,0:0:0:0:
21,8,76035,1,0,0:0:0:0:
331,368,76212,5,0,0:0:0:0:
319,33,76388,1,0,0:0:0:0:
39,348,76565,5,0,0:0:0:0:
168,331,76653,1,0,0:0:0:0:
230,217,76741,1,0,0:0:0:0:
358,233,76829,1,0,0:0:0:0:
433,128,76918,1,0,0:0:0:0:
332,353,77094,5,0,0:0:0:0:
99,49,77271,1,0,0:0:0:0:
89,357,77447,5,0,0:0:0:0:
395,9,77624,1,0,0:0:0:0:
5,88,77800,5,0,0:0:0:0:
504,218,77977,1,0,0:0:0:0:
256,192,78329,5,0,0:0:0:0:
256,192,78682,5,0,0:0:0:0:
256,192,79035,5,0,0:0:0:0:
256,192,79388,5,0,0:0:0:0:
