osu file format v14

[General]
AudioFilename: audio.mp3
AudioLeadIn: 0
PreviewTime: 53977
Countdown: 0
SampleSet: Soft
StackLeniency: 0.7
Mode: 0
LetterboxInBreaks: 0
WidescreenStoryboard: 1

[Editor]
DistanceSpacing: 1.2
BeatDivisor: 4
GridSize: 4
TimelineZoom: 2.3

[Metadata]
Title:POP/STARS (ft. Madison Beer, (G)I-DLE, Jaira Burns)
TitleUnicode:POP/STARS (ft. Madison Beer, (G)I-DLE, Jaira Burns)
Artist:K/DA
ArtistUnicode:K/DA
Creator:Nathan
Version:Hard
Source:League of Legends
Tags:sukinathan handsome sing foxygrandpa kpop popstar popstars kda ahri evelynn kaisa kai'sa akali riot games worlds 2018 miyeon soyeon (여자)아이들 gidle g_idle
BeatmapID:1829381
BeatmapSetID:874948

[Difficulty]
HPDrainRate:5
CircleSize:4
OverallDifficulty:6.5
ApproachRate:8
SliderMultiplier:1.3
SliderTickRate:1

[Events]
//Background and Video events
0,0,"KDA_MUSICVIDEO_AkaliDragon_Wallpaper.jpg",0,0
Video,-243,"kda.mp4"
//Break Periods
2,79587,81462
2,138882,149227
//Storyboard Layer 0 (Background)
//Storyboard Layer 1 (Fail)
//Storyboard Layer 2 (Pass)
//Storyboard Layer 3 (Foreground)
//Storyboard Sound Samples

[TimingPoints]
330,352.941176470588,4,2,1,70,1,0
330,-133.333333333333,4,2,1,70,0,0
3418,-133.333333333333,4,2,1,30,0,0
3506,-133.333333333333,4,2,1,70,0,0
3594,-133.333333333333,4,2,1,30,0,0
3682,-133.333333333333,4,2,1,70,0,0
3771,-133.333333333333,4,2,1,30,0,0
3859,-133.333333333333,4,2,1,70,0,0
5535,-133.333333333333,4,2,1,5,0,0
5624,-133.333333333333,4,2,1,70,0,0
5888,-133.333333333333,4,2,1,5,0,0
5977,-100,4,2,1,70,0,0
8800,-100,4,2,1,70,0,0
11624,-100,4,2,1,70,0,0
15859,-100,4,2,1,70,0,0
17447,-100,4,2,1,70,0,0
21506,-100,4,2,1,70,0,0
21947,-100,4,2,1,30,0,0
22035,-100,4,2,1,70,0,0
22124,-100,4,2,1,30,0,0
22212,-100,4,2,1,70,0,0
22388,-100,4,2,1,70,0,0
22477,-100,4,2,1,30,0,0
22565,-100,4,2,1,70,0,0
22653,-100,4,2,1,30,0,0
22741,-100,4,2,1,70,0,0
22829,-100,4,2,1,30,0,0
22918,-100,4,2,1,70,0,0
35094,-133.333333333333,4,2,1,70,0,0
35624,-133.333333333333,4,2,1,70,0,0
35977,-133.333333333333,4,2,1,70,0,0
36329,-133.333333333333,4,2,1,70,0,0
36682,-133.333333333333,4,2,1,70,0,0
37035,-133.333333333333,4,2,1,70,0,0
39153,-133.333333333333,4,2,1,70,0,0
45506,-100,4,2,1,70,0,0
52212,-100,4,2,1,70,0,0
52565,-100,4,2,1,70,0,0
53624,-100,4,2,1,70,0,0
55079,-100,4,2,1,40,0,0
55741,-100,4,2,1,70,0,0
55829,-100,4,2,1,30,0,0
55918,-100,4,2,1,70,0,0
56006,-100,4,2,1,30,0,0
56094,-100,4,2,1,70,0,0
56271,-100,4,2,1,70,0,0
56447,-100,4,2,1,70,0,0
56624,-100,4,2,1,70,0,0
56800,-100,4,2,1,70,0,1
57153,-100,4,2,1,70,0,1
58565,-100,4,2,1,70,0,1
61388,-100,4,2,1,70,0,1
61565,-100,4,2,1,70,0,1
61741,-100,4,2,1,70,0,1
61918,-100,4,2,1,70,0,1
62094,-100,4,2,1,70,0,1
62271,-100,4,2,1,70,0,1
62800,-100,4,2,1,70,0,1
64212,-100,4,2,1,70,0,1
67741,-100,4,2,1,70,0,1
68094,-100,4,2,1,70,0,1
68138,-100,4,2,1,40,0,1
68800,-100,4,2,1,70,0,1
69506,-100,4,2,1,70,0,1
70918,-100,4,2,1,70,0,1
70962,-100,4,2,1,40,0,1
71624,-100,4,2,1,70,0,1
76918,-100,4,2,1,70,0,1
77094,-100,4,2,1,70,0,1
77271,-100,4,2,1,70,0,1
77447,-100,4,2,1,70,0,1
77624,-100,4,2,1,70,0,1
77800,-100,4,2,1,70,0,1
77977,-100,4,2,1,70,0,1
79035,-100,4,2,1,70,0,1
79388,-100,4,2,1,70,0,0
91388,-100,4,2,1,70,0,0
92800,-100,4,2,1,70,0,0
92977,-100,4,2,1,70,0,0
93153,-100,4,2,1,70,0,0
93329,-100,4,2,1,70,0,0
93506,-100,4,2,1,70,0,0
105506,-133.333333333333,4,2,1,70,0,0
106212,-133.333333333333,4,2,1,70,0,0
106565,-133.333333333333,4,2,1,70,0,0
106917,-133.333333333333,4,2,1,70,0,0
107270,-133.333333333333,4,2,1,70,0,0
107623,-133.333333333333,4,2,1,70,0,0
109741,-133.333333333333,4,2,1,70,0,0
110447,-100,4,2,1,70,0,0
111506,-100,4,2,1,70,0,0
111859,-100,4,2,1,70,0,0
112918,-100,4,2,1,70,0,0
115035,-100,4,2,1,70,0,0
115212,-100,4,2,1,70,0,0
115388,-100,4,2,1,70,0,0
115565,-100,4,2,1,70,0,0
115741,-100,4,2,1,70,0,0
115918,-100,4,2,1,70,0,0
116094,-100,4,2,1,70,0,1
116447,-100,4,2,1,70,0,1
118388,-100,4,2,1,70,0,1
120682,-100,4,2,1,70,0,1
120859,-100,4,2,1,70,0,1
121035,-100,4,2,1,70,0,1
121212,-100,4,2,1,70,0,1
121388,-100,4,2,1,70,0,1
121565,-100,4,2,1,70,0,1
122094,-100,4,2,1,70,0,1
124035,-100,4,2,1,70,0,1
127035,-100,4,2,1,70,0,1
127388,-100,4,2,1,70,0,1
127432,-100,4,2,1,40,0,1
128094,-100,4,2,1,70,0,1
128800,-100,4,2,1,70,0,1
130212,-100,4,2,1,70,0,1
130256,-100,4,2,1,40,0,1
130918,-100,4,2,1,70,0,1
133212,-100,4,2,1,70,0,1
133741,-100,4,2,1,70,0,1
136212,-100,4,2,1,70,0,1
136388,-100,4,2,1,70,0,1
136565,-100,4,2,1,70,0,1
136741,-100,4,2,1,70,0,1
136918,-100,4,2,1,70,0,1
137094,-100,4,2,1,70,0,1
137271,-100,4,2,1,70,0,1
138329,-100,4,2,1,70,0,1
138682,-100,4,2,1,70,0,0
149977,-100,4,2,1,70,0,0
163035,-100,4,2,1,70,0,0
163124,-100,4,2,1,30,0,0
163212,-100,4,2,1,70,0,0
163300,-100,4,2,1,30,0,0
163388,-100,4,2,1,70,0,0
163477,-100,4,2,1,30,0,0
163565,-100,4,2,1,70,0,0
163653,-100,4,2,1,30,0,0
163741,-100,4,2,1,70,0,0
163829,-100,4,2,1,30,0,0
163918,-100,4,2,1,70,0,0
164006,-100,4,2,1,30,0,0
164094,-100,4,2,1,70,0,1
164447,-100,4,2,1,70,0,1
166388,-100,4,2,1,70,0,1
168682,-100,4,2,1,70,0,1
168771,-100,4,2,1,30,0,1
168859,-100,4,2,1,70,0,1
168947,-100,4,2,1,30,0,1
169035,-100,4,2,1,70,0,1
169124,-100,4,2,1,30,0,1
169212,-100,4,2,1,70,0,1
169300,-100,4,2,1,30,0,1
169388,-100,4,2,1,70,0,1
169477,-100,4,2,1,30,0,1
169565,-100,4,2,1,70,0,1
169653,-100,4,2,1,30,0,1
169741,-100,4,2,1,70,0,1
170094,-100,4,2,1,70,0,1
172035,-100,4,2,1,70,0,1
175035,-100,4,2,1,70,0,1
175388,-100,4,2,1,70,0,1
175432,-100,4,2,1,40,0,1
176094,-100,4,2,1,70,0,1
176800,-100,4,2,1,70,0,1
178212,-100,4,2,1,70,0,1
178256,-100,4,2,1,40,0,1
178918,-100,4,2,1,70,0,1
181212,-100,4,2,1,70,0,1
181741,-100,4,2,1,70,0,1
184212,-100,4,2,1,70,0,1
184300,-100,4,2,1,30,0,1
184388,-100,4,2,1,70,0,1
184477,-100,4,2,1,30,0,1
184565,-100,4,2,1,70,0,1
184653,-100,4,2,1,30,0,1
184741,-100,4,2,1,70,0,1
184829,-100,4,2,1,30,0,1
184918,-100,4,2,1,70,0,1
185006,-100,4,2,1,30,0,1
185094,-100,4,2,1,70,0,1
185182,-100,4,2,1,30,0,1
185271,-100,4,2,1,70,0,1
186329,-100,4,2,1,70,0,1
186682,-100,4,2,1,70,0,0

[Colours]
Combo1 : 47,52,147
Combo2 : 89,235,252
Combo3 : 209,36,160
Combo4 : 152,33,165

[HitObjects]
447,94,330,6,0,P|475:128|479:139,1,48.750001859665,4|0,0:0|0:0,0:0:0:0:
403,155,682,2,0,L|429:7,2,146.250005578995,2|2|2,0:0|0:0|0:0,0:0:0:0:
435,313,3153,5,4,0:0:0:0:
435,313,3329,2,0,L|487:318,2,48.750001859665,2|2|2,0:0|0:0|0:0,0:0:0:0:
359,367,3859,2,0,L|344:211,1,146.250005578995,2|2,0:0|0:0,0:0:0:0:
189,33,5271,1,2,0:1:0:0:
124,106,5624,1,2,0:1:0:0:
223,127,5977,6,0,P|237:173|242:222,1,65,4|2,0:0|0:0,0:0:0:0:
145,207,6329,2,0,P|134:237|128:269,1,65,2|2,0:0|0:0,0:0:0:0:
231,302,6682,2,0,P|318:322|364:369,1,130,0|0,0:0|0:0,0:0:0:0:
422,209,7388,6,0,L|340:198,1,65,2|2,0:0|0:0,0:0:0:0:
279,191,7741,2,0,L|270:126,1,65,2|2,0:0|0:0,0:0:0:0:
343,97,8094,2,0,L|199:77,1,130,2|0,0:0|0:0,0:0:0:0:
141,108,8624,1,0,0:0:0:0:
146,30,8800,6,0,P|99:42|81:56,1,65,2|0,0:0|0:0,0:0:0:0:
85,165,9153,2,0,P|112:181|144:186,1,65,2|0,0:0|0:0,0:0:0:0:
265,179,9506,2,0,P|336:164|441:200,1,130,2|0,0:0|0:0,0:0:0:0:
447,319,10212,5,0,1:0:0:0:
378,281,10388,1,0,1:0:0:0:
329,342,10565,2,0,L|254:352,1,65,0|0,1:0|1:0,0:0:0:0:
198,309,10918,1,0,1:0:0:0:
46,272,11271,2,0,B|25:247|25:247|31:196,1,65,4|0,0:0|0:0,0:0:0:0:
101,178,11624,6,0,L|259:162,1,130,0|0,3:2|1:2,0:0:0:0:
266,95,12153,1,0,1:0:0:0:
310,158,12329,2,0,L|292:320,1,130,8|0,0:0|3:0,0:0:0:0:
288,365,12859,1,0,0:0:0:0:
357,330,13035,6,0,P|425:311|461:318,1,65,0|0,0:0|3:0,0:0:0:0:
496,307,13388,1,0,3:0:0:0:
423,168,13741,2,0,P|432:112|452:91,1,65,8|0,0:0|3:0,0:0:0:0:
503,156,14094,2,0,P|494:212|474:233,1,65,0|0,0:0|0:0,0:0:0:0:
372,235,14447,6,0,P|312:198|220:205,1,130,0|0,3:0|0:0,0:0:0:0:
183,229,14977,1,0,1:0:0:0:
191,151,15153,2,0,P|156:91|71:44,1,130,8|0,0:0|3:0,0:0:0:0:
60,204,15859,6,0,P|118:187|136:160,1,65,4|0,0:0|3:0,0:0:0:0:
13,76,16212,2,0,P|-1:134|13:163,1,65,4|0,3:2|0:0,0:0:0:0:
147,89,16565,2,0,P|103:47|70:45,1,65,12|0,0:0|0:0,0:0:0:0:
76,122,16918,2,0,B|147:108|128:154|232:133,1,130,4|0,0:0|3:0,0:0:0:0:
267,93,17447,1,0,1:0:0:0:
275,170,17624,6,0,L|259:256,1,65,0|0,1:0|1:0,0:0:0:0:
350,216,17977,2,0,B|373:176|373:176|337:67,1,130,8|0,0:0|3:0,0:0:0:0:
318,23,18506,1,0,0:0:0:0:
394,36,18682,6,0,P|454:89|443:188,1,130,0|0,0:0|3:0,0:0:0:0:
455,291,19388,2,0,P|414:298|365:329,1,65,8|0,0:0|3:0,0:0:0:0:
332,257,19741,2,0,P|352:220|359:163,1,65,0|0,0:0|0:0,0:0:0:0:
368,120,20094,5,0,3:0:0:0:
308,69,20271,1,0,1:0:0:0:
308,69,20359,1,0,1:0:0:0:
308,69,20447,2,0,P|262:57|223:57,1,65,0|0,1:0|1:0,0:0:0:0:
217,134,20800,2,0,P|195:195|199:259,1,130,8|0,0:0|3:0,0:0:0:0:
46,266,21506,6,0,L|142:275,1,65,4|0,1:2|3:0,0:0:0:0:
177,356,21859,2,0,L|81:347,1,65,4|0,3:2|1:0,0:0:0:0:
199,259,22212,2,0,L|295:268,1,65,12|0,0:0|1:0,0:0:0:0:
330,349,22565,2,0,L|234:340,1,65,4|0,1:2|1:0,0:0:0:0:
177,356,22918,5,4,3:2:0:0:
140,204,23271,1,2,0:0:0:0:
140,204,23447,2,0,L|152:107,1,65,2|8,0:0|0:0,0:0:0:0:
167,63,23800,1,2,0:0:0:0:
219,121,23977,2,0,P|283:101|310:79,1,65,2|2,3:2|0:0,0:0:0:0:
310,30,24329,6,0,P|398:37|454:93,2,130,2|2|10,0:0|3:2|0:0,0:0:0:0:
295,185,25388,1,0,0:0:0:0:
443,137,25741,6,0,L|416:322,1,130,0|2,3:0|0:0,0:0:0:0:
441,342,26271,2,0,P|497:325|533:333,2,65,2|8|2,0:0|0:0|0:0,0:0:0:0:
366,317,26800,2,0,P|336:275|336:248,1,65,2|0,3:2|0:0,0:0:0:0:
326,185,27153,5,2,0:0:0:0:
264,232,27329,1,2,3:2:0:0:
251,154,27506,2,0,L|265:77,1,65,2|0,3:2|0:0,0:0:0:0:
326,44,27859,2,0,B|377:35|377:35|397:47|397:47|484:32,1,130,10|2,0:0|0:0,0:0:0:0:
449,194,28565,6,0,L|441:273,2,65,0|2|2,3:0|1:0|1:2,0:0:0:0:
409,126,29094,1,2,1:2:0:0:
366,191,29271,2,0,P|313:209|278:200,1,65,10|2,0:0|0:0,0:0:0:0:
250,152,29624,2,0,P|240:113|246:71,1,65,2|2,3:2|0:0,0:0:0:0:
291,28,29977,6,0,P|210:60|137:29,1,130,4|2,0:0|3:2,0:0:0:0:
51,151,30682,2,0,P|132:119|205:150,1,130,10|2,0:0|0:0,0:0:0:0:
149,203,31212,1,2,0:0:0:0:
224,182,31388,6,0,L|204:342,1,130,6|2,3:2|1:2,0:0:0:0:
319,201,32094,2,0,L|312:94,2,65,10|2|2,0:0|0:0|3:2,0:0:0:0:
348,273,32624,1,2,0:0:0:0:
405,325,32800,6,0,B|421:295|421:295|424:234,1,65,4|0,0:0|3:0,0:0:0:0:
415,186,33153,2,0,B|413:155|413:155|397:125,1,65,4|0,0:0|1:0,0:0:0:0:
347,64,33506,1,12,0:0:0:0:
275,94,33682,1,8,0:0:0:0:
218,40,33859,2,0,L|131:26,1,65,12|8,0:0|0:0,0:0:0:0:
77,47,34212,5,4,3:2:0:0:
76,253,35094,2,0,L|66:313,2,48.750001859665,2|2|0,0:0|0:0|0:0,0:0:0:0:
16,193,35624,6,0,P|64:172|148:182,3,97.50000371933,2|2|2|2,0:0|0:0|0:0|0:0,0:0:0:0:
174,266,37035,5,2,0:0:0:0:
411,240,37918,2,0,L|423:168,2,48.750001859665,0|0|0,0:0|0:0|0:0,0:0:0:0:
391,322,38447,6,0,P|351:297|339:261,1,48.750001859665,2|0,0:0|0:0,0:0:0:0:
326,217,38800,2,0,P|326:175|337:154,1,48.750001859665,2|0,0:0|0:0,0:0:0:0:
379,102,39153,2,0,P|322:77|233:84,1,146.250005578995,2|0,0:0|0:0,0:0:0:0:
192,151,39859,6,0,B|174:271|174:271|261:228,1,195.00000743866,2|0,0:0|0:0,0:0:0:0:
271,158,40741,1,2,0:0:0:0:
347,279,41094,1,2,0:0:0:0:
414,236,41271,6,0,P|455:232|506:256,3,97.50000371933,2|0|0|0,0:0|0:0|0:0|0:0,0:0:0:0:
428,140,42682,5,2,0:0:0:0:
257,183,43212,2,0,P|218:170|196:157,1,48.750001859665,2|2,0:0|0:0,0:0:0:0:
186,84,43565,2,0,L|200:26,2,48.750001859665,0|2|0,0:0|0:0|0:0,0:0:0:0:
135,145,44094,6,0,P|94:160|68:161,1,48.750001859665,2|2,0:0|0:0,0:0:0:0:
52,237,44447,2,0,P|28:242|6:252,1,48.750001859665,2|2,0:0|0:0,0:0:0:0:
138,230,44800,2,0,P|155:305|153:390,1,146.250005578995,2|2,0:0|0:0,0:0:0:0:
240,292,45506,6,0,L|395:263,1,130,4|0,1:2|0:0,0:0:0:0:
424,321,46035,2,0,B|391:282|391:282|419:191,1,130,0|0,1:0|0:0,0:0:0:0:
453,138,46565,1,0,1:0:0:0:
344,25,46918,6,0,P|294:47|294:123,1,130,4|0,1:2|0:0,0:0:0:0:
345,169,47447,2,0,P|298:146|211:159,1,130,0|0,1:0|0:0,0:0:0:0:
166,208,47977,2,0,P|111:228|88:226,1,65,0|0,1:0|0:0,0:0:0:0:
114,150,48329,6,0,L|86:6,1,130,4|0,1:2|0:0,0:0:0:0:
167,32,48859,2,0,B|211:15|211:15|303:43,1,130,0|0,1:0|0:0,0:0:0:0:
367,53,49388,1,0,1:0:0:0:
315,111,49565,1,0,0:0:0:0:
390,130,49741,6,0,L|418:274,1,130,4|0,1:2|0:0,0:0:0:0:
387,331,50271,1,0,1:0:0:0:
338,269,50447,2,0,P|283:245|251:247,1,65,0|0,0:0|0:0,0:0:0:0:
208,279,50800,1,0,1:0:0:0:
213,200,50977,1,0,1:0:0:0:
142,233,51153,6,0,P|81:249|23:315,2,130,4|0|0,1:2|1:0|1:0,0:0:0:0:
256,126,52212,2,0,P|270:88|264:41,1,65,4|0,1:2|0:0,0:0:0:0:
193,80,52565,6,0,L|111:98,2,65,4|0|0,1:2|0:0|1:0,0:0:0:0:
270,63,53094,1,0,0:0:0:0:
214,7,53271,1,0,1:0:0:0:
346,89,53624,6,0,L|428:71,1,65,4|0,1:2|0:0,0:0:0:0:
486,60,53977,1,4,1:2:0:0:
460,133,54153,1,0,1:0:0:0:
498,201,54329,2,0,P|493:251|476:278,1,65,0|0,1:0|1:0,0:0:0:0:
392,247,54682,2,0,P|397:197|414:170,1,65,0|0,1:0|1:0,0:0:0:0:
460,133,55035,2,0,L|470:60,2,65,2|2|0,1:2|1:2|0:0,0:0:0:0:
283,329,55741,5,2,0:1:0:0:
272,251,55918,1,2,0:1:0:0:
212,300,56094,1,2,0:1:0:0:
197,223,56271,1,2,0:1:0:0:
259,177,56447,2,0,P|234:152|202:145,1,65,2|2,0:1|0:1,0:0:0:0:
133,174,56800,5,4,3:2:0:0:
45,44,57153,2,0,L|27:132,1,65,2|0,0:0|0:0,0:0:0:0:
43,185,57506,2,0,L|25:273,1,65,10|0,0:0|0:0,0:0:0:0:
76,311,57859,2,0,L|58:399,1,65,2|0,3:2|0:0,0:0:0:0:
140,368,58212,6,0,P|199:340|277:356,1,130,2|2,0:0|3:2,0:0:0:0:
337,365,58741,1,0,0:0:0:0:
314,288,58918,2,0,P|319:227|357:152,1,130,10|2,0:0|0:0,0:0:0:0:
479,83,59624,6,0,P|412:111|378:67,1,130,4|0,3:2|0:0,0:0:0:0:
339,8,60153,1,0,0:0:0:0:
304,77,60329,2,0,L|289:153,1,65,10|2,0:0|0:0,0:0:0:0:
212,63,60682,2,0,L|227:-13,1,65,2|2,3:2|0:0,0:0:0:0:
123,36,61035,6,0,L|150:179,1,130,2|2,0:0|3:1,0:0:0:0:
182,234,61565,1,2,0:1:0:0:
139,298,61741,2,0,B|167:314|167:314|207:308,1,65,10|2,0:1|0:1,0:0:0:0:
319,222,62094,2,0,B|291:206|291:206|251:212,1,65,2|2,3:1|0:1,0:0:0:0:
182,234,62447,5,4,3:2:0:0:
416,339,62800,2,0,P|442:288|438:261,1,65,2|0,0:0|3:0,0:0:0:0:
319,222,63153,2,0,P|350:270|375:280,1,65,10|0,0:0|0:0,0:0:0:0:
474,195,63506,2,0,P|416:197|395:214,1,65,2|0,3:2|0:0,0:0:0:0:
344,130,63859,6,0,P|340:65|304:13,1,130,2|0,0:0|3:0,0:0:0:0:
271,84,64388,1,0,0:0:0:0:
200,50,64565,2,0,P|203:114|239:166,1,130,8|0,0:0|0:0,0:0:0:0:
304,309,65271,6,0,B|274:283|274:283|175:291,1,130,4|0,3:2|0:0,0:0:0:0:
127,344,65800,1,0,0:0:0:0:
107,268,65977,2,0,L|118:199,2,65,8|0|0,0:0|0:0|3:0,0:0:0:0:
127,344,66506,1,0,0:0:0:0:
53,318,66682,6,0,B|31:290|31:290|38:245,1,65,2|0,0:0|3:0,0:0:0:0:
44,183,67035,2,0,L|56:114,2,65,2|2|8,3:0|0:0|0:0,0:0:0:0:
122,183,67565,1,2,1:2:0:0:
191,148,67741,2,0,P|203:104|195:68,1,65,2|2,1:2|1:2,0:0:0:0:
285,30,68094,6,0,B|321:51|321:51|339:148|339:148|286:195,1,195,6|2,3:2|0:0,0:0:0:0:
276,275,68800,2,0,P|230:250|192:253,1,65,8|0,0:0|0:0,0:0:0:0:
87,240,69153,2,0,P|118:232|144:213,1,65,0|0,3:0|0:0,0:0:0:0:
212,163,69506,5,4,0:0:0:0:
143,125,69682,2,0,L|158:57,1,65,0|0,3:0|3:0,0:0:0:0:
270,30,70036,1,4,0:0:0:0:
339,68,70212,2,0,L|324:136,1,65,8|0,0:0|3:0,0:0:0:0:
317,209,70565,1,0,0:0:0:0:
456,279,70918,6,0,B|358:241|369:325|258:287,1,195,6|2,3:2|0:0,0:0:0:0:
233,219,71624,2,0,P|223:163|207:136,1,65,8|0,0:0|0:0,0:0:0:0:
146,74,71977,2,0,P|135:104|132:136,1,65,0|0,3:0|0:0,0:0:0:0:
155,247,72329,5,4,0:0:0:0:
87,294,72506,2,0,L|13:288,1,65,0|0,3:0|3:0,0:0:0:0:
0,179,72859,1,4,0:0:0:0:
68,132,73036,2,0,L|142:138,1,65,8|0,0:0|0:0,0:0:0:0:
219,159,73388,1,0,0:0:0:0:
402,98,73741,1,4,3:2:0:0:
443,164,73918,2,0,L|437:200,4,32.5,0|0|0|0|0,1:0|1:0|1:0|1:0|1:0,0:0:0:0:
495,255,74447,6,0,P|433:234|369:242,1,130,8|0,0:0|3:0,0:0:0:0:
237,326,75153,1,4,0:0:0:0:
192,262,75329,2,0,L|268:245,1,65,0|0,3:0|3:0,0:0:0:0:
348,131,75682,1,4,0:0:0:0:
330,210,75858,2,0,L|393:195,1,65,8|0,0:0|3:0,0:0:0:0:
466,152,76212,1,0,0:0:0:0:
369,24,76565,5,2,1:2:0:0:
369,24,76653,1,2,1:2:0:0:
369,24,76741,1,2,1:2:0:0:
308,74,76918,2,0,P|264:71|232:55,1,65,2|2,0:1|0:1,0:0:0:0:
104,120,77271,2,0,P|143:109|184:107,1,65,10|2,0:1|0:1,0:0:0:0:
268,155,77624,1,2,3:1:0:0:
206,202,77800,1,2,3:1:0:0:
276,235,77977,5,0,0:0:0:0:
102,190,78329,2,0,L|85:37,3,130,2|2|2|6,0:0|0:0|0:0|0:0,0:0:0:0:
378,173,82212,5,0,3:0:0:0:
378,173,82565,2,0,L|219:187,1,130,2|0,0:0|0:0,0:0:0:0:
173,158,83094,1,0,0:0:0:0:
231,105,83271,2,0,B|236:82|236:82|211:34,1,65,2|0,3:2|0:0,0:0:0:0:
139,56,83624,6,0,L|59:48,2,65,2|0|2,0:0|3:0|3:2,0:0:0:0:
216,45,84153,1,0,0:0:0:0:
301,93,84329,2,0,B|334:97|334:97|387:76,1,65,10|0,0:0|3:0,0:0:0:0:
426,32,84682,2,0,B|459:28|459:28|512:49,1,65,2|0,0:0|0:0,0:0:0:0:
500,116,85035,5,2,3:2:0:0:
425,139,85212,1,2,0:0:0:0:
485,306,85565,1,2,0:0:0:0:
485,306,85653,1,2,0:0:0:0:
485,306,85741,2,0,L|400:294,1,65,10|0,0:0|0:0,0:0:0:0:
359,346,86094,2,0,L|274:334,1,65,2|0,3:2|0:0,0:0:0:0:
249,273,86447,5,2,0:0:0:0:
214,343,86624,2,0,L|129:331,1,65,2|0,3:2|3:0,0:0:0:0:
73,262,86977,1,0,0:0:0:0:
133,213,87153,2,0,B|147:186|147:186|137:137,1,65,10|2,0:0|0:0,0:0:0:0:
71,114,87506,2,0,B|121:126|121:126|214:85,1,130,2|0,0:0|3:0,0:0:0:0:
270,83,88035,6,0,L|257:174,1,65,2|2,1:2|0:0,0:0:0:0:
253,225,88388,1,2,1:2:0:0:
253,225,88477,1,0,1:0:0:0:
253,225,88565,2,0,L|339:208,1,65,10|4,0:0|0:0,0:0:0:0:
392,192,88918,2,0,B|416:229|416:229|399:327,1,130,6|0,3:2|0:0,0:0:0:0:
324,327,89447,5,2,3:2:0:0:
324,327,89536,1,0,0:0:0:0:
324,327,89624,2,0,L|238:310,1,65,2|2,3:2|0:0,0:0:0:0:
187,286,89977,1,10,0:0:0:0:
191,363,90153,1,6,3:2:0:0:
121,327,90329,1,6,0:0:0:0:
212,200,90682,5,0,3:0:0:0:
157,143,90859,2,0,L|154:110,4,32.5,2|2|2|2|2,0:0|0:0|0:0|0:0|0:0,0:0:0:0:
232,123,91388,2,0,B|262:108|262:108|294:113,1,65,10|2,0:2|0:2,0:0:0:0:
352,163,91741,2,0,L|337:257,1,65,2|2,3:2|0:2,0:0:0:0:
341,305,92094,6,0,P|434:284|463:246,1,130,6|2,0:2|3:2,0:0:0:0:
429,186,92624,1,2,0:2:0:0:
479,126,92800,2,0,B|492:101|492:101|480:52,1,65,8|8,0:0|0:0,0:0:0:0:
408,41,93153,2,0,L|321:32,1,65,8|8,0:0|0:0,0:0:0:0:
279,79,93506,6,0,B|240:98|240:98|154:88,1,130,2|6,3:2|0:0,0:0:0:0:
65,216,94212,1,8,0:0:0:0:
136,186,94388,2,0,L|225:197,1,65,0|0,0:0|0:0,0:0:0:0:
278,190,94741,1,2,0:0:0:0:
278,190,94829,1,2,0:0:0:0:
278,190,94918,6,0,L|300:312,2,97.5,2|2|2,0:0|0:0|0:0,0:0:0:0:
339,141,95624,2,0,B|346:114|346:114|317:19,2,97.5,10|2|2,0:0|0:0|0:0,0:0:0:0:
356,216,96329,6,0,L|508:194,1,130,2|6,3:2|0:0,0:0:0:0:
419,339,97035,1,8,0:0:0:0:
343,318,97212,2,0,B|316:310|316:310|258:326,1,65,0|0,0:0|0:0,0:0:0:0:
209,353,97565,1,2,0:0:0:0:
209,353,97653,1,2,0:0:0:0:
209,353,97741,6,0,L|192:242,2,97.5,2|2|2,0:0|0:0|0:0,0:0:0:0:
130,347,98447,1,10,0:0:0:0:
145,191,98800,2,0,B|176:175|176:175|234:177,1,65,0|0,0:0|0:0,0:0:0:0:
279,202,99153,5,0,3:0:0:0:
279,202,99329,2,0,P|297:148|294:116,2,65,2|2|2,0:0|0:0|0:0,0:0:0:0:
322,267,99859,2,0,P|384:244|405:242,1,65,10|0,0:0|0:0,0:0:0:0:
456,219,100212,2,0,P|479:281|481:302,1,65,2|0,3:2|0:0,0:0:0:0:
410,317,100565,5,6,0:0:0:0:
260,361,100918,2,0,P|228:352|199:338,1,65,2|2,3:2|0:0,0:0:0:0:
121,337,101271,2,0,P|129:305|143:276,1,65,10|0,0:0|3:0,0:0:0:0:
220,261,101624,2,0,P|211:229|197:200,1,65,2|0,0:0|0:0,0:0:0:0:
119,200,101977,1,6,3:2:0:0:
225,86,102329,1,2,0:0:0:0:
261,155,102506,1,2,0:0:0:0:
304,90,102682,2,0,P|350:88|380:98,1,65,10|0,0:0|0:0,0:0:0:0:
431,138,103035,2,0,P|455:176|462:207,1,65,2|0,3:2|0:0,0:0:0:0:
372,261,103388,6,0,P|349:308|352:366,2,97.5,6|2|0,0:0|0:0|0:0,0:0:0:0:
332,193,104094,1,8,0:0:0:0:
278,250,104271,1,8,0:0:0:0:
229,189,104447,2,0,P|196:184|166:191,1,65,8|8,0:0|0:0,0:0:0:0:
116,252,104800,5,4,3:2:0:0:
356,53,105682,2,0,L|408:43,2,48.750001859665,2|2|0,0:0|0:0|0:0,0:0:0:0:
297,113,106212,6,0,P|282:150|291:221,3,97.50000371933,2|2|2|2,0:0|0:0|0:0|0:0,0:0:0:0:
363,175,107624,5,2,0:0:0:0:
137,300,108506,2,0,L|84:291,2,48.750001859665,2|2|0,0:0|0:0|0:0,0:0:0:0:
212,322,109035,6,0,P|214:289|207:267,1,48.750001859665,2|0,0:0|0:0,0:0:0:0:
147,219,109388,2,0,P|145:186|152:164,1,48.750001859665,2|0,0:0|0:0,0:0:0:0:
225,144,109741,2,0,L|74:127,1,146.250005578995,2|0,0:0|0:0,0:0:0:0:
13,173,110447,6,0,B|-3:138|-3:138|20:30,2,130,4|0|0,1:2|1:0|1:0,0:0:0:0:
112,293,111506,2,0,L|178:286,1,65,4|0,1:2|0:0,0:0:0:0:
228,227,111859,6,0,P|248:258|254:314,2,65,4|0|0,1:2|0:0|1:0,0:0:0:0:
200,153,112388,1,0,0:0:0:0:
149,212,112565,1,0,1:0:0:0:
281,129,112918,2,0,P|336:126|352:131,1,65,4|0,1:2|0:0,0:0:0:0:
411,169,113271,5,4,1:2:0:0:
419,91,113447,1,0,1:0:0:0:
482,136,113624,2,0,B|491:170|491:170|479:199,1,65,0|0,1:0|1:0,0:0:0:0:
417,260,113977,2,0,L|374:257,3,32.5,0|0|0|0,1:0|1:0|1:0|1:0,0:0:0:0:
345,256,114329,2,0,B|335:290|335:290|348:319,1,65,2|2,1:2|1:2,0:0:0:0:
427,169,115035,5,2,0:1:0:0:
349,158,115212,1,2,0:1:0:0:
398,98,115388,1,2,0:1:0:0:
321,83,115565,1,2,0:1:0:0:
275,145,115741,2,0,B|251:122|251:122|242:91,1,65,2|2,0:1|0:1,0:0:0:0:
272,19,116094,5,4,3:2:0:0:
427,34,116447,2,0,L|445:122,1,65,2|0,0:0|0:0,0:0:0:0:
429,175,116800,2,0,L|447:263,1,65,10|0,0:0|0:0,0:0:0:0:
396,301,117153,2,0,L|414:389,1,65,2|0,3:2|0:0,0:0:0:0:
330,368,117506,6,0,B|299:307|299:307|318:231,1,130,2|2,0:0|3:2,0:0:0:0:
347,178,118035,1,0,0:0:0:0:
268,181,118212,2,0,P|207:176|132:138,1,130,10|2,0:0|0:0,0:0:0:0:
14,61,118918,6,0,B|81:89|81:89|144:27,1,130,4|0,3:2|0:0,0:0:0:0:
194,17,119447,1,0,0:0:0:0:
252,67,119623,2,0,L|267:143,1,65,10|2,0:0|0:0,0:0:0:0:
264,209,119976,2,0,L|188:194,1,65,2|2,3:2|0:0,0:0:0:0:
115,200,120329,6,0,P|144:263|142:343,1,130,2|2,0:0|3:1,0:0:0:0:
224,351,120859,1,2,0:1:0:0:
293,316,121035,2,0,B|321:300|321:300|361:306,1,65,10|2,0:1|0:1,0:0:0:0:
486,336,121388,2,0,B|458:352|458:352|418:346,1,65,2|2,3:1|0:1,0:0:0:0:
429,252,121741,5,4,3:2:0:0:
235,243,122094,2,0,P|261:192|257:165,1,65,2|0,0:0|3:0,0:0:0:0:
182,105,122447,2,0,P|156:156|160:183,1,65,10|0,0:0|0:0,0:0:0:0:
275,94,122800,2,0,P|301:43|297:16,1,65,2|0,3:2|0:0,0:0:0:0:
150,8,123153,6,0,P|83:29|39:83,1,130,2|0,0:0|3:0,0:0:0:0:
25,148,123682,1,0,0:0:0:0:
48,222,123859,2,0,L|207:209,1,130,8|2,0:0|0:0,0:0:0:0:
304,303,124565,6,0,P|357:279|433:285,1,130,4|0,3:2|0:0,0:0:0:0:
481,338,125094,1,0,0:0:0:0:
501,262,125271,2,0,P|506:234|490:193,2,65,8|0|0,0:0|0:0|3:0,0:0:0:0:
427,283,125800,1,0,0:0:0:0:
394,212,125976,6,0,B|379:139,1,65,2|0,0:0|3:0,0:0:0:0:
302,153,126329,2,0,L|314:84,1,65,0|0,3:0|0:0,0:0:0:0:
363,29,126682,2,0,B|429:39|429:39|497:7,1,130,8|2,0:0|1:2,0:0:0:0:
499,89,127212,1,2,1:2:0:0:
430,125,127388,6,0,B|386:163|376:243|376:243|429:290,1,195,6|2,3:2|0:0,0:0:0:0:
380,350,128094,2,0,P|334:325|296:328,1,65,8|0,0:0|0:0,0:0:0:0:
246,342,128447,2,0,P|200:367|162:364,1,65,0|0,3:0|0:0,0:0:0:0:
130,315,128800,5,4,0:0:0:0:
196,274,128976,2,0,B|200:241|200:241|181:210,1,65,0|0,3:0|3:0,0:0:0:0:
91,184,129330,1,4,0:0:0:0:
27,139,129506,2,0,B|23:106|23:106|41:75,1,65,8|0,0:0|3:0,0:0:0:0:
108,41,129859,1,0,0:0:0:0:
244,116,130212,6,0,B|290:108|325:75|325:75|374:77|422:105,1,195,6|2,3:2|0:0,0:0:0:0:
367,161,130918,2,0,P|356:191|353:223,1,65,8|0,0:0|0:0,0:0:0:0:
425,254,131271,2,0,P|436:284|439:316,1,65,0|0,3:0|0:0,0:0:0:0:
366,345,131623,5,4,0:0:0:0:
307,290,131800,2,0,L|233:284,1,65,0|0,3:0|3:0,0:0:0:0:
112,328,132153,1,4,0:0:0:0:
165,270,132330,2,0,L|159:205,1,65,8|0,0:0|0:0,0:0:0:0:
138,117,132682,1,0,0:0:0:0:
260,108,133035,5,4,3:2:0:0:
304,43,133212,2,0,P|253:30|230:35,2,65,0|0|0,1:0|1:0|1:0,0:0:0:0:
342,113,133741,2,0,P|406:120|467:99,1,130,8|0,0:0|3:0,0:0:0:0:
420,286,134447,5,4,0:0:0:0:
475,220,134623,2,0,P|442:205|399:203,1,65,0|0,3:0|3:0,0:0:0:0:
350,246,134976,1,4,0:0:0:0:
265,193,135152,2,0,L|202:208,1,65,8|0,0:0|3:0,0:0:0:0:
213,285,135506,1,0,0:0:0:0:
117,214,135859,5,2,1:2:0:0:
117,214,135947,1,2,1:2:0:0:
117,214,136035,1,2,1:2:0:0:
91,129,136212,2,0,P|135:132|167:148,1,65,2|2,0:1|0:1,0:0:0:0:
229,158,136565,2,0,B|244:133|244:133|230:78,1,65,10|2,0:1|0:1,0:0:0:0:
165,63,136918,1,2,3:1:0:0:
229,18,137094,1,2,3:1:0:0:
295,58,137271,5,0,0:0:0:0:
410,193,137623,2,0,P|403:267|427:346,2,130,2|10|2,3:2|0:0|3:2,0:0:0:0:
442,121,138506,1,0,0:0:0:0:
488,183,138682,5,6,3:2:0:0:
457,68,149977,6,0,L|424:276,2,195,4|0|2,1:2|1:0|1:2,0:0:0:0:
330,159,151388,6,0,P|272:188|185:173,1,130,6|0,1:2|0:0,0:0:0:0:
140,144,151918,2,0,P|179:188|183:278,1,130,2|2,1:2|0:0,0:0:0:0:
123,298,152447,2,0,P|53:307|32:298,1,65,2|0,1:2|0:0,0:0:0:0:
78,232,152800,6,0,L|45:24,2,195,6|2|0,1:2|1:2|1:0,0:0:0:0:
200,134,154212,2,0,P|272:137|342:178,1,130,6|0,1:2|0:0,0:0:0:0:
373,221,154741,2,0,P|368:171|397:84,1,130,2|2,1:2|0:0,0:0:0:0:
467,81,155271,1,2,1:2:0:0:
500,151,155447,1,0,1:0:0:0:
457,216,155624,6,0,L|434:355,1,130,6|0,1:2|1:0,0:0:0:0:
274,219,156329,2,0,L|297:80,1,130,0|0,1:0|1:0,0:0:0:0:
349,34,156859,1,0,0:0:0:0:
272,22,157035,6,0,B|179:36|179:36|137:69,1,130,6|0,1:2|1:1,0:0:0:0:
212,106,157565,2,0,L|195:188,2,65,2|0|2,0:0|1:0|0:0,0:0:0:0:
130,128,158094,2,0,P|74:152|56:178,1,65,2|0,1:2|0:0,0:0:0:0:
79,244,158447,6,0,L|161:228,1,65,6|0,1:2|1:0,0:0:0:0:
222,294,158800,2,0,L|304:278,1,65,0|0,1:0|1:0,0:0:0:0:
333,219,159153,2,0,B|344:186|344:186|323:138,2,65,2|0|0,1:2|1:0|1:0,0:0:0:0:
362,291,159682,1,0,1:0:0:0:
429,250,159859,6,0,P|438:197|436:161,1,65,6|0,1:2|1:0,0:0:0:0:
406,101,160212,2,0,P|397:48|399:12,1,65,0|0,1:0|1:0,0:0:0:0:
286,96,160565,2,0,P|241:86|208:89,2,65,2|0|0,1:2|1:0|1:0,0:0:0:0:
250,165,161094,1,0,1:0:0:0:
328,164,161271,5,0,0:0:0:0:
427,170,163035,5,2,0:1:0:0:
385,236,163212,1,2,0:1:0:0:
344,169,163388,1,2,0:1:0:0:
385,102,163565,1,2,0:1:0:0:
308,97,163741,2,0,B|283:117|283:117|264:149,1,65,2|2,0:1|0:1,0:0:0:0:
234,216,164094,5,4,3:2:0:0:
116,113,164447,2,0,L|98:201,1,65,2|0,0:0|0:0,0:0:0:0:
157,233,164800,2,0,L|175:321,1,65,10|0,0:0|0:0,0:0:0:0:
92,308,165153,2,0,L|74:396,1,65,2|0,3:2|0:0,0:0:0:0:
17,268,165506,6,0,P|-2:205|5:131,1,130,2|2,0:0|3:2,0:0:0:0:
53,82,166035,1,0,0:0:0:0:
118,39,166212,2,0,P|145:97|151:162,1,130,10|2,0:0|0:0,0:0:0:0:
241,289,166918,6,0,B|276:226|221:227|257:140,1,130,4|0,3:2|0:0,0:0:0:0:
322,135,167447,1,0,0:0:0:0:
395,110,167623,2,0,L|458:97,1,65,10|2,0:0|0:0,0:0:0:0:
451,202,167976,2,0,L|375:187,1,65,2|2,3:2|0:0,0:0:0:0:
322,135,168329,6,0,P|351:198|349:278,1,130,2|2,0:0|3:1,0:0:0:0:
293,308,168859,1,2,0:1:0:0:
274,232,169035,2,0,B|246:216|246:216|206:222,1,65,10|2,0:1|0:1,0:0:0:0:
131,296,169388,2,0,L|117:217,1,65,2|2,3:1|0:1,0:0:0:0:
109,140,169741,5,4,3:2:0:0:
323,150,170094,2,0,P|349:99|345:72,1,65,2|0,0:0|3:0,0:0:0:0:
215,107,170447,2,0,P|246:155|271:165,1,65,10|0,0:0|0:0,0:0:0:0:
301,25,170800,2,0,P|243:27|222:44,1,65,2|0,3:2|0:0,0:0:0:0:
348,92,171153,6,0,P|414:86|474:48,1,130,2|2,0:2|3:2,0:0:0:0:
500,125,171682,1,0,0:0:0:0:
435,168,171859,2,0,L|422:327,1,130,10|2,0:0|0:0,0:0:0:0:
283,230,172565,6,0,B|218:224|218:224|151:258,1,130,4|0,3:2|0:0,0:0:0:0:
125,324,173094,1,0,0:0:0:0:
81,259,173271,2,0,B|76:227|76:227|86:196,2,65,8|0|0,0:0|0:0|3:0,0:0:0:0:
53,332,173800,1,0,0:0:0:0:
129,346,173976,6,0,P|178:346|202:331,1,65,2|0,0:0|3:0,0:0:0:0:
250,288,174329,2,0,P|262:263|262:219,1,65,0|0,3:0|0:0,0:0:0:0:
194,189,174682,2,0,P|193:115|232:51,1,130,8|2,0:0|1:2,0:0:0:0:
290,35,175212,1,2,1:2:0:0:
340,93,175388,6,0,B|412:96|477:73|477:73|455:124,1,195,6|2,3:2|0:0,0:0:0:0:
405,184,176094,2,0,P|356:188|317:180,1,65,8|0,0:0|0:0,0:0:0:0:
277,140,176447,2,0,B|258:172|258:172|263:199,1,65,0|0,3:0|0:0,0:0:0:0:
327,293,176800,5,4,0:0:0:0:
245,273,176977,2,0,L|161:283,1,65,0|0,3:0|3:0,0:0:0:0:
111,354,177329,1,4,0:0:0:0:
193,374,177506,2,0,L|277:364,1,65,8|0,0:0|3:0,0:0:0:0:
328,295,177859,1,0,0:0:0:0:
101,229,178212,6,0,P|52:197|138:169,1,195,6|2,3:2|0:0,0:0:0:0:
211,173,178918,2,0,P|208:140|197:110,1,65,8|0,0:0|0:0,0:0:0:0:
292,26,179271,2,0,P|289:58|278:88,1,65,0|0,3:0|0:0,0:0:0:0:
327,155,179624,5,4,0:0:0:0:
396,120,179800,2,0,B|428:114|428:114|474:131,1,65,0|0,3:0|3:0,0:0:0:0:
441,232,180153,1,4,0:0:0:0:
372,267,180329,2,0,B|340:273|340:273|294:256,1,65,8|0,0:0|0:0,0:0:0:0:
234,196,180682,1,0,0:0:0:0:
169,24,181035,5,4,3:2:0:0:
242,75,181212,2,0,L|297:82,4,32.5,0|0|0|0|0,1:0|1:0|1:0|1:0|1:0,0:0:0:0:
162,112,181741,2,0,P|140:172|147:237,1,130,8|0,0:0|3:0,0:0:0:0:
420,287,182447,5,4,0:0:0:0:
475,221,182623,2,0,P|442:206|399:204,1,65,0|0,3:0|3:0,0:0:0:0:
310,218,182976,1,4,0:0:0:0:
257,150,183153,2,0,P|290:135|333:133,1,65,8|0,0:0|3:0,0:0:0:0:
413,98,183506,1,0,0:0:0:0:
318,225,183859,5,2,1:2:0:0:
318,225,183947,1,2,1:2:0:0:
318,225,184035,1,2,1:2:0:0:
250,287,184212,2,0,L|171:275,1,65,2|2,0:1|0:1,0:0:0:0:
90,226,184565,2,0,B|78:199|78:199|103:141,1,65,10|2,0:1|0:1,0:0:0:0:
180,70,184918,2,0,B|192:97|192:97|167:155,1,65,2|2,3:1|3:1,0:0:0:0:
66,62,185271,5,0,0:0:0:0:
308,266,185624,2,0,B|352:260|352:260|389:271|389:271|452:263,3,130,2|2|2|2,0:0|0:0|0:0|0:0,0:0:0:0:
