osu file format v14

[General]
AudioFilename: audio.mp3
AudioLeadIn: 0
PreviewTime: 53977
Countdown: 0
SampleSet: Soft
StackLeniency: 0.7
Mode: 0
LetterboxInBreaks: 0
WidescreenStoryboard: 0

[Editor]
DistanceSpacing: 1.7
BeatDivisor: 4
GridSize: 4
TimelineZoom: 2.3

[Metadata]
Title:POP/STARS (ft. Madison Beer, (G)I-DLE, Jaira Burns)
TitleUnicode:POP/STARS (ft. Madison Beer, (G)I-DLE, Jaira Burns)
Artist:K/DA
ArtistUnicode:K/DA
Creator:Nathan
Version:Extra
Source:League of Legends
Tags:sukinathan handsome sing foxygrandpa kpop popstar popstars kda ahri evelynn kaisa kai'sa akali riot games worlds 2018 miyeon soyeon (여자)아이들 gidle g_idle
BeatmapID:1828556
BeatmapSetID:874948

[Difficulty]
HPDrainRate:5
CircleSize:4.2
OverallDifficulty:8.5
ApproachRate:9.3
SliderMultiplier:1.8
SliderTickRate:1

[Events]
//Background and Video events
0,0,"KDA_MUSICVIDEO_AkaliDragon_Wallpaper.jpg",0,0
Video,-243,"kda.mp4"
//Break Periods
2,79588,81612
2,138882,149423
//Storyboard Layer 0 (Background)
//Storyboard Layer 1 (Fail)
//Storyboard Layer 2 (Pass)
//Storyboard Layer 3 (Foreground)
//Storyboard Sound Samples

[TimingPoints]
330,352.941176470588,4,2,1,70,1,0
330,-133.333333333333,4,2,1,70,0,0
3418,-133.333333333333,4,2,1,30,0,0
3506,-133.333333333333,4,2,1,70,0,0
3594,-133.333333333333,4,2,1,30,0,0
3682,-133.333333333333,4,2,1,70,0,0
3771,-133.333333333333,4,2,1,30,0,0
3859,-133.333333333333,4,2,1,70,0,0
5535,-133.333333333333,4,2,1,5,0,0
5624,-133.333333333333,4,2,1,70,0,0
5888,-133.333333333333,4,2,1,5,0,0
5977,-100,4,2,1,70,0,0
8800,-80,4,2,1,70,0,0
11624,-100,4,2,1,70,0,0
15859,-66.6666666666667,4,2,1,70,0,0
17447,-100,4,2,1,70,0,0
21506,-80,4,2,1,70,0,0
21947,-80,4,2,1,30,0,0
22035,-80,4,2,1,70,0,0
22124,-80,4,2,1,30,0,0
22212,-80,4,2,1,70,0,0
22388,-66.6666666666667,4,2,1,70,0,0
22477,-80,4,2,1,30,0,0
22565,-66.6666666666667,4,2,1,70,0,0
22653,-80,4,2,1,30,0,0
22741,-66.6666666666667,4,2,1,70,0,0
22829,-80,4,2,1,30,0,0
22918,-90.9090909090909,4,2,1,70,0,0
28741,-90.9090909090909,4,2,1,70,0,0
28829,-90.9090909090909,4,2,1,30,0,0
28918,-90.9090909090909,4,2,1,70,0,0
29006,-90.9090909090909,4,2,1,30,0,0
29094,-90.9090909090909,4,2,1,70,0,0
29182,-90.9090909090909,4,2,1,30,0,0
29271,-90.9090909090909,4,2,1,70,0,0
30329,-90.9090909090909,4,2,1,70,0,0
30418,-80,4,2,1,30,0,0
30506,-90.9090909090909,4,2,1,70,0,0
30594,-80,4,2,1,30,0,0
30682,-90.9090909090909,4,2,1,70,0,0
31741,-90.9090909090909,4,2,1,70,0,0
31829,-80,4,2,1,30,0,0
31918,-90.9090909090909,4,2,1,70,0,0
32006,-80,4,2,1,30,0,0
32094,-90.9090909090909,4,2,1,70,0,0
35624,-100,4,2,1,70,0,0
35977,-117.647058823529,4,2,1,70,0,0
36329,-142.857142857143,4,2,1,70,0,0
36682,-181.818181818182,4,2,1,70,0,0
37035,-250,4,2,1,70,0,0
39153,-181.818181818182,4,2,1,70,0,0
45506,-100,4,2,1,70,0,0
52212,-66.6666666666667,4,2,1,70,0,0
52565,-100,4,2,1,70,0,0
53624,-66.6666666666667,4,2,1,70,0,0
55079,-66.6666666666667,4,2,1,40,0,0
55741,-80,4,2,1,70,0,0
55829,-80,4,2,1,30,0,0
55918,-74.0740740740741,4,2,1,70,0,0
56006,-80,4,2,1,30,0,0
56094,-68.9655172413793,4,2,1,70,0,0
56182,-80,4,2,1,30,0,0
56271,-64.5161290322581,4,2,1,70,0,0
56359,-80,4,2,1,30,0,0
56447,-60.6060606060606,4,2,1,70,0,0
56535,-80,4,2,1,30,0,0
56624,-57.1428571428571,4,2,1,70,0,0
56712,-80,4,2,1,30,0,0
56800,-66.6666666666667,4,2,1,70,0,1
57153,-66.6666666666667,4,2,1,70,0,1
57859,-50,4,2,1,70,0,1
58565,-40,4,2,1,70,0,1
59624,-133.333333333333,4,2,1,70,0,1
61388,-80,4,2,1,70,0,1
61477,-50,4,2,1,40,0,1
61565,-74.0740740740741,4,2,1,70,0,1
61653,-50,4,2,1,40,0,1
61741,-68.9655172413793,4,2,1,70,0,1
61829,-50,4,2,1,40,0,1
61918,-64.5161290322581,4,2,1,70,0,1
62006,-50,4,2,1,40,0,1
62094,-60.6060606060606,4,2,1,70,0,1
62182,-50,4,2,1,40,0,1
62271,-57.1428571428571,4,2,1,70,0,1
62359,-50,4,2,1,40,0,1
62447,-57.1428571428571,4,2,1,70,0,1
62800,-66.6666666666667,4,2,1,70,0,1
63506,-50,4,2,1,70,0,1
64212,-40,4,2,1,70,0,1
65271,-133.333333333333,4,2,1,70,0,1
67741,-71.4285714285714,4,2,1,70,0,1
68094,-50,4,2,1,70,0,1
68138,-50,4,2,1,40,0,1
68800,-66.6666666666667,4,2,1,70,0,1
69506,-66.6666666666667,4,2,1,70,0,1
70918,-50,4,2,1,70,0,1
70962,-50,4,2,1,40,0,1
71624,-66.6666666666667,4,2,1,70,0,1
76918,-80,4,2,1,70,0,1
77006,-50,4,2,1,40,0,1
77094,-74.0740740740741,4,2,1,70,0,1
77182,-50,4,2,1,40,0,1
77271,-68.9655172413793,4,2,1,70,0,1
77359,-50,4,2,1,40,0,1
77447,-64.5161290322581,4,2,1,70,0,1
77535,-50,4,2,1,40,0,1
77624,-60.6060606060606,4,2,1,70,0,1
77712,-50,4,2,1,40,0,1
77800,-57.1428571428571,4,2,1,70,0,1
77888,-50,4,2,1,40,0,1
77977,-66.6666666666667,4,2,1,70,0,1
79035,-100,4,2,1,70,0,1
79388,-100,4,2,1,70,0,0
91388,-66.6666666666667,4,2,1,70,0,0
92800,-50,4,2,1,70,0,0
92977,-66.6666666666667,4,2,1,70,0,0
93153,-100,4,2,1,70,0,0
93329,-200,4,2,1,70,0,0
93506,-100,4,2,1,70,0,0
106212,-100,4,2,1,70,0,0
106565,-117.647058823529,4,2,1,70,0,0
106917,-142.857142857143,4,2,1,70,0,0
107270,-181.818181818182,4,2,1,70,0,0
107623,-250,4,2,1,70,0,0
109741,-181.818181818182,4,2,1,70,0,0
110447,-100,4,2,1,70,0,0
111506,-66.6666666666667,4,2,1,70,0,0
111859,-100,4,2,1,70,0,0
112918,-66.6666666666667,4,2,1,70,0,0
114374,-66.6666666666667,4,2,1,40,0,0
115035,-80,4,2,1,70,0,0
115124,-80,4,2,1,30,0,0
115212,-74.0740740740741,4,2,1,70,0,0
115300,-80,4,2,1,30,0,0
115388,-68.9655172413793,4,2,1,70,0,0
115477,-80,4,2,1,30,0,0
115565,-64.5161290322581,4,2,1,70,0,0
115653,-80,4,2,1,30,0,0
115741,-60.6060606060606,4,2,1,70,0,0
115829,-80,4,2,1,30,0,0
115918,-57.1428571428571,4,2,1,70,0,0
116006,-80,4,2,1,30,0,0
116094,-66.6666666666667,4,2,1,70,0,1
116447,-66.6666666666667,4,2,1,70,0,1
117153,-50,4,2,1,70,0,1
117859,-40,4,2,1,70,0,1
118918,-133.333333333333,4,2,1,70,0,1
120682,-80,4,2,1,70,0,1
120771,-50,4,2,1,40,0,1
120859,-74.0740740740741,4,2,1,70,0,1
120947,-50,4,2,1,40,0,1
121035,-68.9655172413793,4,2,1,70,0,1
121124,-50,4,2,1,40,0,1
121212,-64.5161290322581,4,2,1,70,0,1
121300,-50,4,2,1,40,0,1
121388,-60.6060606060606,4,2,1,70,0,1
121477,-50,4,2,1,40,0,1
121565,-57.1428571428571,4,2,1,70,0,1
121653,-50,4,2,1,40,0,1
121741,-57.1428571428571,4,2,1,70,0,1
122094,-66.6666666666667,4,2,1,70,0,1
122800,-50,4,2,1,70,0,1
123506,-40,4,2,1,70,0,1
124565,-133.333333333333,4,2,1,70,0,1
127035,-71.4285714285714,4,2,1,70,0,1
127388,-50,4,2,1,70,0,1
127432,-50,4,2,1,40,0,1
128094,-66.6666666666667,4,2,1,70,0,1
128800,-66.6666666666667,4,2,1,70,0,1
130212,-50,4,2,1,70,0,1
130256,-50,4,2,1,40,0,1
130918,-66.6666666666667,4,2,1,70,0,1
133212,-133.333333333333,4,2,1,70,0,1
133741,-66.6666666666667,4,2,1,70,0,1
136212,-80,4,2,1,70,0,1
136300,-50,4,2,1,40,0,1
136388,-74.0740740740741,4,2,1,70,0,1
136477,-50,4,2,1,40,0,1
136565,-68.9655172413793,4,2,1,70,0,1
136653,-50,4,2,1,40,0,1
136741,-64.5161290322581,4,2,1,70,0,1
136829,-50,4,2,1,40,0,1
136918,-60.6060606060606,4,2,1,70,0,1
137006,-50,4,2,1,40,0,1
137094,-57.1428571428571,4,2,1,70,0,1
137182,-50,4,2,1,40,0,1
137271,-66.6666666666667,4,2,1,70,0,1
138329,-100,4,2,1,70,0,1
138682,-100,4,2,1,70,0,0
149977,-100,4,2,1,70,0,0
163035,-80,4,2,1,70,0,0
163124,-80,4,2,1,30,0,0
163212,-74.0740740740741,4,2,1,70,0,0
163300,-80,4,2,1,30,0,0
163388,-68.9655172413793,4,2,1,70,0,0
163477,-80,4,2,1,30,0,0
163565,-64.5161290322581,4,2,1,70,0,0
163653,-80,4,2,1,30,0,0
163741,-60.6060606060606,4,2,1,70,0,0
163829,-80,4,2,1,30,0,0
163918,-57.1428571428571,4,2,1,70,0,0
164006,-80,4,2,1,30,0,0
164094,-57.1428571428571,4,2,1,70,0,1
164447,-66.6666666666667,4,2,1,70,0,1
165153,-50,4,2,1,70,0,1
165859,-40,4,2,1,70,0,1
166918,-133.333333333333,4,2,1,70,0,1
168682,-80,4,2,1,70,0,1
168771,-80,4,2,1,30,0,1
168859,-74.0740740740741,4,2,1,70,0,1
168947,-80,4,2,1,30,0,1
169035,-68.9655172413793,4,2,1,70,0,1
169124,-80,4,2,1,30,0,1
169212,-64.5161290322581,4,2,1,70,0,1
169300,-80,4,2,1,30,0,1
169388,-60.6060606060606,4,2,1,70,0,1
169477,-80,4,2,1,30,0,1
169565,-57.1428571428571,4,2,1,70,0,1
169653,-80,4,2,1,30,0,1
169741,-57.1428571428571,4,2,1,70,0,1
170094,-66.6666666666667,4,2,1,70,0,1
170800,-50,4,2,1,70,0,1
171506,-40,4,2,1,70,0,1
172565,-133.333333333333,4,2,1,70,0,1
175035,-71.4285714285714,4,2,1,70,0,1
175388,-50,4,2,1,70,0,1
175432,-50,4,2,1,40,0,1
176094,-66.6666666666667,4,2,1,70,0,1
176800,-66.6666666666667,4,2,1,70,0,1
178212,-50,4,2,1,70,0,1
178256,-50,4,2,1,40,0,1
178918,-66.6666666666667,4,2,1,70,0,1
181212,-133.333333333333,4,2,1,70,0,1
181741,-66.6666666666667,4,2,1,70,0,1
184212,-80,4,2,1,70,0,1
184300,-80,4,2,1,30,0,1
184388,-74.0740740740741,4,2,1,70,0,1
184477,-80,4,2,1,30,0,1
184565,-68.9655172413793,4,2,1,70,0,1
184653,-80,4,2,1,30,0,1
184741,-64.5161290322581,4,2,1,70,0,1
184829,-80,4,2,1,30,0,1
184918,-60.6060606060606,4,2,1,70,0,1
185006,-80,4,2,1,30,0,1
185094,-57.1428571428571,4,2,1,70,0,1
185182,-80,4,2,1,30,0,1
185271,-57.1428571428571,4,2,1,70,0,1
186329,-100,4,2,1,70,0,1
186682,-100,4,2,1,70,0,0

[Colours]
Combo1 : 47,52,147
Combo2 : 89,235,252
Combo3 : 209,36,160
Combo4 : 152,33,165

[HitObjects]
446,133,330,6,0,L|518:124,1,67.5000025749208,4|0,0:0|0:0,0:0:0:0:
415,318,682,6,0,P|377:247|410:176,1,135.000005149842,2|0,0:0|0:0,0:0:0:0:
338,0,1212,2,0,P|376:71|343:142,1,135.000005149842,2|0,0:0|0:0,0:0:0:0:
308,184,1741,2,0,L|167:170,1,135.000005149842,2|0,0:0|0:0,0:0:0:0:
174,171,3153,5,4,0:0:0:0:
174,344,3329,6,0,L|218:355,1,33.7500012874604,2|0,0:0|0:0,0:0:0:0:
238,238,3506,2,0,L|206:270,1,33.7500012874604,2|0,0:0|0:0,0:0:0:0:
298,346,3682,2,0,L|285:302,1,33.7500012874604,2|0,0:0|0:0,0:0:0:0:
323,225,3859,2,0,P|394:207|472:181,1,135.000005149842,2|0,0:0|0:0,0:0:0:0:
174,344,4388,2,0,P|102:361|25:388,1,135.000005149842,2|0,0:0|0:0,0:0:0:0:
207,33,5271,6,0,P|248:82|209:109,1,101.250003862381,2|0,0:1|0:0,0:0:0:0:
245,200,5624,2,0,P|204:151|243:124,1,101.250003862381,2|0,0:1|0:0,0:0:0:0:
315,128,5977,5,4,0:0:0:0:
304,275,6153,1,2,0:0:0:0:
167,207,6329,1,2,0:0:0:0:
324,140,6506,1,2,0:0:0:0:
304,291,6682,2,0,L|294:357,3,45,0|0|0|0,0:0|0:0|0:0|0:0,0:0:0:0:
307,349,7035,2,0,P|259:356|205:363,1,90,0|0,0:0|0:0,0:0:0:0:
57,113,7388,5,2,0:0:0:0:
214,197,7565,1,2,0:0:0:0:
52,309,7741,1,2,0:0:0:0:
73,105,7918,1,2,0:0:0:0:
132,193,8094,1,2,0:0:0:0:
137,214,8182,1,0,0:0:0:0:
142,236,8271,1,0,0:0:0:0:
146,257,8359,1,0,0:0:0:0:
150,278,8447,2,0,L|174:384,1,90
278,83,8800,6,0,P|213:98|174:139,1,112.5,2|0,0:0|0:0,0:0:0:0:
378,239,9153,2,0,P|420:274|475:284,1,112.5,2|0,0:0|0:0,0:0:0:0:
328,0,9506,2,0,L|281:240,1,225,2|0,0:0|0:0,0:0:0:0:
127,255,10035,1,2,0:0:0:0:
130,265,10124,1,2,0:0:0:0:
134,275,10212,5,0,1:0:0:0:
322,141,10388,1,0,1:0:0:0:
190,141,10565,1,0,1:0:0:0:
378,275,10741,1,0,1:0:0:0:
256,12,10918,1,0,1:0:0:0:
256,357,11271,6,0,L|256:244,1,112.5,4|0,0:0|0:0,0:0:0:0:
77,52,11624,5,0,3:2:0:0:
77,52,11800,2,0,L|102:133,1,45,0|0,1:0|0:0,0:0:0:0:
156,263,11977,1,0,1:2:0:0:
184,114,12153,1,0,1:0:0:0:
30,175,12329,2,0,P|3:239|18:295,1,90,8|0,0:0|0:0,0:0:0:0:
197,364,12682,2,0,P|245:286|224:202,1,180,0|0,3:0|0:0,0:0:0:0:
107,341,13212,5,0,3:0:0:0:
314,367,13388,2,0,P|375:349|434:338,1,90,0|0,3:0|0:0,0:0:0:0:
296,92,13741,1,8,0:0:0:0:
332,267,13918,2,0,P|373:213|376:88,1,180,0|0,3:0|0:0,0:0:0:0:
498,242,14447,6,0,P|462:207|400:192,1,90,0|0,3:0|0:0,0:0:0:0:
196,192,14800,1,0,0:0:0:0:
332,267,14977,1,0,1:0:0:0:
381,103,15153,2,0,P|332:116|288:162,1,90,8|0,0:0|0:0,0:0:0:0:
225,324,15506,1,0,3:0:0:0:
425,193,15682,1,0,0:0:0:0:
203,83,15859,6,0,P|130:101|37:116,1,135.000005149842,4|0,0:0|3:0,0:0:0:0:
368,346,16212,2,0,P|434:358|499:374,1,135.000005149842,4|0,3:2|0:0,0:0:0:0:
397,22,16565,2,0,P|356:113|346:198,1,135.000005149842,12|0,0:0|0:0,0:0:0:0:
167,358,16918,2,0,P|234:333|246:150,1,270.000010299683,4|0,0:0|3:0,0:0:0:0:
106,285,17447,5,0,1:0:0:0:
280,330,17624,1,0,1:0:0:0:
97,285,17800,1,0,1:0:0:0:
252,157,17977,2,0,P|297:161|339:176,1,90,8|0,0:0|0:0,0:0:0:0:
193,312,18329,2,0,P|150:327|18:309,1,180,0|0,3:0|0:0,0:0:0:0:
279,70,18859,5,0,3:0:0:0:
165,210,19035,2,0,P|119:174|103:115,1,90,0|0,3:0|0:0,0:0:0:0:
411,83,19388,1,8,0:0:0:0:
203,14,19565,2,0,P|254:77|255:200,1,180,0|0,3:0|0:0,0:0:0:0:
251,299,20094,5,0,3:0:0:0:
387,242,20271,1,0,1:0:0:0:
368,236,20359,1,0,1:0:0:0:
351,230,20447,1,0,1:0:0:0:
466,126,20624,1,0,1:0:0:0:
295,82,20800,2,0,P|250:92|190:104,1,90,8|0,0:0|0:0,0:0:0:0:
22,41,21153,1,0,3:0:0:0:
179,205,21329,1,0,0:0:0:0:
139,16,21506,6,0,P|116:81|104:158,1,112.5,4|0,1:2|3:0,0:0:0:0:
380,329,21859,2,0,P|414:295|418:258,1,56.25,4|0,3:2|0:0,0:0:0:0:
425,216,22035,2,0,P|414:184|396:167,1,56.25,0|0,1:0|0:0,0:0:0:0:
179,205,22212,5,12,0:0:0:0:
332,241,22388,6,0,P|299:237|256:222,1,67.5000025749208,0|0,1:0|0:0,0:0:0:0:
107,123,22565,2,0,P|140:119|183:104,1,67.5000025749208,4|0,1:2|0:0,0:0:0:0:
392,37,22741,2,0,P|357:32|316:18,1,67.5000025749208,0|0,1:0|0:0,0:0:0:0:
113,36,22918,6,0,P|215:75|291:75,1,148.50000453186,4|0,3:2|0:0,0:0:0:0:
284,89,23271,1,2,0:0:0:0:
223,291,23447,2,0,P|182:236|180:181,1,99.0000030212403,2|8,0:0|0:0,0:0:0:0:
107,123,23800,1,2,0:0:0:0:
269,204,23977,1,2,3:2:0:0:
112,318,24153,1,2,0:0:0:0:
349,277,24329,6,0,P|367:334|357:389,1,99.0000030212403,2|0,0:0|3:0,0:0:0:0:
76,214,24682,2,0,P|81:165|106:122,1,99.0000030212403,2|0,3:2|0:0,0:0:0:0:
422,147,25035,2,0,P|466:236|487:333,2,198.000006042481,10|0|0,0:0|0:0|3:0,0:0:0:0:
108,125,26094,5,2,0:0:0:0:
277,81,26271,2,0,P|197:68|161:43,1,99.0000030212403,2|8,0:0|0:0,0:0:0:0:
93,24,26624,1,2,0:0:0:0:
36,253,26800,2,0,P|81:234|130:231,1,99.0000030212403,2|0,3:2|0:0,0:0:0:0:
398,300,27153,5,2,0:0:0:0:
255,183,27329,1,2,3:2:0:0:
420,113,27506,2,0,L|395:245,1,99.0000030212403,2|0,3:2|0:0,0:0:0:0:
323,246,27771,1,0,0:0:0:0:
323,246,27859,6,0,L|314:284,6,24.7500007553101,10|0|0|0|0|0|0,0:0|0:0|0:0|0:0|0:0|0:0|0:0,0:0:0:0:
172,166,28212,2,0,L|163:128,6,24.7500007553101,2|0|0|0|0|0|0,0:0|0:0|0:0|0:0|0:0|0:0|0:0,0:0:0:0:
237,319,28565,5,0,3:0:0:0:
114,292,28741,6,0,L|125:352,1,49.5000015106202,2|0,1:0|0:0,0:0:0:0:
182,188,28918,2,0,L|193:248,1,49.5000015106202,2|0,1:2|0:0,0:0:0:0:
260,99,29094,2,0,L|271:159,1,49.5000015106202,2|0,1:2|0:0,0:0:0:0:
195,255,29271,5,10,0:0:0:0:
157,77,29447,1,2,0:0:0:0:
311,232,29624,1,2,3:2:0:0:
79,287,29800,1,2,0:0:0:0:
365,66,29977,5,4,0:0:0:0:
372,80,30329,2,0,L|363:129,1,49.5000015106202,2|0,3:2|0:0,0:0:0:0:
478,174,30506,2,0,L|469:223,1,49.5000015106202,2|0,0:0|0:0,0:0:0:0:
306,316,30682,6,0,L|327:205,1,99.0000030212403,10|0,0:0|3:0,0:0:0:0:
464,82,31035,1,2,0:0:0:0:
413,350,31212,1,2,0:0:0:0:
149,213,31388,5,6,3:2:0:0:
153,197,31741,2,0,L|162:148,1,49.5000015106202,2|0,1:2|0:0,0:0:0:0:
85,93,31918,2,0,L|94:44,1,49.5000015106202,2|0,1:2|0:0,0:0:0:0:
240,40,32094,5,10,0:0:0:0:
39,188,32271,1,2,0:0:0:0:
243,213,32447,1,2,3:2:0:0:
93,25,32624,1,2,0:0:0:0:
354,271,32800,6,0,L|367:172,1,99.0000030212403,4|0,0:0|3:0,0:0:0:0:
383,78,33153,1,4,0:0:0:0:
94,120,33329,1,0,1:0:0:0:
94,120,33418,1,0,1:0:0:0:
94,120,33506,6,0,L|87:180,1,49.5000015106202,12|0,0:0|0:0,0:0:0:0:
182,308,33682,2,0,L|177:259,1,49.5000015106202,8|0,0:0|0:0,0:0:0:0:
227,177,33859,2,0,L|178:172,1,49.5000015106202,12|0,0:0|0:0,0:0:0:0:
47,258,34035,2,0,L|97:253,1,49.5000015106202,8|0,0:0|0:0,0:0:0:0:
354,271,34212,5,4,3:2:0:0:
388,98,35094,5,2,0:0:0:0:
416,179,35270,1,2,0:0:0:0:
469,111,35447,1,0,0:0:0:0:
201,26,35624,6,0,P|205:70|233:106,1,90,2|0,0:0|0:0,0:0:0:0:
388,98,35977,2,0,P|354:116|333:147,1,76.5000014591217,2|0,0:0|0:0,0:0:0:0:
370,287,36329,2,0,P|348:265|318:254,1,62.9999980773926,2|0,0:0|0:0,0:0:0:0:
193,312,36682,2,0,P|208:293|211:269,1,49.5000015106202,2|0,0:0|0:0,0:0:0:0:
170,168,37035,6,0,P|131:175|98:85,1,144,2|0,0:0|0:0,0:0:0:0:
247,122,37918,2,0,L|256:84,2,36,0|0|0,0:0|0:0|0:0,0:0:0:0:
292,299,38447,5,2,0:0:0:0:
254,213,38624,1,0,0:0:0:0:
342,220,38800,1,2,0:0:0:0:
285,308,38977,1,0,0:0:0:0:
412,136,39153,2,0,L|429:234,1,99.0000030212403,2|0,0:0|0:0,0:0:0:0:
215,112,39682,1,0,0:0:0:0:
215,112,39859,6,0,L|198:14,2,99.0000030212403,2|0|0,0:0|0:0|0:0,0:0:0:0:
190,348,40741,2,0,P|147:342|124:328,1,49.5000015106202,2|0,0:0|0:0,0:0:0:0:
76,171,41094,1,2,0:0:0:0:
62,288,41271,6,0,P|99:257|148:248,3,99.0000030212403,2|0|0|0,0:0|0:0|0:0|0:0,0:0:0:0:
362,353,42682,6,0,P|360:315|388:237,1,99.0000030212403,2|0,0:0|0:0,0:0:0:0:
439,133,43212,1,2,0:0:0:0:
341,167,43388,2,0,P|309:137|304:128,1,49.5000015106202,2|0,0:0|0:0,0:0:0:0:
468,219,43741,2,0,P|499:241|513:263,1,49.5000015106202,2|0,0:0|0:0,0:0:0:0:
286,295,44094,5,2,0:0:0:0:
376,258,44271,1,2,0:0:0:0:
362,353,44447,1,2,0:0:0:0:
264,307,44624,1,2,0:0:0:0:
389,159,44800,2,0,L|506:134,1,99.0000030212403,2|0,0:0|0:0,0:0:0:0:
234,95,45329,1,2,0:0:0:0:
234,95,45506,6,0,P|183:138|57:137,1,180,4|0,1:2|0:0,0:0:0:0:
142,322,46035,2,0,P|183:271|165:151,1,180,0|0,1:0|0:0,0:0:0:0:
140,59,46565,1,0,1:0:0:0:
70,245,46741,1,0,0:0:0:0:
364,182,46918,6,0,P|321:172|276:168,1,90,4|0,1:2|0:0,0:0:0:0:
448,144,47271,1,0,0:0:0:0:
303,21,47447,1,0,1:0:0:0:
374,87,47624,2,0,P|404:55|430:18,1,90
448,144,47977,2,0,P|460:187|480:227,1,90,0|0,1:0|0:0,0:0:0:0:
202,22,48329,6,0,P|175:135|107:192,1,180,4|0,1:2|0:0,0:0:0:0:
0,112,48859,2,0,P|111:78|194:109,1,180,0|0,1:0|0:0,0:0:0:0:
213,360,49388,1,0,1:0:0:0:
50,228,49565,1,0,0:0:0:0:
311,192,49741,6,0,L|294:308,1,90,4|0,1:2|0:0,0:0:0:0:
152,198,50094,1,0,0:0:0:0:
387,333,50271,1,0,1:0:0:0:
122,374,50447,2,0,L|139:258,1,90,0|0,0:0|0:0,0:0:0:0:
406,223,50800,2,0,L|414:166,1,45,0|0,1:0|0:0,0:0:0:0:
259,113,50977,2,0,L|267:56,1,45,0|0,1:0|0:0,0:0:0:0:
490,121,51153,6,0,L|476:19,1,90,4|0,1:2|0:0,0:0:0:0:
310,289,51506,2,0,L|296:187,1,90,0|0,1:0|0:0,0:0:0:0:
512,344,51859,1,0,1:0:0:0:
512,344,52035,1,0,0:0:0:0:
386,74,52212,6,0,L|413:274,1,202.500007724762,4|0,1:2|0:0,0:0:0:0:
202,289,52565,6,0,L|214:199,1,90,4|0,1:2|0:0,0:0:0:0:
22,121,52918,1,0,1:0:0:0:
212,299,53094,1,0,0:0:0:0:
1,381,53271,2,0,L|15:279,1,90,0|0,1:0|0:0,0:0:0:0:
126,74,53624,6,0,L|98:274,1,202.500007724762,4|0,1:2|0:0,0:0:0:0:
96,289,53977,5,4,1:2:0:0:
149,196,54153,1,0,1:0:0:0:
202,280,54329,1,0,1:0:0:0:
205,103,54506,1,0,1:0:0:0:
309,273,54682,1,0,1:0:0:0:
260,12,54859,1,0,1:0:0:0:
417,266,55035,6,2,L|442:307,8,33.7500012874604,2|2|2|2|2|2|2|2|2,1:2|0:0|0:0|0:0|0:2|0:0|0:0|0:0|0:0,0:0:0:0:
417,266,55741,6,0,B|381:275|381:275|327:254,1,56.25,2|0,0:1|0:0,0:0:0:0:
111,294,55918,2,0,B|120:259|120:259|146:234,1,60.7500002317429,2|0,0:1|0:0,0:0:0:0:
239,15,56094,2,0,B|265:41|265:41|270:73,1,65.250001991272,2|0,0:1|0:0,0:0:0:0:
272,368,56271,6,0,B|246:342|246:342|242:307,1,69.7500005321503,2|0,0:1|0:0,0:0:0:0:
400,89,56448,2,0,B|391:124|391:124|361:148,1,74.2500007081032,2|0,0:1|0:0,0:0:0:0:
95,117,56624,2,0,B|130:108|130:108|184:128,1,78.7500007510185,2|0,0:1|0:0,0:0:0:0:
450,209,56800,6,0,P|350:224|255:192,1,202.500007724762,4|0,3:2|0:0,0:0:0:0:
24,30,57153,6,0,L|-4:175,1,135.000005149842,2|0,0:0|0:0,0:0:0:0:
131,213,57506,2,0,L|158:363,1,135.000005149842,10|0,0:0|0:0,0:0:0:0:
222,15,57859,6,0,L|259:211,1,180,2|0,3:2|0:0,0:0:0:0:
0,163,58212,2,0,L|32:341,1,180,2|0,0:0|3:0,0:0:0:0:
407,103,58565,6,0,L|366:329,1,225,2|0,3:2|0:0,0:0:0:0:
107,0,58918,2,0,L|66:226,1,225,10|0,0:0|3:0,0:0:0:0:
487,62,59271,5,2,0:0:0:0:
308,131,59447,1,2,0:0:0:0:
448,260,59624,6,0,P|390:230|315:234,1,135.000005149842,4|0,3:2|0:0,0:0:0:0:
321,231,60153,1,0,0:0:0:0:
105,37,60329,5,10,0:0:0:0:
208,224,60506,1,2,0:0:0:0:
251,22,60682,1,2,3:2:0:0:
53,133,60859,1,2,0:0:0:0:
341,83,61035,2,0,L|428:70,1,67.5000025749208,2|0,0:0|3:0,0:0:0:0:
407,73,61300,1,0,0:0:0:0:
407,73,61388,6,0,P|429:102|424:159,1,56.25,2|0,3:1|0:0,0:0:0:0:
451,330,61565,2,0,P|419:334|385:324,1,60.7500002317429,2|0,0:1|0:0,0:0:0:0:
208,224,61741,2,0,P|218:193|245:167,1,65.250001991272,10|0,0:1|0:0,0:0:0:0:
494,190,61918,6,0,P|478:222|423:248,1,69.7500005321503,2|0,0:1|0:0,0:0:0:0:
292,354,62094,2,0,P|272:329|265:289,1,74.2500007081032,2|0,3:1|0:0,0:0:0:0:
262,90,62271,2,0,P|293:85|337:106,1,78.7500007510185,2|0,0:1|0:0,0:0:0:0:
350,208,62447,6,0,P|268:215|124:102,1,236.250002253056,4|0,3:2|0:0,0:0:0:0:
0,36,62800,6,0,P|57:14|137:16,1,135.000005149842,2|0,0:0|3:0,0:0:0:0:
142,136,63153,2,0,P|112:148|-3:134,1,135.000005149842,10|0,0:0|0:0,0:0:0:0:
497,58,63506,6,0,P|511:143|442:226,1,180,2|0,3:2|0:0,0:0:0:0:
287,132,63859,2,0,P|312:48|390:7,1,180,2|0,0:0|3:0,0:0:0:0:
150,358,64212,6,0,P|24:293|0:199,1,225,0|0,3:0|0:0,0:0:0:0:
406,132,64565,2,0,P|388:271|308:327,1,225,8|0,0:0|3:0,0:0:0:0:
95,201,64918,5,0,0:0:0:0:
291,138,65094,1,0,0:0:0:0:
226,292,65271,6,0,P|199:245|213:153,1,135.000005149842,4|0,3:2|0:0,0:0:0:0:
205,166,65800,1,0,0:0:0:0:
181,369,65977,5,8,0:0:0:0:
173,71,66153,1,0,0:0:0:0:
351,307,66329,1,0,3:0:0:0:
69,220,66506,1,0,0:0:0:0:
347,125,66682,2,0,L|421:106,1,67.5000025749208,2|0,0:0|3:0,0:0:0:0:
356,106,67035,5,2,3:0:0:0:
297,188,67212,1,2,0:0:0:0:
269,114,67388,6,0,L|210:98,1,33.7500012874604,8|0,0:0|0:0,0:0:0:0:
329,259,67565,2,0,L|297:306,1,33.7500012874604,2|0,1:2|0:0,0:0:0:0:
133,64,67741,6,0,L|152:125,1,62.9999980773926,2|0,1:2|0:0,0:0:0:0:
239,384,67918,2,0,L|221:324,1,62.9999980773926,2|0,1:2|0:0,0:0:0:0:
16,300,68094,6,0,L|74:275,14,45,6|0|0|0|2|0|0|0|2|0|0|0|2|0|0,3:2|0:0|0:0|0:0|0:0|0:0|0:0|0:0|0:0|0:0|0:0|0:0|0:0|0:0|0:0,0:0:0:0:
71,192,68800,6,0,B|122:205|122:205|157:293|157:293|122:348,1,202.500007724762,8|0,0:0|0:0,0:0:0:0:
233,335,69153,2,0,B|252:305|252:305|241:276,1,67.5000025749208,0|0,3:0|0:0,0:0:0:0:
192,157,69329,2,0,B|173:126|173:126|143:122,1,67.5000025749208,0|0,0:0|0:0,0:0:0:0:
57,282,69506,5,4,0:0:0:0:
322,178,69682,2,0,L|474:128,1,135.000005149842,0|0,3:0|3:0,0:0:0:0:
86,16,70035,1,4,0:0:0:0:
327,163,70212,2,0,B|344:118|344:118|347:89|315:36,1,135.000005149842,8|0,0:0|3:0,0:0:0:0:
150,303,70565,2,0,B|114:253|114:253|114:179|163:114,1,202.500007724762
150,321,70918,6,0,L|105:312,14,45,6|0|0|0|2|0|0|0|2|0|0|0|2|0|0,3:2|0:0|0:0|0:0|0:0|0:0|0:0|0:0|0:0|0:0|0:0|0:0|0:0|0:0|0:0,0:0:0:0:
322,286,71624,6,0,P|289:200|230:274,1,202.500007724762,8|0,0:0|0:0,0:0:0:0:
400,309,71977,2,0,P|408:277|407:242,1,67.5000025749208,0|0,3:0|0:0,0:0:0:0:
172,179,72153,2,0,P|156:208|148:241,1,67.5000025749208
249,361,72329,5,4,0:0:0:0:
319,122,72506,2,0,B|266:124|266:124|234:111|196:79,1,135.000005149842,0|0,3:0|3:0,0:0:0:0:
258,372,72859,1,4,0:0:0:0:
322,108,73035,2,0,B|379:104|379:104|411:120|447:156,1,135.000005149842,8|0,0:0|0:0,0:0:0:0:
76,276,73388,1,0,0:0:0:0:
72,289,73741,5,4,3:2:0:0:
128,186,73918,1,0,1:0:0:0:
157,212,74007,1,0,1:0:0:0:
176,248,74095,1,0,1:0:0:0:
175,290,74183,1,0,1:0:0:0:
162,330,74271,1,0,1:0:0:0:
81,112,74447,6,0,B|186:68|172:168|301:103,1,202.500007724762,8|0,0:0|0:0,0:0:0:0:
275,6,74800,2,0,P|229:42|232:78,1,67.5000025749208,0|0,3:0|0:0,0:0:0:0:
175,227,74977,2,0,P|129:191|132:155,1,67.5000025749208,0|0,0:0|0:0,0:0:0:0:
57,12,75153,5,4,0:0:0:0:
392,208,75329,2,0,B|417:164|417:164|416:136|379:82,1,135.000005149842,0|0,3:0|3:0,0:0:0:0:
125,357,75682,1,4,0:0:0:0:
397,219,75859,2,0,L|254:241,1,135.000005149842,8|0,0:0|3:0,0:0:0:0:
44,63,76212,2,0,B|115:74|115:74|143:99|143:99|242:111,1,202.500007724762,0|0,0:0|0:0,0:0:0:0:
237,125,76565,5,2,1:2:0:0:
239,140,76653,1,2,1:2:0:0:
241,155,76741,1,2,1:2:0:0:
142,255,76918,6,0,B|131:222|131:222|158:186,1,56.25,2|0,0:1|0:0,0:0:0:0:
339,36,77094,2,0,B|350:69|350:69|328:102,1,60.7500002317429,2|0,0:1|0:0,0:0:0:0:
406,307,77271,2,0,B|395:274|395:274|415:242,1,65.250001991272,10|0,0:1|0:0,0:0:0:0:
503,126,77447,6,0,L|427:113,1,69.7500005321503,2|0,0:1|0:0,0:0:0:0:
314,270,77624,2,0,L|236:256,1,74.2500007081032,2|0,3:1|0:0,0:0:0:0:
212,73,77800,2,0,L|132:58,1,78.7500007510185,2|0,3:1|0:0,0:0:0:0:
46,275,77977,6,0,P|92:305|118:188,1,202.500007724762
15,135,78329,5,2,0:0:0:0:
142,204,78682,1,2,0:0:0:0:
134,58,79035,2,0,P|183:38|227:44,1,90,2|0,0:0|0:0,0:0:0:0:
510,167,79388,5,6,0:0:0:0:
414,139,82212,5,0,3:0:0:0:
405,151,82565,2,0,L|382:343,1,180,2|0,0:0|0:0,0:0:0:0:
383,329,83094,1,0,0:0:0:0:
80,320,83271,1,2,3:2:0:0:
187,292,83447,1,0,0:0:0:0:
94,213,83624,5,2,0:0:0:0:
281,358,83800,1,0,3:0:0:0:
303,246,83977,1,2,3:2:0:0:
187,292,84153,1,0,0:0:0:0:
495,190,84329,5,10,0:0:0:0:
433,112,84506,1,0,3:0:0:0:
477,288,84682,1,2,0:0:0:0:
470,26,84859,1,0,0:0:0:0:
205,147,85035,5,2,3:2:0:0:
205,147,85212,2,0,P|271:148|332:176,1,135,2|0,0:0|0:0,0:0:0:0:
345,193,85565,5,2,0:0:0:0:
389,131,85653,1,2,0:0:0:0:
363,59,85741,1,10,0:0:0:0:
289,361,85918,5,0,0:0:0:0:
356,313,86094,1,2,3:2:0:0:
282,280,86271,1,0,0:0:0:0:
460,270,86447,5,2,0:0:0:0:
151,363,86624,2,0,P|113:361|28:338,2,90,2|0|0,3:2|3:0|0:0,0:0:0:0:
299,124,87153,6,0,P|317:145|339:186,1,45,10|0,0:0|0:0,0:0:0:0:
116,275,87329,2,0,P|98:254|76:213,1,45,2|0,0:0|0:0,0:0:0:0:
261,61,87506,2,0,P|260:159|208:209,1,135,2|0,0:0|0:0,0:0:0:0:
207,265,87859,1,0,3:0:0:0:
56,163,88035,5,2,1:2:0:0:
48,87,88123,1,0,1:0:0:0:
90,22,88212,1,2,0:0:0:0:
207,265,88388,5,2,1:2:0:0:
145,309,88477,1,0,1:0:0:0:
67,306,88565,1,10,0:0:0:0:
220,72,88741,1,4,0:0:0:0:
39,210,88918,6,0,P|105:170|227:188,1,180,6|0,3:2|0:0,0:0:0:0:
380,366,89447,5,2,3:2:0:0:
455,378,89535,1,0,0:0:0:0:
506,320,89624,1,2,3:2:0:0:
331,185,89800,5,2,0:0:0:0:
336,262,89888,1,0,0:0:0:0:
412,269,89977,2,0,P|402:227|386:210,1,45,10|0,0:0|0:0,0:0:0:0:
261,13,90153,2,0,P|271:55|287:72,1,45,6|0,3:2|0:0,0:0:0:0:
336,262,90329,6,0,P|391:171|365:66,1,180,6|0,0:0|3:0,0:0:0:0:
218,335,90859,5,2,0:0:0:0:
249,267,90947,1,2,0:0:0:0:
228,195,91035,1,2,0:0:0:0:
165,154,91123,1,2,0:0:0:0:
91,164,91211,1,2,0:0:0:0:
42,221,91300,1,2,0:0:0:0:
45,297,91388,6,0,P|91:281|114:245,1,67.5000025749208,10|0,0:2|0:0,0:0:0:0:
239,98,91565,2,0,P|231:49|199:21,1,67.5000025749208,2|0,0:2|0:0,0:0:0:0:
353,352,91741,6,0,P|337:306|301:283,1,67.5000025749208,2|0,3:2|0:0,0:0:0:0:
228,195,91918,2,0,P|179:202|151:234,1,67.5000025749208,2|0,0:2|0:0,0:0:0:0:
151,379,92094,5,6,0:2:0:0:
216,278,92271,1,2,3:2:0:0:
103,268,92447,1,2,3:2:0:0:
151,379,92624,1,2,0:2:0:0:
452,106,92800,6,0,L|437:210,1,90,8|0,0:0|0:0,0:0:0:0:
323,298,92977,6,0,L|336:204,1,67.5000025749208,8|0,0:0|0:0,0:0:0:0:
463,148,93153,6,0,L|453:224,1,45,8|0,0:0|0:0,0:0:0:0:
350,265,93329,6,0,L|352:242,1,22.5,8|0,0:0|0:0,0:0:0:0:
196,232,93506,6,0,P|122:214|99:181,1,90,2|0,3:2|0:0,0:0:0:0:
286,31,93859,2,0,P|343:5|426:26,1,135,6|0,0:0|0:0,0:0:0:0:
471,62,94212,1,8,0:0:0:0:
414,331,94388,5,0,0:0:0:0:
343,302,94477,2,0,P|328:260|337:216,1,90,2|0,0:0|0:0,0:0:0:0:
403,179,94741,1,2,0:0:0:0:
406,255,94829,1,2,0:0:0:0:
323,218,94918,6,0,P|256:234|223:246,1,90,2|0,0:0|3:0,0:0:0:0:
339,111,95182,2,0,P|406:95|439:83,1,90,2|0,0:0|0:0,0:0:0:0:
474,211,95447,1,2,0:0:0:0:
281,355,95624,6,0,P|239:342|195:333,1,90,10|0,0:0|3:0,0:0:0:0:
212,154,95888,2,0,P|222:198|236:241,1,90,2|0,0:0|0:0,0:0:0:0:
323,276,96153,1,2,0:0:0:0:
69,97,96329,6,0,P|128:91|177:56,1,90,2|0,3:2|0:0,0:0:0:0:
414,252,96682,2,0,P|368:195|299:185,1,135,6|0,0:0|0:0,0:0:0:0:
235,240,97035,1,8,0:0:0:0:
470,23,97212,5,0,0:0:0:0:
505,95,97300,2,0,P|490:137|456:165,1,90,2|0,0:0|0:0,0:0:0:0:
380,155,97565,1,2,0:0:0:0:
426,94,97653,1,2,0:0:0:0:
453,183,97741,6,0,P|461:230|469:310,1,90,2|0,0:0|3:0,0:0:0:0:
351,88,98006,2,0,P|345:43|337:-2,1,90,2|0,0:0|0:0,0:0:0:0:
294,198,98271,1,2,0:0:0:0:
303,273,98359,1,2,0:0:0:0:
315,348,98447,1,10,0:0:0:0:
163,233,98624,1,0,0:0:0:0:
166,250,98712,1,0,0:0:0:0:
169,267,98800,1,0,0:0:0:0:
25,137,98977,1,0,0:0:0:0:
197,16,99153,5,0,3:0:0:0:
127,98,99329,2,0,P|93:39|93:0,2,90,2|2|2,0:0|0:0|0:0,0:0:0:0:
350,105,99859,5,10,0:0:0:0:
430,230,100035,1,0,0:0:0:0:
423,33,100212,1,2,3:2:0:0:
336,307,100388,1,0,0:0:0:0:
421,148,100565,6,0,P|333:138|272:181,1,135,6|0,0:0|0:0,0:0:0:0:
286,178,100918,2,0,P|257:173|241:146,1,45,2|0,3:2|0:0,0:0:0:0:
294,28,101094,2,0,P|301:60|290:89,1,45,2|0,0:0|0:0,0:0:0:0:
128,210,101271,5,10,0:0:0:0:
53,116,101447,1,0,3:0:0:0:
46,332,101624,1,2,0:0:0:0:
164,61,101800,1,0,0:0:0:0:
67,253,101977,6,0,P|128:228|194:242,1,135,6|0,3:2|0:0,0:0:0:0:
201,258,102329,2,0,L|274:240,1,45,2|0,0:0|0:0,0:0:0:0:
262,131,102506,2,0,L|335:113,1,45,2|0,0:0|0:0,0:0:0:0:
348,334,102682,5,10,0:0:0:0:
118,158,102859,1,0,0:0:0:0:
394,158,103035,1,2,3:2:0:0:
164,334,103212,1,0,0:0:0:0:
432,233,103388,6,0,L|446:73,2,135,6|2|0,0:0|0:0|0:0,0:0:0:0:
354,288,104006,1,0,0:0:0:0:
354,288,104094,6,0,P|325:274|310:243,1,45,8|0,0:0|0:0,0:0:0:0:
253,54,104271,2,0,P|263:74|262:97,1,45,8|0,0:0|0:0,0:0:0:0:
188,311,104447,2,0,P|190:289|201:269,1,45,8|0,0:0|0:0,0:0:0:0:
123,157,104624,2,0,P|145:153|166:159,1,45,8|0,0:0|0:0,0:0:0:0:
388,155,104800,5,4,3:2:0:0:
3,102,105682,5,2,0:0:0:0:
69,161,105859,1,2,0:0:0:0:
86,74,106035,1,0,0:0:0:0:
6,284,106212,6,0,L|135:260,1,90,2|0,0:0|0:0,0:0:0:0:
174,49,106565,2,0,L|284:70,1,76.5000014591217,2|0,0:0|0:0,0:0:0:0:
259,238,106918,2,0,L|332:223,1,62.9999980773926,2|0,0:0|0:0,0:0:0:0:
365,86,107271,2,0,L|418:96,1,49.5000015106202,2|0,0:0|0:0,0:0:0:0:
467,156,107624,6,0,B|442:128|442:128|478:15,1,144,2|0,0:0|0:0,0:0:0:0:
508,234,108506,2,0,P|504:251|496:267,2,36,2|2|0,0:0|0:0|0:0,0:0:0:0:
285,194,109035,5,2,0:0:0:0:
323,267,109212,1,0,0:0:0:0:
367,197,109388,1,2,0:0:0:0:
255,334,109565,1,0,0:0:0:0:
383,184,109741,2,0,L|374:78,1,99.0000030212403,2|0,0:0|0:0,0:0:0:0:
491,321,110271,1,0,0:0:0:0:
491,321,110447,6,0,L|392:306,1,90,4|0,1:2|0:0,0:0:0:0:
211,236,110800,2,0,L|112:221,1,90,0|0,1:0|0:0,0:0:0:0:
158,374,111153,1,0,1:0:0:0:
158,374,111329,1,0,0:0:0:0:
298,346,111506,6,0,L|58:315,1,202.500007724762,4|0,1:2|0:0,0:0:0:0:
59,135,111859,6,0,L|158:150,1,90,4|0,1:2|0:0,0:0:0:0:
214,38,112212,1,0,1:0:0:0:
60,117,112388,1,0,0:0:0:0:
301,148,112565,2,0,L|400:163,1,90,0|0,1:0|0:0,0:0:0:0:
214,38,112918,6,0,L|454:69,1,202.500007724762,4|0,1:2|0:0,0:0:0:0:
426,65,113271,5,4,1:2:0:0:
343,132,113447,1,0,1:0:0:0:
435,170,113623,1,0,1:0:0:0:
261,203,113800,1,0,1:0:0:0:
460,291,113976,1,0,1:0:0:0:
460,291,114065,1,0,1:0:0:0:
460,291,114153,1,0,1:0:0:0:
460,291,114241,1,0,1:0:0:0:
460,291,114329,6,2,L|513:276,8,33.7500012874604,2|2|2|2|2|2|2|2|2,1:2|0:0|0:0|0:0|0:2|0:0|0:0|0:0|0:0,0:0:0:0:
100,342,115035,6,0,L|74:264,1,56.25,2|0,0:1|0:0,0:0:0:0:
49,198,115212,2,0,L|108:181,1,60.7500002317429,2|0,0:1|0:0,0:0:0:0:
190,355,115388,6,0,L|164:277,1,65.250001991272,2|0,0:1|0:0,0:0:0:0:
135,99,115565,2,0,L|202:79,1,69.7500005321503,2|0,0:1|0:0,0:0:0:0:
281,365,115741,6,0,L|255:287,1,74.2500007081032,2|0,0:1|0:0,0:0:0:0:
264,25,115918,2,0,L|340:3,1,78.7500007510185,2|0,0:1|0:0,0:0:0:0:
426,185,116094,6,0,P|239:138|224:98,1,202.500007724762,4|0,3:2|0:0,0:0:0:0:
512,157,116447,6,0,B|497:304,1,135.000005149842,2|0,0:0|0:0,0:0:0:0:
339,227,116800,2,0,B|323:379,1,135.000005149842,10|0,0:0|0:0,0:0:0:0:
407,5,117153,6,0,B|430:226,1,180,2|0,3:2|0:0,0:0:0:0:
108,167,117506,2,0,B|88:362,1,180,2|0,0:0|3:0,0:0:0:0:
26,0,117859,6,0,B|3:255,1,225,2|0,3:2|0:0,0:0:0:0:
198,153,118212,2,0,B|175:399,1,225,10|0,0:0|3:0,0:0:0:0:
410,18,118565,5,2,0:0:0:0:
430,213,118741,1,2,0:0:0:0:
485,122,118918,6,0,B|419:110|419:110|348:140,1,135.000005149842,4|0,3:2|0:0,0:0:0:0:
356,136,119447,1,0,0:0:0:0:
298,56,119624,5,10,0:0:0:0:
298,293,119800,1,2,0:0:0:0:
503,197,119977,1,2,3:2:0:0:
200,158,120153,1,2,0:0:0:0:
405,376,120329,2,0,L|419:302,1,67.5000025749208,2|0,0:0|3:0,0:0:0:0:
417,309,120594,1,0,0:0:0:0:
417,309,120682,6,0,L|321:324,1,56.25,2|0,3:1|0:0,0:0:0:0:
309,178,120859,2,0,L|285:268,1,60.7500002317429,2|0,0:1|0:0,0:0:0:0:
449,221,121035,6,0,L|344:236,1,65.250001991272,10|0,0:1|0:0,0:0:0:0:
217,90,121212,2,0,L|191:187,1,69.7500005321503,2|0,0:1|0:0,0:0:0:0:
475,126,121388,6,0,L|364:143,1,74.2500007081032,2|0,3:1|0:0,0:0:0:0:
116,13,121565,2,0,L|87:119,1,78.7500007510185,2|0,0:1|0:0,0:0:0:0:
180,280,121741,6,0,B|246:247|246:247|255:165|216:89,1,236.250002253056,4|0,3:2|0:0,0:0:0:0:
6,106,122094,6,0,P|61:174|112:180,1,135.000005149842,2|0,0:0|3:0,0:0:0:0:
315,16,122447,2,0,P|251:34|217:90,1,135.000005149842,10|0,0:0|0:0,0:0:0:0:
430,174,122800,6,0,P|464:112|417:-6,1,180,2|0,3:2|0:0,0:0:0:0:
103,180,123153,2,0,P|99:265|180:326,1,180,2|0,0:0|3:0,0:0:0:0:
238,10,123506,6,0,P|128:13|54:94,1,225,0|0,3:0|0:0,0:0:0:0:
408,300,123859,2,0,P|441:195|389:98,1,225,8|0,0:0|3:0,0:0:0:0:
173,140,124212,5,2,0:0:0:0:
509,71,124388,1,2,0:0:0:0:
320,41,124565,6,0,P|305:71|293:194,1,135.000005149842,4|0,3:2|0:0,0:0:0:0:
290,171,125094,1,0,0:0:0:0:
184,235,125271,5,8,0:0:0:0:
428,14,125447,1,0,0:0:0:0:
124,71,125624,1,0,3:0:0:0:
409,192,125800,1,0,0:0:0:0:
267,29,125977,2,0,L|280:124,1,67.5000025749208,2|0,0:0|3:0,0:0:0:0:
263,11,126329,5,0,3:0:0:0:
285,173,126506,1,0,0:0:0:0:
187,82,126682,6,0,L|165:122,1,33.7500012874604,8|0,0:0|0:0,0:0:0:0:
353,56,126859,2,0,L|383:85,1,33.7500012874604,2|0,1:2|0:0,0:0:0:0:
123,253,127035,6,0,L|184:235,1,62.9999980773926,2|0,1:2|0:0,0:0:0:0:
471,186,127212,2,0,L|409:192,1,62.9999980773926,2|0,1:2|0:0,0:0:0:0:
319,364,127388,6,0,L|311:319,14,45,6|0|0|0|2|0|0|0|2|0|0|0|2|0|0,3:2|0:0|0:0|0:0|0:0|0:0|0:0|0:0|0:0|0:0|0:0|0:0|0:0|0:0|0:0,0:0:0:0:
345,225,128094,6,0,B|369:293|369:293|222:269,1,202.500007724762,8|0,0:0|0:0,0:0:0:0:
122,308,128447,2,0,B|108:274|108:274|129:228,1,67.5000025749208,0|0,3:0|0:0,0:0:0:0:
246,105,128624,2,0,B|260:140|260:140|239:185,1,67.5000025749208,0|0,0:0|0:0,0:0:0:0:
48,188,128800,5,4,0:0:0:0:
354,97,128977,2,0,B|369:141|369:141|375:180|343:227,1,135.000005149842,0|0,3:0|3:0,0:0:0:0:
231,380,129329,1,4,0:0:0:0:
356,79,129506,2,0,L|221:89,1,135.000005149842,8|0,0:0|3:0,0:0:0:0:
394,327,129859,2,0,B|449:302|449:302|458:263|441:160,1,202.500007724762
379,340,130212,6,0,L|381:384,14,45,6|0|0|0|2|0|0|0|2|0|0|0|2|0|0,3:2|0:0|0:0|0:0|0:0|0:0|0:0|0:0|0:0|0:0|0:0|0:0|0:0|0:0|0:0,0:0:0:0:
333,193,130918,6,0,P|235:184|167:254,1,202.500007724762,8|0,0:0|0:0,0:0:0:0:
270,355,131271,2,0,P|261:322|241:295,1,67.5000025749208,0|0,3:0|0:0,0:0:0:0:
106,183,131447,2,0,P|85:209|77:242,1,67.5000025749208
95,341,131624,5,4,0:0:0:0:
197,44,131800,2,0,L|47:61,1,135.000005149842,0|0,3:0|3:0,0:0:0:0:
473,124,132153,1,4,0:0:0:0:
211,48,132329,2,0,B|180:99|180:99|175:122|194:172,1,135.000005149842,8|0,0:0|0:0,0:0:0:0:
395,374,132682,1,0,0:0:0:0:
410,374,133035,5,4,3:2:0:0:
304,231,133212,6,0,L|299:265,1,33.7500012874604,0|0,1:0|0:0,0:0:0:0:
385,199,133388,2,0,L|380:233,1,33.7500012874604,0|0,1:0|0:0,0:0:0:0:
467,170,133565,2,0,L|462:204,1,33.7500012874604,0|0,1:0|0:0,0:0:0:0:
207,185,133741,6,0,B|161:149|111:157|111:157|74:194|25:205,1,202.500007724762,8|0,0:0|0:0,0:0:0:0:
142,317,134094,2,0,B|125:290|125:290|137:240,1,67.5000025749208,0|0,3:0|0:0,0:0:0:0:
160,9,134271,2,0,L|178:97,1,67.5000025749208,0|0,0:0|0:0,0:0:0:0:
207,185,134447,5,4,0:0:0:0:
412,119,134624,2,0,B|370:94|370:94|285:105,1,135.000005149842,0|0,3:0|3:0,0:0:0:0:
254,358,134977,1,4,0:0:0:0:
420,135,135153,2,0,B|445:93|445:93|434:8,1,135.000005149842,8|0,0:0|3:0,0:0:0:0:
55,161,135506,2,0,B|43:225|41:298|41:298|89:341,1,202.500007724762,0|0,0:0|0:0,0:0:0:0:
102,339,135859,5,2,1:2:0:0:
115,336,135947,1,2,1:2:0:0:
128,333,136035,1,2,1:2:0:0:
159,87,136212,6,0,B|147:118|147:118|147:132|151:155,1,56.25,2|0,0:1|0:0,0:0:0:0:
116,223,136388,2,0,B|137:249|137:249|149:256|172:265,1,60.7500002317429,2|0,0:1|0:0,0:0:0:0:
392,156,136565,6,0,B|374:134|374:134|362:127|333:120,1,65.250001991272,10|0,0:1|0:0,0:0:0:0:
213,328,136741,2,0,B|246:323|246:323|258:316|286:289,1,69.7500005321503,2|0,0:1|0:0,0:0:0:0:
298,55,136918,6,0,B|265:60|265:60|253:67|229:89,1,74.2500007081032,2|0,3:1|0:0,0:0:0:0:
353,297,137094,2,0,B|365:266|365:266|365:251|361:218,1,78.7500007510185,2|0,3:1|0:0,0:0:0:0:
256,192,137271,6,0,B|213:194|178:206|178:206|149:176|149:176|117:188|54:191,1,202.500007724762,0|0,0:0|0:0,0:0:0:0:
46,190,137624,5,2,3:2:0:0:
119,268,137800,1,0,0:0:0:0:
216,19,137977,6,0,L|233:88,1,67.5000025749208,10|0,0:0|0:0,0:0:0:0:
256,192,138153,2,0,L|272:257,1,67.5000025749208,0|0,0:0|0:0,0:0:0:0:
373,363,138329,5,2,3:2:0:0:
428,303,138506,1,0,0:0:0:0:
349,284,138682,5,6,3:2:0:0:
456,140,149977,6,0,P|486:216|468:320,1,180,4|0,1:2|0:0,0:0:0:0:
278,234,150506,2,0,P|248:158|266:54,1,180,0|0,1:0|0:0,0:0:0:0:
314,327,151035,2,0,P|223:296|193:260,1,135,2|0,1:2|0:0,0:0:0:0:
198,268,151388,6,0,P|146:306|27:294,1,180,6|0,1:2|0:0,0:0:0:0:
71,86,151918,2,0,P|125:83|163:107,1,90,2|0,1:2|0:0,0:0:0:0:
369,277,152271,1,2,0:0:0:0:
118,224,152447,2,0,P|157:186|253:188,1,135,2|0,1:2|0:0,0:0:0:0:
235,180,152800,6,0,P|289:190|403:111,1,180,6|0,1:2|0:0,0:0:0:0:
298,330,153329,2,0,P|367:276|455:280,1,180,2|0,1:2|0:0,0:0:0:0:
210,333,153859,2,0,P|180:292|190:229,1,90,0|0,1:0|0:0,0:0:0:0:
348,19,154212,6,0,P|404:86|394:193,1,180,6|0,1:2|0:0,0:0:0:0:
99,226,154741,2,0,P|130:188|186:172,1,90,2|0,1:2|0:0,0:0:0:0:
347,271,155094,1,2,0:0:0:0:
147,82,155271,2,0,P|172:80|204:87,1,45,2|0,1:2|0:0,0:0:0:0:
256,141,155447,2,0,P|263:182|258:198,1,45,0|0,1:0|0:0,0:0:0:0:
182,261,155624,6,0,L|164:156,1,90,6|0,1:2|0:0,0:0:0:0:
352,171,155977,2,0,L|370:66,1,90,0|0,1:0|0:0,0:0:0:0:
66,144,156329,2,0,L|48:39,1,90,0|0,1:0|0:0,0:0:0:0:
446,100,156682,2,0,L|464:-5,1,90,0|0,1:0|0:0,0:0:0:0:
166,172,157035,6,0,L|135:349,1,180,6|0,1:2|1:1,0:0:0:0:
346,172,157565,2,0,L|366:291,1,90,2|0,0:0|1:0,0:0:0:0:
256,71,157918,1,2,0:0:0:0:
256,191,158094,2,0,L|256:289,1,90,2|0,1:2|0:0,0:0:0:0:
28,55,158447,5,6,1:2:0:0:
159,98,158624,1,0,1:0:0:0:
115,11,158800,1,0,1:0:0:0:
73,142,158977,1,0,1:0:0:0:
447,324,159153,5,2,1:2:0:0:
341,289,159330,1,0,1:0:0:0:
378,359,159506,1,0,1:0:0:0:
409,252,159683,1,0,1:0:0:0:
483,55,159859,5,6,1:2:0:0:
352,98,160036,1,0,1:0:0:0:
396,11,160212,1,0,1:0:0:0:
438,142,160389,1,0,1:0:0:0:
63,324,160565,5,2,1:2:0:0:
169,289,160742,1,0,1:0:0:0:
132,359,160918,1,0,1:0:0:0:
101,252,161095,1,0,1:0:0:0:
417,266,163035,6,0,B|406:301|361:337,1,56.25,2|0,0:1|0:0,0:0:0:0:
111,294,163212,2,0,B|85:268|76:233,1,60.7500002317429,2|0,0:1|0:0,0:0:0:0:
239,15,163388,2,0,B|274:5|304:17,1,65.250001991272,2|0,0:1|0:0,0:0:0:0:
272,368,163565,6,0,B|236:377|236:377|204:363,1,69.7500005321503,2|0,0:1|0:0,0:0:0:0:
95,117,163741,2,0,B|104:82|104:82|134:56,1,74.2500007081032,2|0,0:1|0:0,0:0:0:0:
400,88,163918,2,0,B|425:114|425:114|434:158,1,78.7500007510185,2|0,0:1|0:0,0:0:0:0:
244,245,164094,6,0,P|222:152|309:192,1,236.250002253056,4|0,3:2|0:0,0:0:0:0:
433,155,164447,6,0,B|464:305,1,135.000005149842,2|0,0:0|0:0,0:0:0:0:
366,253,164800,2,0,L|335:397,1,135.000005149842,10|0,0:0|0:0,0:0:0:0:
271,14,165153,6,0,L|313:212,1,180,2|0,3:2|0:0,0:0:0:0:
123,188,165506,2,0,B|167:389,1,180,2|0,0:0|3:0,0:0:0:0:
472,0,165859,6,0,B|408:287,1,225,2|0,3:2|0:0,0:0:0:0:
52,124,166212,2,0,B|-11:411,1,225,10|0,0:0|3:0,0:0:0:0:
379,379,166565,5,2,0:0:0:0:
128,281,166741,1,2,0:0:0:0:
331,141,166918,6,0,B|346:199|346:199|304:282,1,135.000005149842,4|0,3:2|0:0,0:0:0:0:
312,266,167447,1,0,0:0:0:0:
477,315,167624,5,10,0:0:0:0:
227,366,167800,1,2,0:0:0:0:
439,71,167977,1,2,3:2:0:0:
477,315,168153,1,2,0:0:0:0:
160,161,168329,6,0,P|178:102|195:73,1,67.5000025749208,2|0,0:0|3:0,0:0:0:0:
180,97,168594,1,0,0:0:0:0:
180,97,168682,6,0,P|215:123|234:144,1,56.25,2|0,3:1|0:0,0:0:0:0:
205,279,168859,2,0,P|210:236|223:204,1,60.7500002317429,2|0,0:1|0:0,0:0:0:0:
358,158,169035,2,0,P|318:174|278:177,1,65.250001991272,10|0,0:1|0:0,0:0:0:0:
66,190,169212,6,0,B|101:172|101:172|131:170,1,69.7500005321503,2|0,0:1|0:0,0:0:0:0:
317,17,169389,2,0,B|319:52|319:52|302:88,1,74.2500007081032,2|0,3:1|0:0,0:0:0:0:
342,320,169565,2,0,B|306:294|306:294|288:256,1,78.7500007510185,2|0,0:1|0:0,0:0:0:0:
75,74,169741,6,0,B|196:34|161:138|319:82,1,236.250002253056,4|0,3:2|0:0,0:0:0:0:
170,287,170094,6,0,P|124:217|142:150,1,135.000005149842,2|0,0:0|3:0,0:0:0:0:
355,4,170447,2,0,P|401:74|383:141,1,135.000005149842,10|0,0:0|0:0,0:0:0:0:
75,74,170800,6,0,P|141:71|249:173,1,180,2|0,3:2|0:0,0:0:0:0:
156,364,171153,2,0,P|67:360|0:304,1,180,2|0,0:2|3:0,0:0:0:0:
472,135,171506,6,0,P|460:271|364:343,1,225,2|0,3:2|0:0,0:0:0:0:
0,200,171859,2,0,P|12:64|108:-8,1,225,10|0,0:0|3:0,0:0:0:0:
392,220,172212,5,2,0:0:0:0:
113,174,172388,1,2,0:0:0:0:
268,129,172565,6,0,P|251:194|243:261,1,135.000005149842,4|0,3:2|0:0,0:0:0:0:
243,261,173094,1,0,0:0:0:0:
113,174,173271,1,8,0:0:0:0:
349,125,173447,1,0,0:0:0:0:
270,357,173624,1,0,3:0:0:0:
221,71,173800,1,0,0:0:0:0:
445,262,173977,6,0,P|437:212|431:187,1,67.5000025749208,2|0,0:0|3:0,0:0:0:0:
438,282,174329,1,0,3:0:0:0:
354,240,174506,1,0,0:0:0:0:
461,181,174682,6,0,P|443:180|427:184,1,33.7500012874604,8|0,0:0|0:0,0:0:0:0:
235,153,174859,2,0,P|255:154|279:148,1,33.7500012874604,2|0,1:2|0:0,0:0:0:0:
425,9,175035,6,0,P|397:31|381:54,1,62.9999980773926,2|0,1:2|0:0,0:0:0:0:
284,272,175212,2,0,P|309:253|327:226,1,62.9999980773926,2|0,1:2|0:0,0:0:0:0:
495,107,175388,6,0,P|491:82|484:63,14,45,6|0|0|0|2|0|0|0|2|0|0|0|2|0|0,3:2|0:0|0:0|0:0|0:0|0:0|0:0|0:0|0:0|0:0|0:0|0:0|0:0|0:0|0:0,0:0:0:0:
462,336,176094,6,0,B|482:189|482:189|408:231,1,202.500007724762,8|0,0:0|0:0,0:0:0:0:
384,304,176447,2,0,B|350:319|350:319|304:309,1,67.5000025749208,0|0,3:0|0:0,0:0:0:0:
157,183,176624,2,0,B|127:176|127:176|93:191,1,67.5000025749208,0|0,0:0|0:0,0:0:0:0:
98,380,176800,5,4,0:0:0:0:
341,230,176977,2,0,L|358:81,1,135.000005149842,0|0,3:0|3:0,0:0:0:0:
105,31,177329,1,4,0:0:0:0:
341,242,177506,2,0,B|401:258|401:258|437:255|469:235,1,135.000005149842,8|0,0:0|3:0,0:0:0:0:
93,27,177859,2,0,B|60:81|60:81|61:161|98:213,1,202.500007724762
74,24,178212,6,0,B|54:20|54:20|23:31,14,45,6|0|0|0|2|0|0|0|2|0|0|0|2|0|0,3:2|0:0|0:0|0:0|0:0|0:0|0:0|0:0|0:0|0:0|0:0|0:0|0:0|0:0|0:0,0:0:0:0:
229,140,178918,6,0,P|262:84|169:96,1,202.500007724762,8|0,0:0|0:0,0:0:0:0:
81,168,179271,2,0,P|115:177|170:166,1,67.5000025749208,0|0,3:0|0:0,0:0:0:0:
345,73,179447,2,0,P|335:39|298:-3,1,67.5000025749208,0|0,0:0|0:0,0:0:0:0:
74,24,179624,5,4,0:0:0:0:
408,153,179800,2,0,B|444:125|444:125|454:79|436:33,1,135.000005149842,0|0,3:0|3:0,0:0:0:0:
60,306,180153,1,4,0:0:0:0:
407,168,180329,2,0,L|428:307,1,135.000005149842,8|0,0:0|0:0,0:0:0:0:
21,163,180682,1,0,0:0:0:0:
5,162,181035,5,4,3:2:0:0:
300,98,181212,1,0,1:0:0:0:
273,69,181301,1,0,1:0:0:0:
237,50,181389,1,0,1:0:0:0:
195,51,181477,1,0,1:0:0:0:
155,64,181565,1,0,1:0:0:0:
274,222,181741,6,0,B|260:182|260:182|212:154|212:154|154:160|154:160|124:195,1,202.500007724762,8|0,0:0|0:0,0:0:0:0:
174,321,182094,2,0,L|190:250,1,67.5000025749208,0|0,3:0|0:0,0:0:0:0:
46,175,182271,2,0,B|36:207|36:207|70:256,1,67.5000025749208
334,309,182447,5,4,0:0:0:0:
155,64,182624,2,0,L|10:85,1,135.000005149842,0|0,3:0|3:0,0:0:0:0:
443,230,182977,1,4,0:0:0:0:
166,73,183153,2,0,B|135:117|134:141|134:141|159:206,1,135.000005149842,8|0,0:0|3:0,0:0:0:0:
451,103,183506,2,0,L|250:130,1,202.500007724762,0|0,0:0|0:0,0:0:0:0:
252,144,183859,5,2,1:2:0:0:
254,157,183947,1,2,1:2:0:0:
256,170,184035,1,2,1:2:0:0:
95,266,184212,6,0,B|130:255|166:210,1,56.25,2|0,0:1|0:0,0:0:0:0:
401,294,184389,2,0,B|375:268|340:259,1,60.7500002317429,2|0,0:1|0:0,0:0:0:0:
273,15,184565,2,0,B|263:50|275:80,1,65.250001991272,10|0,0:1|0:0,0:0:0:0:
240,368,184742,6,0,B|276:377|276:377|308:363,1,69.7500005321503,2|0,0:1|0:0,0:0:0:0:
417,117,184918,2,0,B|408:82|408:82|378:56,1,74.2500007081032,2|0,3:1|0:0,0:0:0:0:
112,88,185095,2,0,B|87:114|87:114|78:158,1,78.7500007510185,2|0,3:1|0:0,0:0:0:0:
268,244,185271,6,0,P|290:152|203:190,1,236.250002253056,0|0,0:0|0:0,0:0:0:0:
132,281,185624,5,2,0:0:0:0:
380,281,185977,1,2,0:0:0:0:
89,366,186329,1,2,0:0:0:0:
423,366,186682,1,2,0:0:0:0:
