osu file format v14

[General]
AudioFilename: audio.mp3
AudioLeadIn: 0
PreviewTime: 53977
Countdown: 0
SampleSet: Soft
StackLeniency: 0.7
Mode: 2
LetterboxInBreaks: 0
WidescreenStoryboard: 1

[Editor]
Bookmarks: 11624,17447,22918,28565,34212,45506,56800,68094,79388,93418,93506,99153,104800,110447,116094,127388,138682,149977,158447,164094,175035,175388
DistanceSpacing: 1.7
BeatDivisor: 4
GridSize: 16
TimelineZoom: 3.799999

[Metadata]
Title:POP/STARS (ft. Madison Beer, (G)I-DLE, Jaira Burns)
TitleUnicode:POP/STARS (ft. Madison Beer, (G)I-DLE, Jaira Burns)
Artist:K/DA
ArtistUnicode:K/DA
Creator:Nanachii
Version:Rain
Source:League of Legends
Tags:kpop popstar popstars kda ahri evelynn kaisa kai'sa akali riot games worlds 2018 miyeon soyeon (여자)아이들 gidle g_idle daletto ajamez crowley
BeatmapID:1882148
BeatmapSetID:901363

[Difficulty]
HPDrainRate:6
CircleSize:4
OverallDifficulty:9
ApproachRate:9
SliderMultiplier:1.8
SliderTickRate:1

[Events]
//Background and Video events
0,0,"we popstarz.jpg",0,0
//Break Periods
2,79587,81612
2,141706,149377
//Storyboard Layer 0 (Background)
//Storyboard Layer 1 (Fail)
//Storyboard Layer 2 (Pass)
//Storyboard Layer 3 (Foreground)
//Storyboard Sound Samples

[TimingPoints]
330,352.941176470588,4,2,1,70,1,0
56800,-100,4,2,1,70,0,1
57153,-40,4,2,1,70,0,1
57859,-40,4,2,1,70,0,1
58565,-40,4,2,1,70,0,1
58918,-66.6666666666667,4,2,1,70,0,1
59624,-100,4,2,1,70,0,1
62800,-40,4,2,1,70,0,1
63506,-40,4,2,1,70,0,1
64212,-40,4,2,1,70,0,1
64565,-66.6666666666667,4,2,1,70,0,1
64918,-100,4,2,1,70,0,1
69506,-33.3333333333333,4,2,1,70,0,1
69606,-28.5714285714286,4,2,1,70,0,1
70212,-100,4,2,1,70,0,1
72329,-33.3333333333333,4,2,1,70,0,1
72859,-28.5714285714286,4,2,1,70,0,1
73212,-100,4,2,1,70,0,1
75153,-40,4,2,1,70,0,1
75682,-28.5714285714286,4,2,1,70,0,1
76035,-100,4,2,1,70,0,1
78077,-66.6666666666667,4,2,1,70,0,1
79388,-100,4,2,1,70,0,0
93506,-100,4,2,1,70,0,0
116094,-100,4,2,1,70,0,1
116447,-40,4,2,1,70,0,1
117153,-40,4,2,1,70,0,1
117859,-40,4,2,1,70,0,1
118212,-66.6666666666667,4,2,1,70,0,1
118918,-100,4,2,1,70,0,1
122094,-40,4,2,1,70,0,1
122800,-40,4,2,1,70,0,1
123506,-40,4,2,1,70,0,1
123859,-66.6666666666667,4,2,1,70,0,1
124212,-100,4,2,1,70,0,1
128094,-100,4,2,1,70,0,1
128800,-33.3333333333333,4,2,1,70,0,1
129329,-28.5714285714286,4,2,1,70,0,1
129506,-100,4,2,1,70,0,1
130918,-100,4,2,1,70,0,1
131624,-33.3333333333333,4,2,1,70,0,1
131977,-28.5714285714286,4,2,1,70,0,1
132329,-100,4,2,1,70,0,1
133212,-100,4,2,1,70,0,1
133741,-100,4,2,1,70,0,1
134447,-40,4,2,1,70,0,1
134977,-28.5714285714286,4,2,1,70,0,1
135153,-100,4,2,1,70,0,1
137271,-66.6666666666667,4,2,1,70,0,1
137624,-66.6666666666667,4,2,1,70,0,1
138682,-100,4,2,1,70,0,0
149977,-100,4,2,1,70,0,0
164094,-100,4,2,1,70,0,1
164447,-40,4,2,1,70,0,1
165153,-40,4,2,1,70,0,1
165859,-40,4,2,1,70,0,1
166212,-66.6666666666667,4,2,1,70,0,1
166565,-100,4,2,1,70,0,1
170094,-40,4,2,1,70,0,1
170800,-40,4,2,1,70,0,1
171506,-40,4,2,1,70,0,1
171859,-66.6666666666667,4,2,1,70,0,1
172212,-100,4,2,1,70,0,1
176800,-33.3333333333333,4,2,1,70,0,1
177329,-28.5714285714286,4,2,1,70,0,1
177682,-100,4,2,1,70,0,1
179624,-33.3333333333333,4,2,1,70,0,1
180153,-28.5714285714286,4,2,1,70,0,1
180506,-100,4,2,1,70,0,1
182447,-40,4,2,1,70,0,1
182977,-28.5714285714286,4,2,1,70,0,1
183153,-100,4,2,1,70,0,1
185271,-66.6666666666667,4,2,1,70,0,1
186682,-100,4,2,1,70,0,0

[Colours]
Combo1 : 47,52,147
Combo2 : 89,235,252
Combo3 : 209,36,160
Combo4 : 152,33,165

[HitObjects]
368,336,330,6,0,L|384:240,1,90
224,192,682,1,0,0:0:0:0:
145,162,858,1,0,0:0:0:0:
154,79,1034,1,0,0:0:0:0:
368,96,1212,2,0,L|480:96,2,90
208,112,1741,6,0,L|112:112,2,90
320,112,2271,1,0,0:0:0:0:
192,112,2447,2,0,L|96:112,2,90
304,112,2977,1,0,0:0:0:0:
192,112,3153,1,0,0:0:0:0:
336,128,3329,2,0,L|368:192,1,45
288,176,3506,2,0,L|272:240,1,45
336,224,3682,2,0,L|352:288,1,45
176,272,3859,6,0,L|80:272,2,90
288,272,4388,1,0,0:0:0:0:
160,272,4565,2,0,L|64:272,2,90
256,272,5094,1,0,0:0:0:0:
400,272,5271,2,0,P|416:208|336:160,1,135
288,144,5624,2,0,L|176:128,1,90
464,128,5977,6,0,L|480:32,1,90
336,32,6329,1,0,0:0:0:0:
464,80,6506,1,0,0:0:0:0:
304,80,6682,2,0,L|192:80,2,90
416,80,7212,1,0,0:0:0:0:
160,192,7388,6,0,P|128:304|128:304,1,90
272,272,7741,1,0,0:0:0:0:
144,272,7918,1,0,0:0:0:0:
400,272,8094,2,0,L|496:272,2,90
288,272,8624,5,0,0:0:0:0:
32,288,8800,6,0,L|64:192,1,90
208,192,9153,2,0,L|160:96,1,90
32,112,9506,2,0,L|240:80,1,180
288,96,10035,2,0,L|208:80,1,45
176,64,10212,5,0,0:0:0:0:
416,48,10388,1,0,0:0:0:0:
272,128,10565,1,0,0:0:0:0:
512,192,10741,1,0,0:0:0:0:
368,192,10918,1,0,0:0:0:0:
160,192,11271,6,0,L|64:192,1,90
288,320,11624,1,0,0:0:0:0:
400,240,11800,2,0,L|400:160,1,45
224,192,11977,5,0,0:0:0:0:
352,144,12153,1,0,0:0:0:0:
112,128,12329,2,0,L|32:80,1,90
176,80,12682,2,0,L|80:16,1,90
368,32,13035,5,0,0:0:0:0:
272,80,13212,1,0,0:0:0:0:
416,128,13388,2,0,L|448:224,1,90
208,240,13741,2,0,L|96:272,1,90
272,288,14094,1,0,0:0:0:0:
128,288,14271,1,0,0:0:0:0:
368,240,14447,6,0,L|464:160,1,90
288,160,14800,1,0,0:0:0:0:
416,144,14977,1,0,0:0:0:0:
160,128,15153,2,0,L|272:80,1,90
384,64,15506,2,0,L|288:48,1,90
32,32,15859,6,0,P|16:112|80:144,1,135
240,160,16212,2,0,L|384:192,1,135
192,208,16565,2,0,P|152:248|160:336,1,135
320,320,16918,2,0,P|384:272|384:176,1,180
256,176,17447,6,0,L|160:176,2,90
496,144,17977,2,0,L|368:144,1,90
272,144,18329,1,0,0:0:0:0:
400,80,18506,1,0,0:0:0:0:
160,80,18682,6,0,L|64:80,1,90
240,80,19035,2,0,L|288:176,1,90
32,176,19388,2,0,L|144:176,1,90
288,176,19741,1,0,0:0:0:0:
160,112,19918,1,0,0:0:0:0:
400,112,20094,6,0,L|480:16,1,90
256,32,20447,1,0,0:0:0:0:
208,32,20535,1,0,0:0:0:0:
208,80,20623,1,0,0:0:0:0:
448,112,20800,2,0,L|352:112,1,90
192,144,21153,2,0,L|176:240,1,90
416,304,21506,6,0,L|304:304,1,90
80,304,21859,2,0,L|48:224,1,45
128,240,22035,2,0,P|176:224|176:224,1,45
336,176,22212,1,0,0:0:0:0:
192,176,22388,5,0,0:0:0:0:
157,148,22476,1,0,0:0:0:0:
143,106,22564,1,0,0:0:0:0:
156,63,22652,1,0,0:0:0:0:
190,35,22740,1,0,0:0:0:0:
234,30,22829,1,0,0:0:0:0:
400,32,22918,6,0,L|528:32,1,90
384,32,23271,1,0,0:0:0:0:
144,80,23447,1,0,0:0:0:0:
400,80,23624,2,0,L|304:80,1,90
176,128,23977,6,0,L|160:224,1,90
416,272,24329,2,0,L|288:256,1,90
160,256,24682,2,0,L|224:352,1,90
368,320,25035,2,0,L|160:288,2,180
128,240,26094,6,0,L|96:112,1,90
352,96,26447,2,0,L|240:80,1,90
96,106,26800,2,0,L|64:202,1,90
240,224,27153,1,0,0:0:0:0:
112,176,27329,1,0,0:0:0:0:
272,128,27506,2,0,L|368:96,1,90
80,64,27859,5,0,0:0:0:0:
50,60,27903,1,0,0:0:0:0:
26,73,27947,1,0,0:0:0:0:
14,93,27991,1,0,0:0:0:0:
20,114,28035,1,0,0:0:0:0:
44,128,28079,1,0,0:0:0:0:
74,129,28123,1,0,0:0:0:0:
304,144,28212,5,0,0:0:0:0:
326,141,28256,1,0,0:0:0:0:
344,153,28300,1,0,0:0:0:0:
353,173,28344,1,0,0:0:0:0:
348,194,28388,1,0,0:0:0:0:
330,208,28432,1,0,0:0:0:0:
308,209,28476,1,0,0:0:0:0:
160,208,28565,6,0,P|64:208|64:208,1,90
320,208,28918,5,0,0:0:0:0:
192,160,29094,1,0,0:0:0:0:
432,128,29271,2,0,L|336:128,1,90
176,160,29624,2,0,L|272:160,1,90
16,208,29977,1,0,0:0:0:0:
256,288,30329,6,0,L|272:224,1,45
96,192,30506,2,0,L|112:128,1,45
288,144,30682,2,0,L|272:48,1,90
128,96,31035,1,0,0:0:0:0:
272,48,31212,1,0,0:0:0:0:
32,32,31388,5,0,0:0:0:0:
24,75,31476,1,0,0:0:0:0:
46,113,31564,1,0,0:0:0:0:
88,128,31652,1,0,0:0:0:0:
256,128,31741,2,0,L|352:128,1,90
112,192,32094,2,0,L|208:192,1,90
352,256,32447,5,0,0:0:0:0:
224,256,32624,1,0,0:0:0:0:
464,240,32800,6,0,L|480:144,1,90
224,128,33153,2,0,L|128:96,1,90
384,80,33506,5,0,0:0:0:0:
422,99,33594,1,0,0:0:0:0:
429,142,33682,1,0,0:0:0:0:
399,173,33770,1,0,0:0:0:0:
240,224,33859,5,0,0:0:0:0:
201,243,33947,1,0,0:0:0:0:
194,286,34035,1,0,0:0:0:0:
224,317,34123,1,0,0:0:0:0:
416,304,34212,5,0,0:0:0:0:
128,336,35094,6,0,P|32:336|32:336,2,90
272,272,35624,2,0,L|288:176,1,90
144,176,35977,2,0,L|128:80,1,90
288,64,36329,2,0,P|384:48|384:48,1,90
128,48,36682,2,0,L|32:32,1,90
304,16,37035,6,0,P|368:48|304:288,1,360
176,288,37918,2,0,L|80:288,2,90
320,272,38447,2,0,L|336:176,1,90
192,160,38800,2,0,L|176:64,1,90
416,64,39153,2,0,L|224:32,1,180
128,32,39682,1,0,0:0:0:0:
400,48,39859,6,0,P|416:128|208:256,1,360
64,256,40741,2,0,L|160:224,1,90
320,160,41094,1,0,0:0:0:0:
80,80,41271,2,0,L|272:64,2,180
384,80,42329,1,0,0:0:0:0:
160,112,42682,6,0,P|80:192|80:256,1,180
240,288,43212,1,0,0:0:0:0:
384,240,43388,2,0,L|400:144,1,90
240,128,43741,2,0,L|144:96,1,90
400,80,44094,2,0,L|496:48,1,90
320,32,44447,1,0,0:0:0:0:
448,16,44624,1,0,0:0:0:0:
208,32,44800,6,0,L|16:32,1,180
160,80,45329,1,0,0:0:0:0:
448,80,45506,6,0,P|465:168|400:224,1,180
160,224,46035,2,0,L|336:272,1,180
176,320,46565,2,0,P|112:256|112:256,1,90
368,224,46918,6,0,L|272:192,1,90
160,160,47271,1,0,0:0:0:0:
304,96,47447,1,0,0:0:0:0:
144,48,47624,2,0,L|48:32,1,90
304,96,47977,2,0,L|400:112,1,90
144,80,48329,6,0,P|112:160|192:192,1,180
432,272,48859,2,0,L|240:240,1,180
416,192,49388,2,0,L|432:96,1,90
272,80,49741,2,0,L|176:64,1,90
352,32,50094,1,0,0:0:0:0:
208,16,50271,1,0,0:0:0:0:
448,16,50447,6,0,L|480:112,1,90
304,128,50800,1,0,0:0:0:0:
260,137,50888,1,0,0:0:0:0:
216,147,50976,1,0,0:0:0:0:
172,157,51064,1,0,0:0:0:0:
352,208,51153,6,0,L|368:304,1,90
192,336,51506,2,0,L|288:336,1,90
128,288,51859,2,0,L|112:192,1,90
352,176,52212,2,0,L|256:144,1,90
32,96,52565,6,0,L|48:0,1,90
208,80,52918,2,0,L|112:64,1,90
368,144,53271,2,0,L|464:144,1,90
288,192,53624,2,0,L|384:192,1,90
128,128,53977,5,0,0:0:0:0:
272,208,54153,1,0,0:0:0:0:
128,256,54329,1,0,0:0:0:0:
272,320,54506,1,0,0:0:0:0:
128,320,54682,1,0,0:0:0:0:
384,288,54859,1,0,0:0:0:0:
112,224,55035,5,0,0:0:0:0:
93,212,55079,1,0,0:0:0:0:
80,193,55123,1,0,0:0:0:0:
76,171,55167,1,0,0:0:0:0:
82,149,55211,1,0,0:0:0:0:
95,132,55255,1,0,0:0:0:0:
115,121,55299,1,0,0:0:0:0:
137,119,55343,1,0,0:0:0:0:
158,127,55387,1,0,0:0:0:0:
352,336,55741,5,0,0:0:0:0:
392,325,55829,1,0,0:0:0:0:
393,283,55917,1,0,0:0:0:0:
352,271,56005,1,0,0:0:0:0:
192,272,56094,5,0,0:0:0:0:
151,261,56182,1,0,0:0:0:0:
150,219,56270,1,0,0:0:0:0:
191,207,56358,1,0,0:0:0:0:
368,208,56447,2,0,L|432:208,1,45
368,208,56624,2,0,L|320:208,1,45
176,208,56800,2,0,L|240:208,1,45
456,275,57153,6,0,L|80:255,1,337.5
112,211,57506,2,0,L|494:179,1,337.5
493,135,57859,2,0,L|116:120,1,337.5
89,84,58212,2,0,L|461:62,1,337.5
473,87,58565,2,0,L|95:115,1,337.5
80,160,58918,2,0,L|224:160,1,135.000005149842
368,160,59271,5,0,0:0:0:0:
256,224,59447,1,0,0:0:0:0:
400,288,59624,2,0,L|192:272,1,180
80,208,60153,1,0,0:0:0:0:
336,160,60329,6,0,L|240:144,1,90
384,64,60682,2,0,L|400:176,1,90
128,176,61035,2,0,L|256:192,1,90
464,192,61388,6,0,L|523:192,2,45
416,192,61653,1,0,0:0:0:0:
224,192,61741,1,0,0:0:0:0:
179,192,61829,1,0,0:0:0:0:
224,192,61917,1,0,0:0:0:0:
272,192,62006,1,0,0:0:0:0:
80,192,62094,6,0,L|32:192,2,45
128,192,62359,1,0,0:0:0:0:
288,192,62447,2,0,L|192:192,1,90
160,304,62800,6,0,L|512:304,1,337.5
448,256,63153,2,0,L|32:256,1,337.5
160,208,63506,2,0,L|528:208,1,337.5
432,160,63859,2,0,L|64:160,1,337.5
128,112,64212,2,0,L|480:112,1,337.5
416,64,64565,2,0,L|272:64,1,135.000005149842
128,112,64918,5,0,0:0:0:0:
256,176,65094,1,0,0:0:0:0:
112,240,65271,2,0,L|96:352,1,90
272,336,65624,5,0,0:0:0:0:
144,272,65800,1,0,0:0:0:0:
400,256,65977,1,0,0:0:0:0:
256,160,66153,1,0,0:0:0:0:
384,80,66329,1,0,0:0:0:0:
240,32,66506,1,0,0:0:0:0:
496,32,66682,6,0,L|368:16,1,90
240,48,67035,1,0,0:0:0:0:
352,32,67212,1,0,0:0:0:0:
96,64,67388,1,0,0:0:0:0:
66,95,67476,1,0,0:0:0:0:
72,138,67564,1,0,0:0:0:0:
110,159,67652,1,0,0:0:0:0:
304,144,67741,6,0,L|368:160,1,45
384,208,67918,2,0,L|368:288,1,45
176,336,68094,5,0,0:0:0:0:
153,331,68138,1,0,0:0:0:0:
133,322,68182,1,0,0:0:0:0:
116,308,68226,1,0,0:0:0:0:
102,290,68270,1,0,0:0:0:0:
96,272,68314,1,0,0:0:0:0:
90,250,68358,1,0,0:0:0:0:
93,228,68402,1,0,0:0:0:0:
105,207,68446,1,0,0:0:0:0:
124,188,68491,1,0,0:0:0:0:
151,172,68535,1,0,0:0:0:0:
185,160,68579,1,0,0:0:0:0:
220,154,68623,1,0,0:0:0:0:
259,153,68667,1,0,0:0:0:0:
297,157,68711,1,0,0:0:0:0:
96,96,68800,6,0,L|16:48,1,90
192,32,69153,1,0,0:0:0:0:
32,32,69329,1,0,0:0:0:0:
192,48,69506,2,0,L|480:48,1,270.000010299683
352,112,70035,2,0,L|32:112,1,315.000003004074
128,160,70388,1,0,0:0:0:0:
384,160,70565,6,0,P|384:208|304:256,1,135
128,320,70918,5,0,0:0:0:0:
105,315,70962,1,0,0:0:0:0:
85,306,71006,1,0,0:0:0:0:
68,292,71050,1,0,0:0:0:0:
54,274,71094,1,0,0:0:0:0:
48,256,71138,1,0,0:0:0:0:
42,234,71182,1,0,0:0:0:0:
45,212,71226,1,0,0:0:0:0:
57,191,71270,1,0,0:0:0:0:
76,172,71315,1,0,0:0:0:0:
103,156,71359,1,0,0:0:0:0:
137,144,71403,1,0,0:0:0:0:
172,138,71447,1,0,0:0:0:0:
211,137,71491,1,0,0:0:0:0:
249,141,71535,1,0,0:0:0:0:
416,96,71624,6,0,L|496:48,1,90
320,32,71977,1,0,0:0:0:0:
480,32,72153,1,0,0:0:0:0:
304,48,72329,6,0,L|32:48,1,270.000010299683
80,128,72859,2,0,L|400:128,1,315.000003004074
240,208,73212,1,0,0:0:0:0:
384,320,73388,2,0,L|416:224,1,90
112,224,73741,5,0,0:0:0:0:
368,224,73918,5,0,0:0:0:0:
383,182,74006,1,0,0:0:0:0:
372,139,74094,1,0,0:0:0:0:
337,112,74182,1,0,0:0:0:0:
293,110,74270,1,0,0:0:0:0:
144,112,74447,6,0,L|267:99,1,90
357,86,74800,2,0,L|454:73,1,90
352,176,75153,6,0,L|-16:176,1,337.5
96,240,75682,2,0,L|432:240,1,315.000003004074
288,160,76035,1,0,0:0:0:0:
144,160,76212,2,0,P|80:112|128:48,1,135
272,48,76565,5,0,0:0:0:0:
317,48,76653,1,0,0:0:0:0:
362,48,76741,1,0,0:0:0:0:
112,48,76918,6,0,L|64:48,1,45
128,96,77094,2,0,L|176:96,1,45
352,112,77271,6,0,L|432:112,1,45
336,160,77447,2,0,L|272:160,1,45
112,256,77624,1,0,0:0:0:0:
69,268,77712,1,0,0:0:0:0:
26,280,77800,1,0,0:0:0:0:
304,288,77977,5,0,0:0:0:0:
96,256,78329,2,0,L|368:208,3,270.000010299683
432,336,82212,5,0,0:0:0:0:
192,336,82565,2,0,L|368:288,1,180
96,256,83094,1,0,0:0:0:0:
240,192,83271,1,0,0:0:0:0:
80,128,83447,1,0,0:0:0:0:
336,112,83624,5,0,0:0:0:0:
224,64,83800,1,0,0:0:0:0:
80,48,83977,1,0,0:0:0:0:
208,16,84153,1,0,0:0:0:0:
464,16,84329,5,0,0:0:0:0:
336,80,84506,1,0,0:0:0:0:
464,160,84682,1,0,0:0:0:0:
400,240,84859,1,0,0:0:0:0:
144,240,85035,5,0,0:0:0:0:
384,240,85212,1,0,0:0:0:0:
296,218,85388,1,0,0:0:0:0:
432,160,85565,1,0,0:0:0:0:
442,116,85653,1,0,0:0:0:0:
240,112,85741,5,0,0:0:0:0:
336,48,85918,1,0,0:0:0:0:
176,64,86094,1,0,0:0:0:0:
80,16,86271,1,0,0:0:0:0:
336,96,86447,5,0,0:0:0:0:
96,128,86624,1,0,0:0:0:0:
48,240,86800,1,0,0:0:0:0:
208,192,86977,1,0,0:0:0:0:
48,256,87153,1,0,0:0:0:0:
160,304,87329,1,0,0:0:0:0:
416,288,87506,5,0,0:0:0:0:
448,176,87682,1,0,0:0:0:0:
304,112,87859,1,0,0:0:0:0:
64,176,88035,5,0,0:0:0:0:
96,176,88124,1,0,0:0:0:0:
144,176,88212,1,0,0:0:0:0:
176,176,88300,1,0,0:0:0:0:
128,224,88388,1,0,0:0:0:0:
83,218,88476,1,0,0:0:0:0:
272,176,88564,5,0,0:0:0:0:
176,96,88741,1,0,0:0:0:0:
416,80,88918,1,0,0:0:0:0:
432,16,89094,1,0,0:0:0:0:
272,16,89271,5,0,0:0:0:0:
416,16,89447,1,0,0:0:0:0:
416,80,89535,1,0,0:0:0:0:
357,75,89623,1,0,0:0:0:0:
192,176,89800,5,0,0:0:0:0:
144,176,89888,1,0,0:0:0:0:
192,176,89976,1,0,0:0:0:0:
320,240,90153,1,0,0:0:0:0:
64,240,90329,1,0,0:0:0:0:
64,336,90506,1,0,0:0:0:0:
192,336,90682,5,0,0:0:0:0:
432,256,90859,1,0,0:0:0:0:
496,256,90947,1,0,0:0:0:0:
432,256,91035,1,0,0:0:0:0:
368,256,91124,1,0,0:0:0:0:
304,256,91212,1,0,0:0:0:0:
368,256,91300,1,0,0:0:0:0:
192,208,91388,5,0,0:0:0:0:
147,208,91476,1,0,0:0:0:0:
320,128,91565,1,0,0:0:0:0:
368,112,91653,1,0,0:0:0:0:
208,96,91741,5,0,0:0:0:0:
112,160,91918,1,0,0:0:0:0:
352,256,92094,1,0,0:0:0:0:
224,304,92271,1,0,0:0:0:0:
336,352,92447,1,0,0:0:0:0:
192,352,92624,1,0,0:0:0:0:
448,352,92800,5,0,0:0:0:0:
480,260,92977,1,0,0:0:0:0:
216,245,93153,1,0,0:0:0:0:
113,165,93329,1,0,0:0:0:0:
365,130,93506,5,0,0:0:0:0:
454,64,93682,1,0,0:0:0:0:
160,35,93859,1,0,0:0:0:0:
272,34,94035,1,0,0:0:0:0:
25,56,94212,1,0,0:0:0:0:
34,157,94388,1,0,0:0:0:0:
136,213,94565,1,0,0:0:0:0:
402,224,94741,5,0,0:0:0:0:
357,215,94829,1,0,0:0:0:0:
177,204,94918,1,0,0:0:0:0:
146,74,95094,1,0,0:0:0:0:
374,57,95182,1,0,0:0:0:0:
351,210,95359,1,0,0:0:0:0:
240,208,95447,1,0,0:0:0:0:
420,212,95624,5,0,0:0:0:0:
450,307,95800,1,0,0:0:0:0:
204,326,95888,1,0,0:0:0:0:
180,200,96065,1,0,0:0:0:0:
388,173,96153,1,0,0:0:0:0:
250,139,96329,1,0,0:0:0:0:
192,64,96506,1,0,0:0:0:0:
443,32,96682,5,0,0:0:0:0:
332,31,96859,1,0,0:0:0:0:
65,32,97035,1,0,0:0:0:0:
208,80,97212,1,0,0:0:0:0:
128,128,97388,1,0,0:0:0:0:
272,176,97565,1,0,0:0:0:0:
284,219,97653,1,0,0:0:0:0:
108,236,97741,5,0,0:0:0:0:
71,335,97918,1,0,0:0:0:0:
241,335,98006,1,0,0:0:0:0:
313,266,98182,1,0,0:0:0:0:
256,264,98271,1,0,0:0:0:0:
195,261,98359,1,0,0:0:0:0:
371,167,98447,5,0,0:0:0:0:
208,176,98800,2,0,L|80:176,1,90
165,99,99153,5,0,0:0:0:0:
325,101,99329,2,0,L|427:104,2,90
75,117,99859,2,0,L|24:202,1,90
185,211,100212,2,0,L|296:215,1,90
34,274,100565,6,0,L|21:375,1,90
290,350,100918,2,0,L|159:335,1,90
451,296,101271,2,0,L|330:288,2,90
361,233,101800,1,0,0:0:0:0:
111,222,101977,6,0,L|55:131,1,90
224,112,102329,2,0,L|128:96,1,90
400,64,102682,2,0,L|288:48,1,90
160,32,103035,2,0,L|192:144,1,90
432,144,103388,6,0,L|272:160,2,135
384,96,104006,1,0,0:0:0:0:
208,96,104094,5,0,0:0:0:0:
165,102,104182,1,0,0:0:0:0:
144,140,104270,1,0,0:0:0:0:
161,180,104358,1,0,0:0:0:0:
336,192,104447,5,0,0:0:0:0:
378,198,104535,1,0,0:0:0:0:
399,236,104623,1,0,0:0:0:0:
382,276,104711,1,0,0:0:0:0:
176,272,104800,5,0,0:0:0:0:
384,336,105682,6,0,P|480:336|480:336,2,90
240,272,106212,2,0,L|208:176,1,90
352,176,106565,2,0,L|384:80,1,90
224,64,106917,2,0,P|128:64|128:64,1,90
384,48,107270,2,0,L|480:48,1,90
208,16,107623,6,0,P|144:48|208:288,1,360
336,32,108506,2,0,L|432:32,2,90
192,96,109035,2,0,L|224:192,1,90
352,208,109388,2,0,L|304:320,1,90
64,304,109741,2,0,L|256:336,1,180
368,336,110270,1,0,0:0:0:0:
112,352,110447,6,0,L|80:256,1,90
224,240,110800,2,0,L|320:224,1,90
32,160,111153,2,0,L|96:80,1,90
256,80,111506,2,0,L|160:80,1,90
432,80,111859,6,0,L|496:160,1,90
336,192,112212,1,0,0:0:0:0:
480,192,112388,1,0,0:0:0:0:
224,192,112565,6,0,L|96:160,1,90
304,112,112918,2,0,L|304:16,1,90
48,128,113271,5,0,0:0:0:0:
192,208,113447,1,0,0:0:0:0:
48,256,113623,1,0,0:0:0:0:
208,320,113800,1,0,0:0:0:0:
48,320,113976,1,0,0:0:0:0:
288,288,114153,1,0,0:0:0:0:
16,272,114329,5,0,0:0:0:0:
9,250,114373,1,0,0:0:0:0:
9,228,114417,1,0,0:0:0:0:
16,207,114461,1,0,0:0:0:0:
30,189,114505,1,0,0:0:0:0:
48,176,114549,1,0,0:0:0:0:
70,170,114593,1,0,0:0:0:0:
92,172,114637,1,0,0:0:0:0:
113,180,114681,1,0,0:0:0:0:
336,192,115035,6,0,L|416:192,1,45
336,192,115212,2,0,L|272:192,1,45
96,192,115388,6,0,L|16:192,1,45
96,192,115565,2,0,L|160:192,1,45
320,192,115741,5,0,0:0:0:0:
359,175,115829,1,0,0:0:0:0:
364,132,115917,1,0,0:0:0:0:
330,106,116005,1,0,0:0:0:0:
144,96,116094,1,0,0:0:0:0:
400,64,116447,6,0,L|32:64,1,337.5
64,128,116800,2,0,L|401:128,1,337.5
352,192,117153,2,0,L|14:192,1,337.5
64,256,117506,2,0,L|401:256,1,337.5
400,304,117859,2,0,L|62:304,1,337.5
112,352,118212,2,0,L|288:352,1,135.000005149842
400,288,118565,5,0,0:0:0:0:
256,224,118741,1,0,0:0:0:0:
432,144,118918,2,0,L|224:144,1,180
80,240,119447,1,0,0:0:0:0:
336,288,119623,6,0,L|352:192,1,90
208,160,119976,2,0,L|128:80,1,90
400,48,120329,2,0,L|528:32,1,90
240,32,120682,5,0,0:0:0:0:
223,72,120770,1,0,0:0:0:0:
240,112,120858,1,0,0:0:0:0:
281,128,120946,1,0,0:0:0:0:
112,160,121035,5,0,0:0:0:0:
82,192,121123,1,0,0:0:0:0:
87,235,121211,1,0,0:0:0:0:
122,261,121299,1,0,0:0:0:0:
288,256,121388,6,0,L|368:256,2,45
240,256,121653,1,0,0:0:0:0:
80,256,121741,1,0,0:0:0:0:
160,224,122094,6,0,L|592:224,1,337.5
448,176,122447,2,0,L|16:176,1,337.5
48,128,122800,2,0,L|480:128,1,337.5
352,80,123153,2,0,L|-80:80,1,337.5
64,48,123506,2,0,L|496:48,1,337.5
352,96,123859,2,0,L|160:96,1,135.000005149842
96,96,124212,5,0,0:0:0:0:
224,176,124388,1,0,0:0:0:0:
64,224,124565,2,0,L|48:336,1,90
208,320,124918,2,0,L|96:288,1,90
384,272,125271,6,0,L|272:240,1,90
144,208,125624,1,0,0:0:0:0:
288,112,125800,1,0,0:0:0:0:
32,48,125977,2,0,L|144:32,1,90
272,64,126329,1,0,0:0:0:0:
160,96,126506,1,0,0:0:0:0:
416,128,126682,5,0,0:0:0:0:
447,158,126770,1,0,0:0:0:0:
443,201,126858,1,0,0:0:0:0:
407,225,126946,1,0,0:0:0:0:
240,272,127035,5,0,0:0:0:0:
208,302,127123,1,0,0:0:0:0:
212,345,127211,1,0,0:0:0:0:
248,369,127299,1,0,0:0:0:0:
448,352,127388,5,0,0:0:0:0:
426,346,127432,1,0,0:0:0:0:
404,341,127476,1,0,0:0:0:0:
382,335,127520,1,0,0:0:0:0:
360,330,127564,1,0,0:0:0:0:
338,324,127608,1,0,0:0:0:0:
317,319,127652,1,0,0:0:0:0:
295,313,127696,1,0,0:0:0:0:
273,308,127740,1,0,0:0:0:0:
251,302,127785,1,0,0:0:0:0:
229,297,127829,1,0,0:0:0:0:
207,291,127873,1,0,0:0:0:0:
186,286,127917,1,0,0:0:0:0:
164,281,127961,1,0,0:0:0:0:
142,275,128005,1,0,0:0:0:0:
329,233,128094,6,0,L|441:217,1,90
304,160,128447,1,0,0:0:0:0:
432,112,128624,1,0,0:0:0:0:
192,112,128800,6,0,L|464:112,1,270.000010299683
400,128,129329,2,0,L|66:128,1,315.000003004074
160,176,129682,1,0,0:0:0:0:
320,192,129859,2,0,P|384:208|384:288,1,135
176,288,130212,5,0,0:0:0:0:
153,289,130256,1,0,0:0:0:0:
135,277,130300,1,0,0:0:0:0:
128,256,130344,1,0,0:0:0:0:
135,236,130388,1,0,0:0:0:0:
153,223,130432,1,0,0:0:0:0:
175,225,130476,1,0,0:0:0:0:
192,224,130521,1,0,0:0:0:0:
214,224,130565,1,0,0:0:0:0:
240,224,130609,5,0,0:0:0:0:
263,225,130653,1,0,0:0:0:0:
281,213,130697,1,0,0:0:0:0:
288,192,130741,1,0,0:0:0:0:
281,172,130785,1,0,0:0:0:0:
263,159,130829,1,0,0:0:0:0:
80,144,130918,6,0,L|16:64,1,90
176,80,131271,1,0,0:0:0:0:
64,32,131447,1,0,0:0:0:0:
240,32,131624,6,0,B|512:32,1,270
400,96,132153,2,0,B|48:96,1,315.000003004074
208,160,132506,1,0,0:0:0:0:
352,48,132682,2,0,L|304:160,1,90
80,144,133035,5,0,0:0:0:0:
336,144,133212,5,0,0:0:0:0:
351,186,133300,1,0,0:0:0:0:
340,229,133388,1,0,0:0:0:0:
305,256,133476,1,0,0:0:0:0:
261,258,133564,1,0,0:0:0:0:
112,208,133741,6,0,L|235:195,1,90
358,188,134094,2,0,L|455:175,1,90
400,272,134447,6,0,L|48:272,1,337.5
97,342,134976,2,0,L|432:336,1,225
289,262,135329,1,0,0:0:0:0:
145,262,135506,2,0,P|81:214|129:150,1,135
273,150,135859,5,0,0:0:0:0:
318,150,135947,1,0,0:0:0:0:
363,150,136035,1,0,0:0:0:0:
112,48,136212,6,0,L|64:48,1,45
128,96,136388,2,0,L|176:96,1,45
352,112,136565,6,0,L|432:112,1,45
336,160,136741,2,0,L|272:160,1,45
112,256,136918,1,0,0:0:0:0:
69,268,137006,1,0,0:0:0:0:
112,272,137094,1,0,0:0:0:0:
480,288,137271,5,0,0:0:0:0:
240,256,137624,2,0,L|528:208,3,270.000010299683
256,192,138859,12,0,141506,0:0:0:0:
336,304,149977,6,0,P|400:256|336:176,1,180
208,192,150506,2,0,L|416:144,1,180
224,96,151035,2,0,L|176:0,1,90
432,16,151388,6,0,P|448:80|336:128,1,180
208,160,151918,2,0,L|304:192,1,90
176,208,152271,1,0,0:0:0:0:
336,224,152447,2,0,L|368:320,1,90
80,320,152800,6,0,P|64:240|176:192,1,180
304,176,153329,2,0,L|112:112,1,180
288,96,153859,2,0,L|320:0,1,90
64,16,154212,6,0,P|48:96|160:128,1,180
288,144,154741,2,0,L|352:224,1,90
192,224,155094,2,0,L|320:240,1,90
384,256,155447,1,0,0:0:0:0:
128,320,155624,6,0,L|96:192,1,90
288,192,155977,2,0,L|256:64,1,90
80,144,156329,2,0,L|112:16,1,90
288,128,156682,2,0,L|320:0,1,90
64,32,157035,6,0,L|32:128,1,90
208,128,157388,2,0,L|96:112,1,90
288,128,157741,2,0,L|400:144,1,90
240,192,158094,2,0,L|352:208,1,90
80,240,158447,6,0,L|64:336,1,90
208,336,158800,1,0,0:0:0:0:
64,320,158977,1,0,0:0:0:0:
320,240,159153,6,0,L|336:336,1,90
192,336,159506,1,0,0:0:0:0:
336,320,159683,1,0,0:0:0:0:
64,272,159859,6,0,L|80:160,1,90
224,160,160212,1,0,0:0:0:0:
80,128,160388,1,0,0:0:0:0:
368,256,160565,6,0,L|352:144,1,90
208,144,160918,1,0,0:0:0:0:
352,112,161094,1,0,0:0:0:0:
160,336,163035,5,0,0:0:0:0:
120,325,163123,1,0,0:0:0:0:
119,283,163211,1,0,0:0:0:0:
160,271,163299,1,0,0:0:0:0:
320,272,163388,5,0,0:0:0:0:
361,261,163476,1,0,0:0:0:0:
362,219,163564,1,0,0:0:0:0:
321,207,163652,1,0,0:0:0:0:
144,208,163741,2,0,L|80:208,1,45
144,208,163918,2,0,L|192:208,1,45
336,208,164094,2,0,L|272:208,1,45
128,320,164447,6,0,L|544:320,1,337.5
400,256,164800,2,0,L|0:256,1,337.5
96,192,165153,2,0,L|464:192,1,337.5
384,144,165506,2,0,L|0:144,1,337.5
96,96,165859,2,0,L|464:96,1,337.5
384,32,166212,2,0,L|208:32,1,135.000005149842
96,32,166565,5,0,0:0:0:0:
240,96,166741,1,0,0:0:0:0:
80,160,166918,2,0,L|288:192,1,180
128,272,167447,1,0,0:0:0:0:
368,288,167624,2,0,L|256:240,1,90
416,192,167977,5,0,0:0:0:0:
256,128,168153,1,0,0:0:0:0:
496,64,168329,2,0,L|368:48,1,90
160,32,168682,5,0,0:0:0:0:
153,75,168770,1,0,0:0:0:0:
174,114,168858,1,0,0:0:0:0:
215,131,168946,1,0,0:0:0:0:
368,144,169035,6,0,L|432:144,2,45
304,144,169300,1,0,0:0:0:0:
144,144,169388,5,0,0:0:0:0:
143,188,169476,1,0,0:0:0:0:
163,227,169564,1,0,0:0:0:0:
201,252,169652,1,0,0:0:0:0:
384,256,169741,2,0,L|336:256,1,45
160,272,170094,6,0,L|528:272,1,337.5
432,224,170447,2,0,L|94:224,1,337.5
48,192,170800,2,0,L|385:192,1,337.5
432,144,171153,2,0,L|80:144,1,337.5
48,96,171506,2,0,L|416:96,1,337.5
432,48,171859,6,0,L|240:48,1,135.000005149842
144,48,172212,1,0,0:0:0:0:
320,128,172388,1,0,0:0:0:0:
160,128,172565,2,0,P|64:128|64:128,1,90
208,256,172918,2,0,L|240:160,1,90
496,272,173271,6,0,L|384:240,1,90
256,208,173624,1,0,0:0:0:0:
416,208,173800,1,0,0:0:0:0:
128,144,173977,2,0,L|240:144,1,90
368,144,174329,1,0,0:0:0:0:
240,96,174506,1,0,0:0:0:0:
496,96,174682,5,0,0:0:0:0:
503,139,174770,1,0,0:0:0:0:
481,177,174858,1,0,0:0:0:0:
439,192,174946,1,0,0:0:0:0:
256,208,175035,5,0,0:0:0:0:
211,212,175123,1,0,0:0:0:0:
166,216,175211,1,0,0:0:0:0:
211,212,175299,1,0,0:0:0:0:
400,272,175388,5,0,0:0:0:0:
423,273,175432,1,0,0:0:0:0:
441,261,175476,1,0,0:0:0:0:
448,240,175520,1,0,0:0:0:0:
441,220,175564,1,0,0:0:0:0:
423,207,175608,1,0,0:0:0:0:
401,209,175652,1,0,0:0:0:0:
384,208,175697,1,0,0:0:0:0:
362,208,175741,1,0,0:0:0:0:
336,208,175785,5,0,0:0:0:0:
313,209,175829,1,0,0:0:0:0:
295,197,175873,1,0,0:0:0:0:
288,176,175917,1,0,0:0:0:0:
295,156,175961,1,0,0:0:0:0:
313,143,176005,1,0,0:0:0:0:
480,112,176094,6,0,L|496:16,1,90
368,48,176447,2,0,L|496:32,1,90
272,32,176800,2,0,L|0:32,1,270.000010299683
128,96,177329,2,0,L|464:96,1,315.000003004074
320,160,177682,1,0,0:0:0:0:
160,160,177859,6,0,P|112:192|112:272,1,135
320,208,178212,5,0,0:0:0:0:
343,207,178256,1,0,0:0:0:0:
361,219,178300,1,0,0:0:0:0:
368,240,178344,1,0,0:0:0:0:
361,260,178388,1,0,0:0:0:0:
343,273,178432,1,0,0:0:0:0:
321,271,178476,1,0,0:0:0:0:
304,272,178521,1,0,0:0:0:0:
282,272,178565,1,0,0:0:0:0:
215,283,178697,1,0,0:0:0:0:
208,304,178741,1,0,0:0:0:0:
215,324,178785,1,0,0:0:0:0:
233,337,178829,1,0,0:0:0:0:
400,336,178918,6,0,L|496:336,1,90
352,240,179271,1,0,0:0:0:0:
464,240,179447,1,0,0:0:0:0:
288,288,179624,6,0,B|16:288,1,270
160,224,180153,2,0,B|512:224,1,315.000003004074
320,160,180506,1,0,0:0:0:0:
160,192,180682,2,0,L|208:80,1,90
448,112,181035,5,0,0:0:0:0:
208,112,181212,2,0,L|128:112,1,45
208,112,181388,2,0,L|288:112,1,45
208,112,181565,1,0,0:0:0:0:
368,192,181741,6,0,L|245:179,1,90
122,172,182094,2,0,L|224:160,1,90
384,256,182447,6,0,L|-16:256,1,337.5
31,314,182977,2,0,L|382:320,1,315.000003004074
256,240,183329,1,0,0:0:0:0:
112,240,183506,2,0,P|48:192|96:128,1,135
240,128,183859,5,0,0:0:0:0:
285,128,183947,1,0,0:0:0:0:
240,128,184035,1,0,0:0:0:0:
80,64,184212,6,0,L|32:64,1,45
96,112,184388,2,0,L|144:112,1,45
320,128,184565,6,0,L|400:128,1,45
304,176,184741,2,0,L|240:176,1,45
80,272,184918,1,0,0:0:0:0:
37,284,185006,1,0,0:0:0:0:
80,288,185094,1,0,0:0:0:0:
448,304,185271,5,0,0:0:0:0:
112,240,185624,2,0,L|400:192,3,270.000010299683
