osu file format v14

[General]
AudioFilename: audio.mp3
AudioLeadIn: 0
PreviewTime: 54028
Countdown: 0
SampleSet: Soft
StackLeniency: 0.4
Mode: 0
LetterboxInBreaks: 0
WidescreenStoryboard: 0

[Editor]
Bookmarks: 11675,34263,45557,55792,79439,104851,114733,138733,138822,138910,138998,139086,139175,139263,139351,139439,139528,139616,139704,139792,139880,139969,140057,140145,140233,140322,140410,140498,140586,140675,140763,140851,140939,141028,141116,141204,141292,141380,141469,141557,141645,141733,141822,141910,141998,142086,142175,142263,142351,142439,142528,142616,142704,142792,142880,142969,143057,143145,143233,143322,143410,143498,143586,143675,143763,143851,143939,144028,144116,144204,144292,144380,144469,144557,144645,144733,144822,144910,144998,145086,145175,145263,145351,145439,145528,145616,145704,145792,145880,145969,146057,146145,146233,146322,146410,146498,146586,146675,146763,146851,146939,147028,147116,147204,147292,147380,147469,147557,147645,147733,147822,147910,147998,148086,148175,148263,148351,148439,148528,148616,148704,148792,148880,148969,149057,149145,149233,149322,149410,149498,149586,149675,149763,149851,149939,150028,161322,164145,186733
DistanceSpacing: 1.7
BeatDivisor: 4
GridSize: 32
TimelineZoom: 1.3

[Metadata]
Title:POP/STARS (ft. Madison Beer, (G)I-DLE, Jaira Burns)
TitleUnicode:POP/STARS (ft. Madison Beer, (G)I-DLE, Jaira Burns)
Artist:K/DA
ArtistUnicode:K/DA
Creator:Laurakko
Version:EX/TRA
Source:League of Legends
Tags:kda popstars riot games lol ahri akali evelynn kai'sa (여자)아이들 miyeon 미연 soyeon 소연 kpop k-pop
BeatmapID:1831162
BeatmapSetID:876153

[Difficulty]
HPDrainRate:5
CircleSize:4
OverallDifficulty:8.5
ApproachRate:9.3
SliderMultiplier:1.8
SliderTickRate:1

[Events]
//Background and Video events
0,0,"KDA-POPSTARS-Cinematic-KDA-Akali-ft-Madison-Beer-GI-DLE-Jaira-Burns-2-HD-Wallpaper-Background-Official-Art-Artwork-League-of-Legends-lol.jpg",0,0
//Break Periods
2,138933,149474
//Storyboard Layer 0 (Background)
//Storyboard Layer 1 (Fail)
//Storyboard Layer 2 (Pass)
//Storyboard Layer 3 (Foreground)
//Storyboard Sound Samples

[TimingPoints]
381,352.941176470588,4,2,0,100,1,0
733,-100,4,2,0,100,0,0
6028,-100,4,2,0,100,0,0
8145,-50,4,2,0,100,0,0
9557,-100,4,2,0,100,0,0
10263,-33.3333333333333,4,2,0,100,0,0
10969,-200,4,2,0,100,0,0
11675,-100,4,2,0,100,0,0
12380,-50,4,2,0,100,0,0
13439,-100,4,2,0,100,0,0
13792,-50,4,2,0,100,0,0
13969,-100,4,2,0,100,0,0
14498,-50,4,2,0,100,0,0
14851,-100,4,2,0,100,0,0
15910,-50,4,2,0,100,0,0
16616,-100,4,2,0,100,0,0
16969,-200,4,2,0,100,0,0
17322,-100,4,2,0,100,0,0
18028,-50,4,2,0,100,0,0
18733,-100,4,2,0,100,0,0
19086,-50,4,2,0,100,0,0
19616,-100,4,2,0,100,0,0
20145,-50,4,2,0,100,0,0
20851,-33.3333333333333,4,2,0,100,0,0
21557,-50,4,2,0,100,0,0
22263,-100,4,2,0,100,0,0
22616,-200,4,2,0,100,0,0
23675,-50,4,2,0,100,0,0
24028,-100,4,2,0,100,0,0
25086,-50,4,2,0,100,0,0
25263,-100,4,2,0,100,0,0
26498,-50,4,2,0,100,0,0
27910,-50,4,2,0,100,0,0
28616,-100,4,2,0,100,0,0
29322,-50,4,2,0,100,0,0
29675,-100,4,2,0,100,0,0
30028,-50,4,2,0,100,0,0
30733,-50,4,2,0,100,0,0
30910,-100,4,2,0,100,0,0
33204,-50,4,2,0,100,0,0
33557,-33.3333333333333,4,2,0,100,0,0
33910,-25,4,2,0,100,0,0
34263,-100,4,2,0,100,0,0
37969,-100,4,2,0,100,0,0
55792,-50,4,2,0,100,0,0
56145,-33.3333333333333,4,2,0,100,0,0
56498,-50,4,2,0,100,0,0
56851,-50,4,2,0,100,0,0
61086,-66.6666666666667,4,2,0,100,0,0
62498,-66.6666666666667,4,2,0,100,0,0
63204,-50,4,2,0,100,0,0
64616,-36.3636363636364,4,2,0,100,0,0
65322,-50,4,2,0,100,0,0
67086,-100,4,2,0,100,0,0
67439,-33.3333333333333,4,2,0,100,0,0
67792,-50,4,2,0,100,0,0
68145,-66.6666666666667,4,2,0,100,0,0
68851,-33.3333333333333,4,2,0,100,0,0
69204,-66.6666666666667,4,2,0,100,0,0
70616,-50,4,2,0,100,0,0
70969,-66.6666666666667,4,2,0,100,0,0
71675,-50,4,2,0,100,0,0
72028,-66.6666666666667,4,2,0,100,0,0
74498,-50,4,2,0,100,0,0
75204,-66.6666666666667,4,2,0,100,0,0
75910,-50,4,2,0,100,0,0
76969,-50,4,2,0,100,0,0
79439,-100,4,2,0,100,0,0
79969,-66.6666666666667,4,2,0,100,0,0
80498,-100,4,2,0,100,0,0
81028,-66.6666666666667,4,2,0,100,0,0
82263,-133.333333333333,4,2,0,100,0,0
93910,-66.6666666666667,4,2,0,100,0,0
94263,-50,4,2,0,100,0,0
94616,-66.6666666666667,4,2,0,100,0,0
95675,-133.333333333333,4,2,0,100,0,0
96733,-100,4,2,0,100,0,0
97086,-50,4,2,0,100,0,0
97616,-66.6666666666667,4,2,0,100,0,0
99380,-133.333333333333,4,2,0,100,0,0
99910,-66.6666666666667,4,2,0,100,0,0
101322,-40,4,2,0,100,0,0
102028,-66.6666666666667,4,2,0,100,0,0
102733,-40,4,2,0,100,0,0
103439,-100,4,2,0,100,0,0
103792,-50,4,2,0,100,0,0
104145,-33.3333333333333,4,2,0,100,0,0
104498,-25,4,2,0,100,0,0
104851,-100,4,2,0,100,0,0
105733,-100,4,2,0,100,0,0
107675,-100,4,2,0,100,0,0
108557,-100,4,2,0,100,0,0
115086,-50,4,2,0,100,0,0
115439,-33.3333333333333,4,2,0,100,0,0
115792,-50,4,2,0,100,0,0
120380,-66.6666666666667,4,2,0,100,0,0
122498,-50,4,2,0,100,0,0
123910,-36.3636363636364,4,2,0,100,0,0
124616,-50,4,2,0,100,0,0
126380,-100,4,2,0,100,0,0
126733,-33.3333333333333,4,2,0,100,0,0
127086,-50,4,2,0,100,0,0
127439,-66.6666666666667,4,2,0,100,0,0
128145,-33.3333333333333,4,2,0,100,0,0
128498,-66.6666666666667,4,2,0,100,0,0
129910,-50,4,2,0,100,0,0
130263,-66.6666666666667,4,2,0,100,0,0
130969,-50,4,2,0,100,0,0
131322,-66.6666666666667,4,2,0,100,0,0
133792,-50,4,2,0,100,0,0
134498,-66.6666666666667,4,2,0,100,0,0
135204,-50,4,2,0,100,0,0
150028,-100,4,2,0,100,0,0
161675,-50,4,2,0,100,0,0
161851,-66.6666666666667,4,2,0,100,0,0
162028,-100,4,2,0,100,0,0
162204,-133.333333333333,4,2,0,100,0,0
162380,-200,4,2,0,100,0,0
162557,-400,4,2,0,100,0,0
162733,-1000,4,2,0,100,0,0
163086,-50,4,2,0,100,0,0
163439,-33.3333333333333,4,2,0,100,0,0
163792,-50,4,2,0,100,0,0
164145,-50,4,2,0,100,0,0
168380,-66.6666666666667,4,2,0,100,0,0
169792,-66.6666666666667,4,2,0,100,0,0
170498,-50,4,2,0,100,0,0
171910,-36.3636363636364,4,2,0,100,0,0
172616,-50,4,2,0,100,0,0
174380,-100,4,2,0,100,0,0
174733,-33.3333333333333,4,2,0,100,0,0
175086,-50,4,2,0,100,0,0
175439,-66.6666666666667,4,2,0,100,0,0
176145,-33.3333333333333,4,2,0,100,0,0
176498,-66.6666666666667,4,2,0,100,0,0
177910,-50,4,2,0,100,0,0
178263,-66.6666666666667,4,2,0,100,0,0
178969,-50,4,2,0,100,0,0
179322,-66.6666666666667,4,2,0,100,0,0
181792,-50,4,2,0,100,0,0
182145,-50,4,2,0,100,0,0
182498,-66.6666666666667,4,2,0,100,0,0
183204,-50,4,2,0,100,0,0
184263,-50,4,2,0,100,0,0

[HitObjects]
83,79,733,6,0,L|87:123,1,45
287,174,1263,2,0,L|245:155,1,45
103,303,1792,2,0,L|139:276,1,45
323,147,3380,6,0,L|286:173,1,45
139,276,3557,2,0,L|134:231,1,45
119,52,3733,2,0,L|160:70,1,45
417,188,3910,2,0,L|380:214,1,45
509,224,4439,6,0,L|472:250,1,45
313,33,6028,5,0,0:0:0:0:
450,109,6204,1,0,0:0:0:0:
371,120,6292,1,0,0:0:0:0:
292,131,6380,2,0,L|184:143,1,90
44,164,6733,5,0,0:0:0:0:
123,152,6821,1,0,0:0:0:0:
202,141,6910,1,0,0:0:0:0:
417,202,7086,1,0,0:0:0:0:
337,214,7174,1,0,0:0:0:0:
259,224,7263,1,0,0:0:0:0:
148,334,7439,5,0,0:0:0:0:
10,257,7615,1,0,0:0:0:0:
90,246,7703,1,0,0:0:0:0:
169,235,7791,2,0,L|276:222,1,90
450,109,8145,5,0,0:0:0:0:
371,121,8233,1,0,0:0:0:0:
292,132,8322,1,0,0:0:0:0:
212,143,8410,1,0,0:0:0:0:
133,154,8498,2,0,L|34:165,1,90
143,62,8675,5,0,0:0:0:0:
259,383,8851,1,0,0:0:0:0:
353,54,9028,1,0,0:0:0:0:
84,264,9204,1,0,0:0:0:0:
426,253,9380,1,0,0:0:0:0:
169,235,9557,6,0,B|262:224|262:224|360:236,1,180
261,39,10263,6,0,P|323:80|336:177,1,135.000005149842
237,349,10439,2,0,P|298:324|332:267,1,135.000005149842
261,39,10616,2,0,P|199:63|165:120,1,135.000005149842
237,349,10792,2,0,P|180:314|155:253,1,135.000005149842
389,203,10969,6,0,L|334:198,1,45
113,184,11322,2,0,L|167:188,1,45
45,289,11675,5,0,0:0:0:0:
177,69,11851,2,0,L|182:1,1,45
113,184,12028,2,0,L|118:116,1,45
159,306,12204,2,0,L|164:238,1,45
264,39,12380,2,0,B|259:87|259:87|256:88|256:88|258:92|258:92|254:129|254:129|266:148|266:148|254:247|254:247|211:130,1,270
75,62,12733,5,0,0:0:0:0:
235,195,12910,1,0,0:0:0:0:
113,184,13086,1,0,0:0:0:0:
346,222,13263,1,0,0:0:0:0:
451,218,13439,5,0,0:0:0:0:
162,261,13616,1,0,0:0:0:0:
354,133,13792,2,0,L|344:245,1,90
336,339,13969,6,0,L|425:331,1,90
262,276,14322,1,0,0:0:0:0:
158,175,14498,2,0,P|62:221|161:260,1,270
395,193,14851,6,0,L|463:198,1,45
280,129,15028,2,0,L|348:134,1,45
158,175,15204,2,0,L|226:180,1,45
76,77,15380,1,0,0:0:0:0:
286,46,15557,2,0,P|232:55|204:82,1,90
231,330,15910,6,0,B|190:271|251:208|308:222|308:222|388:243|387:172|454:150,1,270
453,136,16263,2,0,P|436:30|369:113,1,270
446,283,16616,2,0,P|411:320|315:305,1,135
194,233,16969,2,0,P|243:207|267:208,1,67.5
299,218,17322,5,0,0:0:0:0:
331,318,17498,2,0,L|326:386,1,45
385,198,17675,2,0,L|397:264,1,45
394,66,17851,2,0,L|423:127,1,45
232,74,18028,2,0,B|251:83|263:99|263:99|201:175|125:122|125:122|81:113|3:154,1,270
47,278,18380,5,0,0:0:0:0:
123,121,18557,1,0,0:0:0:0:
343,315,18733,2,0,L|241:323,1,90
458,307,19086,5,0,0:0:0:0:
416,106,19263,1,0,0:0:0:0:
260,214,19439,2,0,L|170:206,1,90
39,188,19616,6,0,L|47:289,1,90
180,333,19969,1,0,0:0:0:0:
124,109,20145,5,0,0:0:0:0:
310,162,20322,1,0,0:0:0:0:
277,182,20410,1,0,0:0:0:0:
260,214,20498,1,0,0:0:0:0:
344,331,20675,1,0,0:0:0:0:
442,159,20851,2,0,B|420:169|420:169|227:156,1,135.000005149842
155,144,21028,1,0,0:0:0:0:
250,251,21204,1,0,0:0:0:0:
271,29,21380,1,0,0:0:0:0:
155,144,21557,6,0,B|202:148|181:228|181:228|173:252|176:333|264:336|289:305,1,270
365,283,21910,2,0,P|448:350|342:366,1,270
80,113,22263,2,0,P|115:76|211:91,1,135
332,163,22616,2,0,P|283:189|259:188,1,67.5
194,78,22969,5,0,0:0:0:0:
147,283,23145,2,0,L|153:246,1,22.5
44,190,23322,2,0,L|21:192,1,22.5
332,163,23498,2,0,L|295:165,1,22.5
147,283,23675,2,0,B|98:306|98:306|222:327,1,180
461,369,24028,2,0,P|416:374|371:354,1,90
287,226,24380,5,0,0:0:0:0:
427,293,24557,1,0,0:0:0:0:
490,176,24733,1,0,0:0:0:0:
305,314,24910,1,0,0:0:0:0:
290,143,25086,6,0,P|362:192|368:216,1,90
461,369,25263,6,0,P|405:374|355:341,1,90
205,180,25616,1,0,0:0:0:0:
427,293,25792,5,0,0:0:0:0:
309,307,25969,2,0,L|357:302,1,45
193,320,26145,2,0,L|241:315,1,45
81,333,26322,2,0,L|129:328,1,45
258,379,26498,2,0,P|302:308|242:251,1,180
2,250,26851,1,0,0:0:0:0:
193,320,27028,1,0,0:0:0:0:
164,109,27204,5,0,0:0:0:0:
62,362,27380,1,0,0:0:0:0:
215,173,27557,1,0,0:0:0:0:
1,144,27733,1,0,0:0:0:0:
234,252,27910,6,0,L|278:256,6,45
80,268,28263,2,0,L|35:263,6,45
215,173,28616,5,0,0:0:0:0:
165,277,28792,2,0,L|170:345,1,45
111,157,28969,2,0,L|99:223,1,45
165,42,29145,2,0,L|194:103,1,45
215,173,29322,6,0,B|256:229|309:231|309:231|403:233|374:123|310:144,1,270
41,82,29675,6,0,L|122:76,1,45
269,63,29851,2,0,L|314:60,1,45
498,47,30028,2,0,B|427:72|423:139|423:139|415:137|415:137|423:138|423:138|422:171|443:201,1,180
507,355,30380,5,0,0:0:0:0:
415,137,30557,1,0,0:0:0:0:
256,240,30733,2,0,L|154:248,1,90
26,261,30910,6,0,L|18:171,1,90
155,37,31263,1,0,0:0:0:0:
306,188,31439,1,0,0:0:0:0:
273,208,31527,1,0,0:0:0:0:
256,240,31615,1,0,0:0:0:0:
288,361,31792,5,0,0:0:0:0:
20,266,31969,1,0,0:0:0:0:
138,374,32145,1,0,0:0:0:0:
152,79,32322,1,0,0:0:0:0:
116,271,32498,1,0,0:0:0:0:
330,130,32675,1,0,0:0:0:0:
156,121,32851,6,0,P|196:188|196:191,1,45
222,224,33028,1,0,0:0:0:0:
404,223,33204,6,0,P|329:239|309:260,1,90
246,321,33380,1,0,0:0:0:0:
0,218,33557,6,0,P|135:191|177:211,1,135.000005149842
320,246,33733,1,0,0:0:0:0:
507,336,33910,6,0,P|352:360|221:220,1,360
83,124,34263,6,0,B|28:110|-24:203|56:242|56:242|99:195|171:187|222:223,1,360
492,198,35145,5,0,0:0:0:0:
356,75,35322,1,0,0:0:0:0:
323,274,35498,1,0,0:0:0:0:
152,277,35675,6,0,P|198:249|230:200,1,90
270,40,36028,2,0,P|271:93|297:146,1,90
413,260,36380,2,0,P|365:234|307:230,1,90
34,198,36733,2,0,P|85:180|143:187,1,90
330,228,37086,2,0,B|341:254|323:275|323:275|282:241|326:162|326:162|360:104|329:52|217:55|254:167,1,360
229,359,37969,6,0,P|224:297|202:261,1,90
112,197,38322,1,0,0:0:0:0:
332,168,38498,1,0,0:0:0:0:
211,273,38675,1,0,0:0:0:0:
416,219,38851,1,0,0:0:0:0:
234,191,39028,1,0,0:0:0:0:
459,303,39204,5,0,0:0:0:0:
227,98,39380,2,0,P|296:122|320:164,1,90
351,296,39733,1,0,0:0:0:0:
93,278,39910,2,0,P|199:245|234:189,1,180
491,208,40792,6,0,P|404:225|350:295,1,180
290,91,41322,2,0,P|307:161|339:194,1,90
175,324,41675,2,0,P|227:292|244:253,1,90
436,313,42028,2,0,P|366:292|322:303,1,90
412,126,42380,2,0,B|429:133|446:156|446:156|425:99|449:26|449:26|371:119|271:85,1,360
115,89,43263,2,0,P|190:130|199:163,1,90
237,311,43616,5,0,0:0:0:0:
344,181,43792,1,0,0:0:0:0:
71,297,43969,1,0,0:0:0:0:
316,264,44145,1,0,0:0:0:0:
117,170,44322,1,0,0:0:0:0:
151,317,44498,1,0,0:0:0:0:
190,75,44675,1,0,0:0:0:0:
402,113,44851,2,0,P|349:154|226:150,1,180
94,41,45380,1,0,0:0:0:0:
217,286,45557,5,0,0:0:0:0:
67,155,45733,2,0,L|-1:147,2,45
239,156,46086,1,0,0:0:0:0:
44,238,46263,2,0,L|-24:230,2,45
300,59,46616,2,0,L|345:61,2,45
76,92,46969,5,0,0:0:0:0:
239,156,47145,1,0,0:0:0:0:
288,160,47233,1,0,0:0:0:0:
336,165,47322,1,0,0:0:0:0:
490,212,47498,1,0,0:0:0:0:
235,287,47675,1,0,0:0:0:0:
181,282,47763,1,0,0:0:0:0:
129,277,47852,1,0,0:0:0:0:
0,171,48028,1,0,0:0:0:0:
47,175,48116,1,0,0:0:0:0:
93,180,48205,1,0,0:0:0:0:
305,294,48380,5,0,0:0:0:0:
239,156,48557,1,0,0:0:0:0:
246,95,48646,1,0,0:0:0:0:
250,33,48734,1,0,0:0:0:0:
424,19,48909,1,0,0:0:0:0:
490,207,49086,1,0,0:0:0:0:
486,254,49175,1,0,0:0:0:0:
481,304,49263,1,0,0:0:0:0:
235,287,49439,1,0,0:0:0:0:
304,294,49528,1,0,0:0:0:0:
376,300,49616,1,0,0:0:0:0:
372,125,49792,5,0,0:0:0:0:
235,287,49969,1,0,0:0:0:0:
158,280,50057,1,0,0:0:0:0:
85,273,50146,1,0,0:0:0:0:
108,102,50321,1,0,0:0:0:0:
247,208,50498,1,0,0:0:0:0:
254,127,50586,1,0,0:0:0:0:
262,50,50675,1,0,0:0:0:0:
446,300,50851,6,0,L|451:231,1,45
460,120,51028,2,0,L|465:51,1,45
324,15,51204,1,0,0:0:0:0:
332,274,51380,6,0,L|249:266,1,45
104,164,51557,1,0,0:0:0:0:
348,157,51733,1,0,0:0:0:0:
60,161,51910,2,0,L|142:168,1,45
307,44,52086,1,0,0:0:0:0:
151,278,52263,1,0,0:0:0:0:
392,160,52439,6,0,L|309:152,1,45
162,50,52616,1,0,0:0:0:0:
287,270,52792,1,0,0:0:0:0:
307,44,52969,1,0,0:0:0:0:
151,278,53145,1,0,0:0:0:0:
162,50,53322,6,0,L|154:132,1,45
151,278,53498,1,0,0:0:0:0:
307,44,53675,1,0,0:0:0:0:
245,179,54028,5,0,0:0:0:0:
336,137,54204,1,0,0:0:0:0:
194,260,54380,1,0,0:0:0:0:
240,23,54557,1,0,0:0:0:0:
385,341,54733,1,0,0:0:0:0:
82,151,54910,1,0,0:0:0:0:
424,120,55086,1,0,0:0:0:0:
161,346,55263,1,0,0:0:0:0:
56,210,55792,6,0,P|56:245|82:297,1,90
145,242,55969,2,0,P|165:290|155:340,1,90
211,158,56145,6,0,P|228:235|288:310,1,135.000005149842
243,62,56322,2,0,P|281:118|297:192,1,135.000005149842
363,100,56498,6,0,P|375:160|421:200,1,90
453,115,56675,2,0,P|478:167|467:226,1,90
386,336,56851,1,0,0:0:0:0:
408,88,57204,6,0,L|392:269,1,180
108,91,57557,2,0,L|123:272,1,180
433,74,57910,2,0,L|417:255,1,180
92,77,58263,2,0,L|107:258,1,180
454,64,58616,2,0,L|438:245,1,180
73,65,58969,2,0,L|88:246,1,180
111,379,59322,5,0,0:0:0:0:
212,286,59498,1,0,0:0:0:0:
235,139,59675,2,0,B|220:115|221:91|221:91|166:132|156:242|216:290,1,270
323,348,60028,1,0,0:0:0:0:
442,283,60204,1,0,0:0:0:0:
471,128,60380,2,0,P|432:39|306:30,1,180
107,295,60733,2,0,P|168:377|280:364,1,180
334,220,61086,2,0,P|271:164|259:247,1,202.500007724762
363,339,61439,5,0,0:0:0:0:
259,31,61616,1,0,0:0:0:0:
205,302,61792,1,0,0:0:0:0:
344,76,61969,1,0,0:0:0:0:
123,229,62145,1,0,0:0:0:0:
375,182,62322,1,0,0:0:0:0:
22,209,62498,1,0,0:0:0:0:
257,246,62675,6,0,L|197:277,1,67.5000025749208
316,214,62851,2,0,L|256:245,1,67.5000025749208
375,182,63028,2,0,L|315:213,1,67.5000025749208
458,139,63204,6,0,B|418:94|351:79|288:102,1,180
31,238,63557,2,0,B|71:283|138:298|201:275,1,180
313,0,63910,6,0,B|252:-3|194:33|166:94,1,180
150,372,64263,2,0,B|210:375|268:339|297:278,1,180
70,164,64616,6,0,B|46:205|68:265|138:301|205:233|205:233|245:191|297:175|339:196,1,371.250003540516
426,219,64969,5,0,0:0:0:0:
136,193,65145,1,0,0:0:0:0:
412,134,65322,2,0,P|492:164|509:248,1,180
334,346,65675,1,0,0:0:0:0:
341,89,65851,1,0,0:0:0:0:
84,199,66028,1,0,0:0:0:0:
404,299,66204,1,0,0:0:0:0:
189,75,66380,1,0,0:0:0:0:
241,352,66557,1,0,0:0:0:0:
169,163,66733,6,0,P|168:256|34:288,1,180
15,145,67086,2,0,P|42:180|83:197,1,90
357,233,67439,6,0,B|367:263|367:263|318:257|284:215|284:215|235:139|169:162,1,270.000010299683
15,145,67792,2,0,P|54:65|134:27,1,180
292,59,68057,1,0,0:0:0:0:
303,88,68145,6,0,B|286:148|216:110|167:163|167:163|146:228|213:277|263:246,1,270.000010299683
427,283,68675,1,0,0:0:0:0:
352,320,68851,2,0,P|507:302|377:217,1,405.000015449525
273,258,69204,6,0,L|195:249,1,67.5000025749208
103,236,69380,2,0,L|25:227,1,67.5000025749208
227,91,69557,2,0,L|219:158,1,67.5000025749208
197,337,69733,1,0,0:0:0:0:
47,117,69910,1,0,0:0:0:0:
65,142,70086,2,0,L|132:149,1,67.5000025749208
319,168,70262,5,0,0:0:0:0:
396,105,70439,1,0,0:0:0:0:
273,258,70616,2,0,P|359:258|410:187,1,180
403,0,70969,6,0,B|352:7|336:75|395:104|395:104|529:94|521:296|376:273|376:273|363:270,1,405.000015449525
213,175,71675,2,0,P|103:176|168:265,1,270
341,263,72028,6,0,L|273:258,1,67.5000025749208
490,276,72204,2,0,L|420:271,1,67.5000025749208
362,116,72380,2,0,L|354:183,1,67.5000025749208
332,362,72556,1,0,0:0:0:0:
490,166,72733,1,0,0:0:0:0:
506,189,72909,2,0,L|438:184,1,67.5000025749208
213,175,73086,5,0,0:0:0:0:
213,175,73792,5,0,0:0:0:0:
359,69,73969,1,0,0:0:0:0:
354,95,74057,1,0,0:0:0:0:
340,174,74145,1,0,0:0:0:0:
335,203,74233,1,0,0:0:0:0:
320,287,74321,1,0,0:0:0:0:
258,272,74498,6,0,P|287:232|330:349,1,270
184,353,74851,2,0,P|147:267|150:242,1,90
132,137,75028,2,0,P|169:164|212:174,1,90
340,174,75204,2,0,B|395:166|442:187|442:187|458:129|488:99,2,202.500007724762
89,212,75910,2,0,B|-40:192|-40:192|50:153,1,180
240,86,76263,2,0,P|229:193|152:118,1,270
333,53,76616,5,0,0:0:0:0:
370,43,76704,1,0,0:0:0:0:
412,32,76792,1,0,0:0:0:0:
433,249,76969,5,0,0:0:0:0:
154,39,77145,1,0,0:0:0:0:
256,373,77322,1,0,0:0:0:0:
370,43,77498,1,0,0:0:0:0:
83,243,77675,1,0,0:0:0:0:
432,248,77851,1,0,0:0:0:0:
153,38,78028,1,0,0:0:0:0:
157,88,78380,5,0,0:0:0:0:
160,139,78733,1,0,0:0:0:0:
164,191,79086,1,0,0:0:0:0:
167,243,79439,6,0,B|181:382|181:382|141:327,1,180
77,189,79969,2,0,P|-6:199|99:231,1,270.000010299683
33,92,80498,2,0,B|85:88|115:62|115:62|129:106|161:140,1,180
395,191,81028,5,0,0:0:0:0:
261,189,81204,2,0,P|302:219|321:257,1,67.5000025749208
369,340,81380,2,0,P|373:306|390:277,1,67.5000025749208
499,105,81557,5,0,0:0:0:0:
469,102,81645,1,0,0:0:0:0:
384,87,81733,1,0,0:0:0:0:
357,83,81822,1,0,0:0:0:0:
249,70,81910,1,0,0:0:0:0:
252,109,81998,1,0,0:0:0:0:
256,147,82086,1,0,0:0:0:0:
261,189,82175,1,0,0:0:0:0:
266,231,82263,1,0,0:0:0:0:
266,231,82616,6,0,P|224:210|175:217,1,67.5000025749208
111,234,83145,5,0,0:0:0:0:
338,176,83322,2,0,P|359:218|352:267,1,67.5000025749208
305,320,83675,1,0,0:0:0:0:
253,127,83851,1,0,0:0:0:0:
405,322,84028,1,0,0:0:0:0:
204,209,84204,1,0,0:0:0:0:
167,314,84380,6,0,L|200:314,1,33.7500012874604
405,311,84557,1,0,0:0:0:0:
493,180,84733,2,0,P|472:222|479:271,1,67.5000025749208
502,328,85086,1,0,0:0:0:0:
415,130,85263,2,0,P|436:88|429:39,1,67.5000025749208
172,67,85616,6,0,L|225:67,1,33.7500012874604
343,69,85792,1,0,0:0:0:0:
320,160,85969,1,0,0:0:0:0:
359,246,86145,5,0,0:0:0:0:
172,67,86322,1,0,0:0:0:0:
449,266,86498,1,0,0:0:0:0:
425,19,86675,1,0,0:0:0:0:
458,139,86851,1,0,0:0:0:0:
266,95,87028,5,0,0:0:0:0:
29,209,87204,2,0,P|71:188|120:195,1,67.5000025749208
320,177,87557,2,0,P|291:171|247:194,1,67.5000025749208
179,233,87910,1,0,0:0:0:0:
266,95,88086,5,0,0:0:0:0:
339,44,88175,1,0,0:0:0:0:
418,82,88263,2,0,P|437:110|435:137,1,33.7500012874604
209,341,88439,5,0,0:0:0:0:
121,325,88528,1,0,0:0:0:0:
93,242,88616,2,0,P|103:190|124:171,1,67.5000025749208
341,137,88969,1,0,0:0:0:0:
179,233,89145,2,0,P|221:254|270:247,1,67.5000025749208
111,180,89498,5,0,0:0:0:0:
60,253,89587,1,0,0:0:0:0:
98,332,89675,1,0,0:0:0:0:
357,123,89851,5,0,0:0:0:0:
341,35,89940,1,0,0:0:0:0:
258,7,90028,2,0,P|206:17|187:38,1,67.5000025749208
161,254,90380,1,0,0:0:0:0:
46,172,90557,2,0,P|98:172|121:190,1,67.5000025749208
245,324,90910,6,0,L|235:286,1,33.7500012874604
236,211,91086,1,0,0:0:0:0:
249,138,91175,1,0,0:0:0:0:
302,85,91263,1,0,0:0:0:0:
375,77,91351,1,0,0:0:0:0:
444,115,91439,2,0,P|453:169|430:202,1,67.5000025749208
379,222,91792,1,0,0:0:0:0:
139,76,91969,5,0,0:0:0:0:
245,324,92145,1,0,0:0:0:0:
302,85,92322,1,0,0:0:0:0:
98,240,92498,1,0,0:0:0:0:
379,222,92675,1,0,0:0:0:0:
403,333,92851,6,0,L|414:391,1,33.7500012874604
372,188,93028,2,0,L|383:246,1,33.7500012874604
339,48,93204,2,0,L|350:106,1,33.7500012874604
255,210,93380,6,0,P|203:195|253:167,1,135.000005149842
372,188,93910,2,0,P|437:143|347:134,1,202.500007724762
262,350,94263,6,0,B|269:253,1,90
282,83,94439,1,0,0:0:0:0:
109,214,94616,1,0,0:0:0:0:
269,261,94792,5,0,0:0:0:0:
197,221,94880,1,0,0:0:0:0:
164,148,94969,2,0,B|145:83|145:83|175:0|175:0|199:70,1,202.500007724762
195,301,95498,1,0,0:0:0:0:
43,35,95675,6,0,L|76:135,2,101.250003862381
190,44,96469,1,0,0:0:0:0:
269,261,96733,2,0,P|213:231|248:181,1,135
2,281,97086,6,0,B|99:274,1,90
269,261,97262,1,0,0:0:0:0:
165,146,97439,1,0,0:0:0:0:
233,337,97616,5,0,0:0:0:0:
316,327,97704,1,0,0:0:0:0:
348,253,97793,2,0,B|367:188|367:188|420:147|420:147|441:80|441:80|372:118,1,270.000010299683
201,58,98322,2,0,L|274:77,1,67.5000025749208
349,93,98498,1,0,0:0:0:0:
115,60,98675,5,0,0:0:0:0:
46,102,98763,1,0,0:0:0:0:
27,182,98851,2,0,B|61:248|61:248|138:277,1,135.000005149842
316,327,99204,1,0,0:0:0:0:
400,300,99380,6,0,L|465:280,2,67.5000025749208
102,363,99910,2,0,P|193:334|206:239,1,202.500007724762
17,133,100263,2,0,L|98:122,1,67.5000025749208
239,107,100440,2,0,L|312:99,1,67.5000025749208
447,87,100616,1,0,0:0:0:0:
461,308,100792,5,0,0:0:0:0:
399,260,100880,1,0,0:0:0:0:
320,273,100969,2,0,P|248:280|204:234,1,135.000005149842
296,38,101322,2,0,B|291:1|237:50|270:100|270:100|313:118|309:204|260:210,1,225
261,368,101675,1,0,0:0:0:0:
164,115,101851,1,0,0:0:0:0:
173,362,102028,2,0,P|210:298|314:302,1,135.000005149842
445,291,102380,5,0,0:0:0:0:
175,220,102557,1,0,0:0:0:0:
444,136,102733,6,0,P|318:143|340:214,1,225
363,225,102998,1,0,0:0:0:0:
407,224,103086,1,0,0:0:0:0:
314,37,103263,1,0,0:0:0:0:
186,30,103439,6,0,P|213:61|218:89,1,45
234,149,103616,1,0,0:0:0:0:
187,305,103792,6,0,P|181:206|214:172,1,90
304,83,103969,1,0,0:0:0:0:
394,287,104145,6,0,P|327:287|271:251,1,135.000005149842
133,123,104322,1,0,0:0:0:0:
3,201,104498,6,0,P|86:232|174:218,1,180
398,149,104675,1,0,0:0:0:0:
472,87,104851,6,0,P|316:93|363:242,1,360
232,71,105733,5,0,0:0:0:0:
259,273,105910,1,0,0:0:0:0:
202,171,106086,1,0,0:0:0:0:
354,330,106263,6,0,P|363:242|382:211,1,90
512,100,106616,2,0,P|431:136|394:135,1,90
232,71,106969,2,0,P|303:122|321:154,1,90
512,283,107322,2,0,P|473:295|407:288,1,90
303,122,107675,2,0,B|274:93|283:60|315:43|315:43|387:45|406:153|350:195|350:195|317:217|310:250,1,360
303,122,108557,6,0,L|213:118,1,90
96,113,108910,1,0,0:0:0:0:
356,277,109086,5,0,0:0:0:0:
101,278,109263,1,0,0:0:0:0:
342,195,109439,1,0,0:0:0:0:
142,192,109616,1,0,0:0:0:0:
300,341,109792,5,0,0:0:0:0:
224,86,109968,2,0,P|293:110|317:152,1,90
356,277,110321,1,0,0:0:0:0:
96,256,110498,1,0,0:0:0:0:
16,192,110675,6,0,P|50:164|94:156,1,90
302,121,111204,1,0,0:0:0:0:
246,341,111557,1,0,0:0:0:0:
379,200,111733,5,0,0:0:0:0:
268,228,111910,1,0,0:0:0:0:
346,310,112086,1,0,0:0:0:0:
416,107,112263,1,0,0:0:0:0:
246,341,112439,1,0,0:0:0:0:
379,200,112616,2,0,P|453:175|415:106,1,180
195,70,113322,5,0,0:0:0:0:
269,56,113498,1,0,0:0:0:0:
333,102,113675,1,0,0:0:0:0:
343,176,113851,1,0,0:0:0:0:
312,238,114028,5,0,0:0:0:0:
278,266,114116,1,0,0:0:0:0:
234,269,114204,1,0,0:0:0:0:
197,244,114292,1,0,0:0:0:0:
183,202,114380,1,0,0:0:0:0:
198,160,114469,1,0,0:0:0:0:
235,135,114557,1,0,0:0:0:0:
279,139,114645,1,0,0:0:0:0:
456,210,115086,6,0,P|456:245|430:297,1,90
367,242,115263,2,0,P|347:290|357:340,1,90
301,158,115439,6,0,P|284:235|224:310,1,135.000005149842
269,62,115616,2,0,P|231:118|215:192,1,135.000005149842
149,100,115792,6,0,P|137:160|91:200,1,90
59,115,115969,2,0,P|34:167|45:226,1,90
126,336,116145,1,0,0:0:0:0:
104,88,116498,6,0,L|120:269,1,180
404,91,116851,2,0,L|389:272,1,180
79,74,117204,2,0,L|95:255,1,180
420,77,117557,2,0,L|405:258,1,180
58,64,117910,2,0,L|74:245,1,180
439,65,118263,2,0,L|424:246,1,180
401,379,118616,5,0,0:0:0:0:
300,286,118792,1,0,0:0:0:0:
277,139,118969,2,0,B|292:115|291:91|291:91|346:132|356:242|296:290,1,270
189,348,119322,1,0,0:0:0:0:
70,283,119498,1,0,0:0:0:0:
41,128,119674,2,0,P|80:39|206:30,1,180
405,295,120027,2,0,P|344:377|232:364,1,180
178,220,120380,2,0,P|241:164|253:247,1,202.500007724762
149,339,120733,5,0,0:0:0:0:
253,31,120910,1,0,0:0:0:0:
307,302,121086,1,0,0:0:0:0:
168,76,121263,1,0,0:0:0:0:
389,229,121439,1,0,0:0:0:0:
137,182,121616,1,0,0:0:0:0:
490,209,121792,1,0,0:0:0:0:
255,246,121969,6,0,L|315:277,1,67.5000025749208
196,214,122145,2,0,L|256:245,1,67.5000025749208
137,182,122322,2,0,L|197:213,1,67.5000025749208
54,139,122498,6,0,B|94:94|161:79|224:102,1,180
481,238,122851,2,0,B|441:283|374:298|311:275,1,180
199,0,123204,6,0,B|260:-3|318:33|346:94,1,180
362,372,123557,2,0,B|302:375|244:339|215:278,1,180
442,164,123910,6,0,B|466:205|444:265|374:301|307:233|307:233|267:191|215:175|173:196,1,371.250003540516
86,219,124263,5,0,0:0:0:0:
376,193,124439,1,0,0:0:0:0:
100,134,124616,2,0,P|20:164|3:248,1,180
178,346,124969,1,0,0:0:0:0:
171,89,125145,1,0,0:0:0:0:
428,199,125322,1,0,0:0:0:0:
108,299,125498,1,0,0:0:0:0:
323,75,125674,1,0,0:0:0:0:
271,352,125851,1,0,0:0:0:0:
343,163,126027,6,0,P|344:256|478:288,1,180
497,145,126380,2,0,P|470:180|429:197,1,90
155,233,126733,6,0,B|145:263|145:263|194:257|228:215|228:215|277:139|343:162,1,270.000010299683
497,145,127086,2,0,P|458:65|378:27,1,180
220,59,127351,1,0,0:0:0:0:
209,88,127439,6,0,B|226:148|296:110|345:163|345:163|366:228|299:277|249:246,1,270.000010299683
85,283,127969,1,0,0:0:0:0:
160,320,128145,2,0,P|5:302|135:217,1,405.000015449525
239,258,128498,6,0,L|317:249,1,67.5000025749208
409,236,128674,2,0,L|487:227,1,67.5000025749208
285,91,128851,2,0,L|293:158,1,67.5000025749208
315,337,129027,1,0,0:0:0:0:
465,117,129204,1,0,0:0:0:0:
447,142,129380,2,0,L|380:149,1,67.5000025749208
193,168,129556,5,0,0:0:0:0:
116,105,129733,1,0,0:0:0:0:
239,258,129910,2,0,P|153:258|102:187,1,180
109,0,130263,6,0,B|160:7|176:75|117:104|117:104|-17:94|-9:296|136:273|136:273|149:270,1,405.000015449525
299,175,130969,2,0,P|409:176|344:265,1,270
171,263,131322,6,0,L|239:258,1,67.5000025749208
22,276,131498,2,0,L|92:271,1,67.5000025749208
150,116,131674,2,0,L|158:183,1,67.5000025749208
180,362,131850,1,0,0:0:0:0:
22,166,132027,1,0,0:0:0:0:
6,189,132203,2,0,L|74:184,1,67.5000025749208
299,175,132380,5,0,0:0:0:0:
299,175,133086,5,0,0:0:0:0:
153,69,133263,1,0,0:0:0:0:
158,95,133351,1,0,0:0:0:0:
172,174,133439,1,0,0:0:0:0:
177,203,133527,1,0,0:0:0:0:
192,287,133615,1,0,0:0:0:0:
254,272,133792,6,0,P|225:232|182:349,1,270
328,353,134145,2,0,P|365:267|362:242,1,90
380,137,134322,2,0,P|343:164|300:174,1,90
172,174,134498,2,0,B|117:166|70:187|70:187|54:129|24:99,2,202.500007724762
423,212,135204,2,0,B|552:192|552:192|462:153,1,180
272,86,135557,2,0,P|283:193|360:118,1,270
179,53,135910,5,0,0:0:0:0:
142,43,135998,1,0,0:0:0:0:
100,32,136086,1,0,0:0:0:0:
79,249,136263,5,0,0:0:0:0:
358,39,136439,1,0,0:0:0:0:
256,373,136616,1,0,0:0:0:0:
142,43,136792,1,0,0:0:0:0:
429,243,136969,1,0,0:0:0:0:
80,248,137145,1,0,0:0:0:0:
359,38,137322,1,0,0:0:0:0:
355,88,137674,5,0,0:0:0:0:
352,139,138027,1,0,0:0:0:0:
348,191,138380,1,0,0:0:0:0:
344,244,138733,1,0,0:0:0:0:
29,173,150028,6,0,P|74:145|205:155,1,180
278,210,150557,1,0,0:0:0:0:
148,325,150733,2,0,P|128:284|123:240,1,90
268,35,151086,6,0,P|287:75|292:119,1,90
257,290,151439,2,0,P|204:242|283:215,1,180
450,354,151969,2,0,P|432:313|429:268,1,90
411,103,152322,1,0,0:0:0:0:
330,262,152498,2,0,P|361:220|373:179,1,90
420,20,152851,2,0,P|490:-8|488:67,1,180
311,118,153380,1,0,0:0:0:0:
507,226,153557,2,0,P|465:257|424:269,1,90
192,241,153910,1,0,0:0:0:0:
203,38,154263,6,0,P|189:124|117:174,1,180
4,231,154792,2,0,P|28:268|67:289,1,90
285,278,155145,1,0,0:0:0:0:
105,55,155322,6,0,L|110:112,1,45
118,175,155498,2,0,L|123:226,1,45
136,329,155675,5,0,0:0:0:0:
375,54,156028,1,0,0:0:0:0:
74,204,156381,1,0,0:0:0:0:
437,179,156734,1,0,0:0:0:0:
118,72,157086,1,0,0:0:0:0:
393,311,157440,1,0,0:0:0:0:
243,10,157792,1,0,0:0:0:0:
268,373,158145,1,0,0:0:0:0:
222,90,158498,5,0,0:0:0:0:
342,255,158675,1,0,0:0:0:0:
148,191,158851,1,0,0:0:0:0:
342,129,159028,1,0,0:0:0:0:
222,293,159204,1,0,0:0:0:0:
303,46,159380,1,0,0:0:0:0:
303,337,159557,1,0,0:0:0:0:
132,101,159733,1,0,0:0:0:0:
409,192,159910,1,0,0:0:0:0:
132,282,160086,1,0,0:0:0:0:
417,75,160263,1,0,0:0:0:0:
194,381,160439,1,0,0:0:0:0:
194,2,160616,1,0,0:0:0:0:
417,309,160792,1,0,0:0:0:0:
56,191,160969,1,0,0:0:0:0:
417,75,161145,1,0,0:0:0:0:
148,161,161675,6,0,P|197:152|244:160,1,90
251,88,161851,2,0,P|291:112|306:136,1,67.5000025749208
359,90,162028,2,0,P|371:129|366:170,1,45
427,151,162204,2,0,P|422:170|403:188,1,33.7500012874604
414,237,162380,2,0,P|400:236|388:230,1,22.5
343,256,162557,2,0,L|343:238,1,11.25
325,211,162733,2,0,L|337:204,1,13.5
56,210,163086,6,0,P|56:245|82:297,1,90
145,242,163263,2,0,P|165:290|155:340,1,90
211,158,163439,6,0,P|228:235|288:310,1,135.000005149842
243,62,163616,2,0,P|281:118|297:192,1,135.000005149842
363,100,163792,6,0,P|375:160|421:200,1,90
453,115,163969,2,0,P|478:167|467:226,1,90
386,336,164145,1,0,0:0:0:0:
408,88,164498,6,0,L|392:269,1,180
108,91,164851,2,0,L|123:272,1,180
433,74,165204,2,0,L|417:255,1,180
92,77,165557,2,0,L|107:258,1,180
454,64,165910,2,0,L|438:245,1,180
73,65,166263,2,0,L|88:246,1,180
111,379,166616,5,0,0:0:0:0:
212,286,166792,1,0,0:0:0:0:
235,139,166969,2,0,B|220:115|221:91|221:91|166:132|156:242|216:290,1,270
323,348,167322,1,0,0:0:0:0:
442,283,167498,1,0,0:0:0:0:
471,128,167674,2,0,P|432:39|306:30,1,180
107,295,168027,2,0,P|168:377|280:364,1,180
334,220,168380,2,0,P|271:164|259:247,1,202.500007724762
363,339,168733,5,0,0:0:0:0:
259,31,168910,1,0,0:0:0:0:
205,302,169086,1,0,0:0:0:0:
344,76,169263,1,0,0:0:0:0:
123,229,169439,1,0,0:0:0:0:
375,182,169616,1,0,0:0:0:0:
22,209,169792,1,0,0:0:0:0:
257,246,169969,6,0,L|197:277,1,67.5000025749208
316,214,170145,2,0,L|256:245,1,67.5000025749208
375,182,170322,2,0,L|315:213,1,67.5000025749208
458,139,170498,6,0,B|418:94|351:79|288:102,1,180
31,238,170851,2,0,B|71:283|138:298|201:275,1,180
313,0,171204,6,0,B|252:-3|194:33|166:94,1,180
150,372,171557,2,0,B|210:375|268:339|297:278,1,180
70,164,171910,6,0,B|46:205|68:265|138:301|205:233|205:233|245:191|297:175|339:196,1,371.250003540516
426,219,172263,5,0,0:0:0:0:
136,193,172439,1,0,0:0:0:0:
412,134,172616,2,0,P|492:164|509:248,1,180
334,346,172969,1,0,0:0:0:0:
341,89,173145,1,0,0:0:0:0:
84,199,173322,1,0,0:0:0:0:
404,299,173498,1,0,0:0:0:0:
189,75,173674,1,0,0:0:0:0:
241,352,173851,1,0,0:0:0:0:
169,163,174027,6,0,P|168:256|34:288,1,180
15,145,174380,2,0,P|42:180|83:197,1,90
357,233,174733,6,0,B|367:263|367:263|318:257|284:215|284:215|235:139|169:162,1,270.000010299683
15,145,175086,2,0,P|54:65|134:27,1,180
292,59,175351,1,0,0:0:0:0:
303,88,175439,6,0,B|286:148|216:110|167:163|167:163|146:228|213:277|263:246,1,270.000010299683
427,283,175969,1,0,0:0:0:0:
352,320,176145,2,0,P|507:302|377:217,1,405.000015449525
273,258,176498,6,0,L|195:249,1,67.5000025749208
103,236,176674,2,0,L|25:227,1,67.5000025749208
227,91,176851,2,0,L|219:158,1,67.5000025749208
197,337,177027,1,0,0:0:0:0:
47,117,177204,1,0,0:0:0:0:
65,142,177380,2,0,L|132:149,1,67.5000025749208
319,168,177556,5,0,0:0:0:0:
396,105,177733,1,0,0:0:0:0:
273,258,177910,2,0,P|359:258|410:187,1,180
403,0,178263,6,0,B|352:7|336:75|395:104|395:104|529:94|521:296|376:273|376:273|363:270,1,405.000015449525
213,175,178969,2,0,P|103:176|168:265,1,270
341,263,179322,6,0,L|273:258,1,67.5000025749208
490,276,179498,2,0,L|420:271,1,67.5000025749208
362,116,179674,2,0,L|354:183,1,67.5000025749208
332,362,179850,1,0,0:0:0:0:
490,166,180027,1,0,0:0:0:0:
506,189,180203,2,0,L|438:184,1,67.5000025749208
213,175,180380,5,0,0:0:0:0:
213,175,181086,5,0,0:0:0:0:
359,69,181263,1,0,0:0:0:0:
354,95,181351,1,0,0:0:0:0:
340,174,181439,1,0,0:0:0:0:
335,203,181527,1,0,0:0:0:0:
320,287,181615,1,0,0:0:0:0:
258,272,181792,6,0,P|287:232|330:349,1,270
184,353,182145,2,0,P|147:267|150:242,1,90
132,137,182322,2,0,P|169:164|212:174,1,90
340,174,182498,2,0,B|395:166|442:187|442:187|458:129|488:99,2,202.500007724762
89,212,183204,2,0,B|-40:192|-40:192|50:153,1,180
240,86,183557,2,0,P|229:193|152:118,1,270
333,53,183910,5,0,0:0:0:0:
370,43,183998,1,0,0:0:0:0:
412,32,184086,1,0,0:0:0:0:
433,249,184263,5,0,0:0:0:0:
154,39,184439,1,0,0:0:0:0:
256,373,184616,1,0,0:0:0:0:
370,43,184792,1,0,0:0:0:0:
83,243,184969,1,0,0:0:0:0:
432,248,185145,1,0,0:0:0:0:
153,38,185322,1,0,0:0:0:0:
157,88,185674,5,0,0:0:0:0:
160,139,186027,1,0,0:0:0:0:
164,191,186380,1,0,0:0:0:0:
172,244,186733,1,0,0:0:0:0:
