osu file format v14

[General]
AudioFilename: audio.mp3
AudioLeadIn: 0
PreviewTime: 34212
Countdown: 0
SampleSet: None
StackLeniency: 0.7
Mode: 0
LetterboxInBreaks: 0
WidescreenStoryboard: 0

[Editor]
Bookmarks: 5271
DistanceSpacing: 2.3
BeatDivisor: 4
GridSize: 8
TimelineZoom: 2.1

[Metadata]
Title:POP/STARS (ft. Madison Beer, (G)I-DLE, Jaira Burns)
TitleUnicode:POP/STARS (ft. Madison Beer, (G)I-DLE, Jaira Burns)
Artist:K/DA
ArtistUnicode:K/DA
Creator:Jeezyh
Version:Old rawr >w<
Source:
Tags:
BeatmapID:2260631
BeatmapSetID:878440

[Difficulty]
HPDrainRate:6
CircleSize:4
OverallDifficulty:9
ApproachRate:9.4
SliderMultiplier:2.17
SliderTickRate:1

[Events]
//Background and Video events
Video,0,"kda.mp4"
0,0,"BG1.jpg",0,0
//Break Periods
2,138882,149437
//Storyboard Layer 0 (Background)
//Storyboard Layer 1 (Fail)
//Storyboard Layer 2 (Pass)
//Storyboard Layer 3 (Foreground)
//Storyboard Layer 4 (Overlay)
//Storyboard Sound Samples

[TimingPoints]
330,352.941176470588,4,2,1,30,1,0
330,-200,4,2,1,30,0,0
594,-200,4,2,1,5,0,0
682,-100,4,2,1,50,0,0
859,-100,4,2,1,30,0,0
1212,-100,4,2,1,50,0,0
1388,-100,4,2,1,30,0,0
1741,-100,4,2,1,50,0,0
1918,-100,4,2,1,30,0,0
3153,-100,4,2,1,40,0,0
3329,-100,4,2,1,50,0,0
3418,-100,4,2,1,5,0,0
3506,-100,4,2,1,50,0,0
3594,-100,4,2,1,5,0,0
3682,-100,4,2,1,50,0,0
3771,-100,4,2,1,5,0,0
3859,-100,4,2,1,50,0,0
4035,-100,4,2,1,30,0,0
4388,-100,4,2,1,50,0,0
4565,-100,4,2,1,30,0,0
5271,-111.111111111111,4,2,1,30,0,0
5977,-111.111111111111,4,2,1,50,0,0
6153,-111.111111111111,4,2,1,40,0,0
9506,-90.909090909091,4,2,1,40,0,0
9859,-66.6666666666667,4,2,1,40,0,0
10212,-58.8235294117647,4,2,1,40,0,0
11624,-100,4,2,1,50,0,0
12329,-100,4,2,1,60,0,0
12506,-100,4,2,1,50,0,0
13741,-100,4,2,1,60,0,0
13918,-100,4,2,1,50,0,0
15153,-100,4,2,1,60,0,0
15329,-100,4,2,1,50,0,0
15506,-83.3333333333333,4,2,1,50,0,0
15859,-90.9090909090909,4,2,1,50,0,0
16565,-90.9090909090909,4,2,1,60,0,0
16741,-90.9090909090909,4,2,1,50,0,0
17271,-100,4,2,1,50,0,0
21506,-90.9090909090909,4,2,1,50,0,0
22918,-86.9565217391304,4,2,1,60,0,0
27859,-111.111111111111,4,2,1,60,0,0
28741,-90.9090909090909,4,2,1,60,0,0
35094,-142.857142857143,4,2,1,40,0,0
45506,-111.111111111111,4,2,1,50,0,0
51153,-99.9999999999999,4,2,1,50,0,0
55918,-95.2380952380952,4,2,1,50,0,0
56094,-90.9090909090909,4,2,1,50,0,0
56271,-86.9565217391304,4,2,1,50,0,0
56447,-83.3333333333333,4,2,1,50,0,0
56624,-80,4,2,1,50,0,0
56800,-74.0740740740741,4,2,1,70,0,1
57153,-80,4,2,1,70,0,1
57506,-76.9230769230769,4,2,1,70,0,1
57859,-74.0740740740741,4,2,1,70,0,1
58212,-71.4285714285714,4,2,1,70,0,1
58565,-68.9655172413793,4,2,1,70,0,1
58918,-66.6666666666667,4,2,1,70,0,1
59271,-80,4,2,1,70,0,1
62447,-74.0740740740741,4,2,1,70,0,1
62800,-80,4,2,1,70,0,1
63153,-76.9230769230769,4,2,1,70,0,1
63506,-74.0740740740741,4,2,1,70,0,1
63859,-71.4285714285714,4,2,1,70,0,1
64212,-68.9655172413793,4,2,1,70,0,1
64565,-66.6666666666667,4,2,1,70,0,1
64918,-80,4,2,1,70,0,1
67035,-100,4,2,1,70,0,1
67388,-80,4,2,1,70,0,1
68094,-74.0740740740741,4,2,1,70,0,1
70565,-83.3333333333333,4,2,1,70,0,1
70918,-74.0740740740741,4,2,1,70,0,1
73212,-74.0740740740741,4,2,1,75,0,1
73741,-80,4,2,1,70,0,1
78329,-71.4285714285714,4,2,1,70,0,1
78682,-74.0740740740741,4,2,1,65,0,1
79035,-76.9230769230769,4,2,1,60,0,1
79388,-80,4,2,1,55,0,0
79741,-100,4,2,1,50,0,0
87506,-125,4,2,1,50,0,0
87859,-100,4,2,1,50,0,0
92800,-83.3333333333333,4,2,1,60,0,0
99153,-100,4,2,1,50,0,0
103741,-90.9090909090909,4,2,1,50,0,0
104094,-80,4,2,1,55,0,0
104447,-74.0740740740741,4,2,1,60,0,0
104800,-142.857142857143,4,2,1,40,0,0
110447,-100,4,2,1,60,0,0
110624,-100,4,2,1,50,0,0
113271,-100,4,2,1,60,0,0
115212,-95.2380952380952,4,2,1,60,0,0
115388,-90.9090909090909,4,2,1,60,0,0
115565,-86.9565217391304,4,2,1,60,0,0
115741,-83.3333333333333,4,2,1,60,0,0
115918,-80,4,2,1,60,0,0
116094,-80,4,2,1,70,0,1
116447,-80,4,2,1,70,0,1
116800,-76.9230769230769,4,2,1,70,0,1
117153,-74.0740740740741,4,2,1,70,0,1
117506,-71.4285714285714,4,2,1,70,0,1
117859,-68.9655172413793,4,2,1,70,0,1
118212,-66.6666666666667,4,2,1,70,0,1
118565,-80,4,2,1,70,0,1
121741,-74.0740740740741,4,2,1,70,0,1
122094,-80,4,2,1,70,0,1
122447,-76.9230769230769,4,2,1,70,0,1
122800,-74.0740740740741,4,2,1,70,0,1
123153,-71.4285714285714,4,2,1,70,0,1
123506,-68.9655172413793,4,2,1,70,0,1
123859,-66.6666666666667,4,2,1,70,0,1
124212,-80,4,2,1,70,0,1
126329,-100,4,2,1,70,0,1
126682,-80,4,2,1,70,0,1
127388,-74.0740740740741,4,2,1,70,0,1
129859,-83.3333333333333,4,2,1,70,0,1
130212,-74.0740740740741,4,2,1,70,0,1
133212,-200,4,2,1,70,0,1
133741,-74.0740740740741,4,2,1,70,0,1
137624,-71.4285714285714,4,2,1,70,0,1
137977,-74.0740740740741,4,2,1,70,0,1
138329,-76.9230769230769,4,2,1,70,0,1
138682,-333.333333333333,4,2,1,70,0,0
138771,-333.333333333333,4,2,1,30,0,0
149977,-125,4,2,1,40,0,0
155447,-125,4,2,1,45,0,0
155624,-125,4,2,1,50,0,0
158447,-125,4,2,1,60,0,0
161624,-200,4,2,1,35,0,0
163035,-100,4,2,1,60,0,0
163212,-95.2380952380952,4,2,1,60,0,0
163388,-90.9090909090909,4,2,1,60,0,0
163565,-86.9565217391304,4,2,1,60,0,0
163741,-83.3333333333333,4,2,1,60,0,0
163918,-80,4,2,1,60,0,0
164094,-74.0740740740741,4,2,1,75,0,1
164447,-74.0740740740741,4,2,1,75,0,1
164800,-64.5161290322581,4,2,1,75,0,1
165153,-57.1428571428571,4,2,1,75,0,1
165506,-51.2820512820513,4,2,1,75,0,1
165859,-46.5116279069767,4,2,1,75,0,1
166212,-42.5531914893617,4,2,1,75,0,1
166565,-74.0740740740741,4,2,1,75,0,1
169741,-68.9655172413793,4,2,1,75,0,1
170094,-74.0740740740741,4,2,1,75,0,1
170447,-64.5161290322581,4,2,1,75,0,1
170800,-57.1428571428571,4,2,1,75,0,1
171153,-51.2820512820513,4,2,1,75,0,1
171506,-46.5116279069767,4,2,1,75,0,1
171859,-42.5531914893617,4,2,1,75,0,1
172212,-74.0740740740741,4,2,1,75,0,1
174329,-86.9565217391304,4,2,1,75,0,1
174682,-74.0740740740741,4,2,1,75,0,1
175388,-68.9655172413793,4,2,1,75,0,1
177859,-76.9230769230769,4,2,1,75,0,1
178212,-68.9655172413793,4,2,1,75,0,1
185624,-71.4285714285714,4,2,1,75,0,1
185977,-76.9230769230769,4,2,1,65,0,1
186329,-83.3333333333333,4,2,1,55,0,1
186682,-100,4,2,1,45,0,0

[Colours]
Combo1 : 64,0,128
Combo2 : 128,128,128
Combo3 : 233,173,92

[HitObjects]
73,340,330,6,0,L|67:258,1,81.375,4|0,0:0|0:0,0:0:0:0:
44,240,682,6,0,L|51:131,1,108.5,2|0,0:0|0:0,0:0:0:0:
101,60,1035,1,0,0:0:0:0:
166,247,1212,5,2,0:0:0:0:
186,162,1388,1,0,0:0:0:0:
206,77,1565,1,0,0:0:0:0:
271,264,1741,5,2,0:0:0:0:
291,179,1918,1,0,0:0:0:0:
311,94,2095,1,0,0:0:0:0:
331,9,2271,1,0,0:0:0:0:
376,281,2447,5,0,0:0:0:0:
291,179,2624,1,0,0:0:0:0:
416,111,2801,1,0,0:0:0:0:
442,338,2977,1,0,0:0:0:0:
380,192,3153,1,4,0:0:0:0:
255,372,3329,6,0,P|236:353|229:326,1,54.25,2|0,0:0|0:0,0:0:0:0:
354,147,3506,2,0,P|372:165|379:191,1,54.25,2|0,0:0|0:0,0:0:0:0:
113,169,3682,2,0,P|131:150|158:143,1,54.25,2|0,0:0|0:0,0:0:0:0:
140,343,3859,5,2,0:0:0:0:
126,255,4035,1,0,0:0:0:0:
113,169,4212,1,0,0:0:0:0:
255,372,4388,5,2,0:0:0:0:
269,285,4565,1,0,0:0:0:0:
280,198,4742,1,0,0:0:0:0:
293,112,4918,1,0,0:0:0:0:
306,26,5094,1,0,0:0:0:0:
113,169,5271,22,0,B|113:125|113:125|105:125|105:125|113:121|113:121|105:121|105:121|113:117|113:117|105:117|105:117|113:113|113:113|105:113|105:113|113:109|113:109|105:109|105:109|113:105|113:105|105:105|105:105|113:102|113:102|105:101|105:101|105:60,2,195.299994039917,2|2|4,0:1|0:1|0:0,0:0:0:0:
77,305,6153,1,2,0:0:0:0:
64,278,6241,1,0,0:0:0:0:
52,251,6329,1,2,0:0:0:0:
0,384,6506,1,2,0:0:0:0:
189,315,6682,5,0,0:0:0:0:
197,277,6770,1,0,0:0:0:0:
191,238,6858,1,0,0:0:0:0:
267,96,7035,1,0,0:0:0:0:
258,133,7123,1,0,0:0:0:0:
264,172,7211,1,0,0:0:0:0:
362,338,7388,5,2,0:0:0:0:
343,198,7565,1,2,0:0:0:0:
313,202,7653,1,0,0:0:0:0:
283,205,7741,1,2,0:0:0:0:
346,353,7918,1,2,0:0:0:0:
428,176,8094,5,2,0:0:0:0:
408,143,8182,1,0,0:0:0:0:
376,120,8270,1,0,0:0:0:0:
436,296,8447,1,0,0:0:0:0:
456,263,8535,1,0,0:0:0:0:
488,240,8623,1,0,0:0:0:0:
330,368,8800,5,2,0:0:0:0:
343,198,8977,1,0,0:0:0:0:
512,315,9153,1,2,0:0:0:0:
233,377,9329,1,0,0:0:0:0:
377,121,9506,6,0,P|358:52|321:113,1,179.02500546341,2|0,0:0|0:0,0:0:0:0:
390,131,9859,6,0,P|361:32|308:120,1,244.12500931263,0|2,0:0|0:0,0:0:0:0:
343,198,10212,6,0,L|348:290,1,92.2250017590523,0|0,1:0|0:0,0:0:0:0:
129,139,10388,2,0,L|123:231,1,92.2250017590523,0|0,1:0|0:0,0:0:0:0:
357,205,10565,2,0,L|362:297,1,92.2250017590523,0|0,1:0|0:0,0:0:0:0:
115,146,10741,2,0,L|109:238,1,92.2250017590523,0|0,1:0|0:0,0:0:0:0:
376,304,10918,6,0,L|371:212,1,92.2250017590523,0|0,1:0|0:0,0:0:0:0:
95,245,11271,2,0,L|101:153,1,92.2250017590523,4|0,0:0|0:0,0:0:0:0:
356,54,11624,6,0,P|306:32|253:33,1,108.5,0|0,3:2|1:0,0:0:0:0:
101,152,11977,1,0,1:2:0:0:
283,113,12153,1,0,1:0:0:0:
150,333,12329,5,8,0:0:0:0:
101,152,12506,1,0,0:0:0:0:
43,304,12682,1,0,3:0:0:0:
148,237,12859,1,0,0:0:0:0:
252,303,13035,6,0,P|306:312|359:303,1,108.5,0|0,0:0|3:0,0:0:0:0:
429,120,13388,1,0,3:0:0:0:
305,234,13565,1,0,0:0:0:0:
199,0,13741,5,8,0:0:0:0:
101,152,13918,1,0,3:0:0:0:
3,0,14094,1,0,0:0:0:0:
199,0,14271,1,0,0:0:0:0:
120,252,14447,6,0,P|95:204|100:151,1,108.5,0|0,3:0|0:0,0:0:0:0:
193,323,14800,1,0,0:0:0:0:
213,222,14977,1,0,1:0:0:0:
0,384,15153,5,8,0:0:0:0:
120,252,15329,1,0,0:0:0:0:
267,361,15506,2,0,B|323:328|323:328|187:322,1,195.299994039917,0|0,3:0|0:0,0:0:0:0:
119,252,15859,6,0,P|171:224|230:230,1,119.350003642273,4|0,0:0|3:0,0:0:0:0:
118,222,16212,2,0,P|175:208|230:229,1,119.350003642273,4|0,3:2|0:0,0:0:0:0:
336,265,16565,6,0,P|278:264|230:229,1,119.350003642273,12|0,0:0|0:0,0:0:0:0:
323,292,16918,2,0,P|267:275|230:230,1,119.350003642273,4|0,0:0|0:0,0:0:0:0:
432,243,17271,1,0,3:0:0:0:
239,361,17447,5,0,1:0:0:0:
313,152,17624,1,0,1:0:0:0:
323,292,17800,1,0,1:0:0:0:
203,58,17977,5,8,0:0:0:0:
158,220,18153,1,0,0:0:0:0:
313,152,18329,1,0,3:0:0:0:
147,239,18506,1,0,0:0:0:0:
289,67,18682,6,0,P|342:63|386:92,1,108.5,0|0,0:0|3:0,0:0:0:0:
250,226,19035,1,0,3:0:0:0:
198,36,19212,1,0,0:0:0:0:
138,285,19388,5,8,0:0:0:0:
221,109,19565,1,0,3:0:0:0:
250,226,19741,1,0,0:0:0:0:
139,176,19918,1,0,0:0:0:0:
313,361,20094,6,0,P|324:308|360:268,1,108.5,0|0,3:0|1:0,0:0:0:0:
389,275,20359,1,0,1:0:0:0:
389,275,20447,1,0,1:0:0:0:
448,353,20624,1,0,1:0:0:0:
512,108,20800,5,8,0:0:0:0:
484,264,20977,1,0,0:0:0:0:
382,144,21153,1,0,3:0:0:0:
420,58,21329,1,0,0:0:0:0:
484,263,21506,6,0,P|376:253|381:145,3,238.700007284546,4|4|12|4,1:2|3:2|0:0|1:2,0:0:0:0:
434,203,22741,1,0,1:0:0:0:
217,45,22918,5,4,3:2:0:0:
140,186,23094,2,0,P|137:155|147:125,1,62.3875011899472,0|0,0:0|0:0,0:0:0:0:
258,215,23271,2,0,P|260:245|250:275,1,62.3875011899472,2|0,0:0|0:0,0:0:0:0:
265,122,23447,2,0,L|409:120,1,124.775002379894,2|8,0:0|0:0,0:0:0:0:
258,215,23800,1,2,0:0:0:0:
131,30,23977,2,0,P|70:19|13:42,1,124.775002379894,2|2,3:2|0:0,0:0:0:0:
62,232,24329,6,0,P|51:171|74:114,1,124.775002379894,2|0,0:0|3:0,0:0:0:0:
152,303,24682,2,0,P|162:242|139:185,1,124.775002379894,2|0,3:2|0:0,0:0:0:0:
62,374,25035,1,10,0:0:0:0:
245,229,25212,6,0,B|306:200|368:226|346:267|436:291|479:268,1,249.550004759789,0|0,0:0|0:0,0:0:0:0:
293,305,25741,1,0,3:0:0:0:
416,134,25918,2,0,P|430:161|430:192,1,62.3875011899472,0|0,0:0|0:0,0:0:0:0:
343,65,26094,2,0,P|328:92|328:123,1,62.3875011899472,2|0,0:0|0:0,0:0:0:0:
489,5,26271,2,0,L|511:148,1,124.775002379894,2|8,0:0|0:0,0:0:0:0:
347,199,26624,1,2,0:0:0:0:
245,0,26800,2,0,L|223:143,1,124.775002379894,2|0,3:2|0:0,0:0:0:0:
116,243,27153,5,2,0:0:0:0:
54,90,27329,1,2,3:2:0:0:
106,261,27506,1,2,3:2:0:0:
96,279,27859,6,0,B|137:279|137:279|138:287|138:287|141:279|141:279|141:287|141:287|145:279|145:279|145:287|145:287|149:279|149:279|149:287|149:287|153:279|153:279|153:287|153:287|157:279|157:279|157:287|157:287|161:279|161:279|161:287|161:287|205:287,2,195.299994039917,10|2|0,0:0|0:0|3:0,0:0:0:0:
212,368,28741,5,2,1:0:0:0:
250,376,28918,1,2,1:2:0:0:
323,348,29094,1,2,1:2:0:0:
362,156,29271,5,10,0:0:0:0:
283,260,29447,1,2,0:0:0:0:
239,71,29624,1,2,3:2:0:0:
371,167,29800,1,2,0:0:0:0:
151,91,29977,6,0,P|95:72|37:85,1,119.350003642273,4|0,0:0|0:0,0:0:0:0:
177,226,30329,2,0,L|196:169,1,59.6750018211365,2|0,3:2|0:0,0:0:0:0:
239,71,30506,1,2,0:0:0:0:
372,285,30682,1,10,0:0:0:0:
374,86,30859,1,0,3:0:0:0:
196,170,31035,1,2,0:0:0:0:
424,190,31212,1,2,0:0:0:0:
302,346,31388,1,6,3:2:0:0:
302,346,31477,1,0,0:0:0:0:
302,346,31565,5,0,0:0:0:0:
137,239,31741,1,2,1:2:0:0:
306,159,31918,1,2,1:2:0:0:
176,384,32094,1,10,0:0:0:0:
326,254,32271,1,2,0:0:0:0:
131,141,32447,1,2,3:2:0:0:
223,313,32624,1,2,0:0:0:0:
306,159,32800,6,0,P|306:92|343:46,1,119.350003642273,4|0,0:0|3:0,0:0:0:0:
306,159,33153,2,0,P|329:105|377:70,1,119.350003642273,4|0,0:0|1:0,0:0:0:0:
223,117,33506,6,0,P|209:167|235:220,1,119.350003642273,12|0,0:0|1:0,0:0:0:0:
223,117,33859,2,0,P|203:172|214:230,1,119.350003642273,12|8,0:0|0:0,0:0:0:0:
143,28,34212,5,4,3:2:0:0:
134,250,35094,5,2,0:0:0:0:
214,230,35271,2,0,P|196:196|165:174,1,75.94999768219,2|0,0:0|0:0,0:0:0:0:
54,272,35624,2,0,P|71:304|101:326,1,75.94999768219,2|0,0:0|0:0,0:0:0:0:
200,319,35977,2,0,P|235:330|259:358,1,75.94999768219,2|0,0:0|0:0,0:0:0:0:
346,285,36329,6,0,P|344:247|359:213,1,75.94999768219,2|0,0:0|0:0,0:0:0:0:
439,153,36682,2,0,P|455:186|453:224,1,75.94999768219,2|0,0:0|0:0,0:0:0:0:
423,351,37035,1,2,0:0:0:0:
69,130,37918,5,0,0:0:0:0:
36,70,38094,1,0,0:0:0:0:
69,10,38271,1,0,0:0:0:0:
141,72,38447,5,2,0:0:0:0:
161,155,38623,1,0,0:0:0:0:
102,216,38800,1,2,0:0:0:0:
161,277,38977,1,0,0:0:0:0:
295,216,39153,6,0,L|220:216,1,75.94999768219,2|0,0:0|0:0,0:0:0:0:
314,313,39506,1,0,0:0:0:0:
314,313,39682,1,0,0:0:0:0:
390,198,39859,1,0,0:0:0:0:
234,69,40741,5,2,0:0:0:0:
255,141,40918,1,0,0:0:0:0:
306,85,41094,1,2,0:0:0:0:
162,52,41271,6,0,P|148:108|148:164,1,113.924996523285,2|0,0:0|0:0,0:0:0:0:
148,164,41624,2,0,P|161:219|161:275,1,113.924996523285,0|0,0:0|0:0,0:0:0:0:
169,295,41977,2,0,P|160:331|163:369,1,75.94999768219,2|0,0:0|0:0,0:0:0:0:
51,249,42329,6,0,P|48:211|57:174,1,75.94999768219
147,164,42682,2,0,P|143:88|103:25,1,151.89999536438,2|0,0:0|0:0,0:0:0:0:
57,174,43212,1,2,0:0:0:0:
281,278,43565,53,0,0:0:0:0:
199,306,43741,1,2,0:0:0:0:
147,164,43918,1,0,0:0:0:0:
214,220,44094,1,2,0:0:0:0:
117,335,44271,1,2,0:0:0:0:
133,250,44447,1,2,0:0:0:0:
281,278,44624,1,2,0:0:0:0:
51,265,44800,6,0,L|74:115,1,151.89999536438,2|0,0:0|0:0,0:0:0:0:
147,164,45329,1,2,0:0:0:0:
283,26,45506,5,4,1:2:0:0:
371,169,45682,1,0,0:0:0:0:
361,191,45770,1,0,0:0:0:0:
352,214,45858,1,0,0:0:0:0:
274,104,46035,5,0,1:0:0:0:
186,247,46211,1,0,0:0:0:0:
196,269,46299,1,0,0:0:0:0:
205,292,46387,1,0,0:0:0:0:
371,325,46565,1,0,1:0:0:0:
361,347,46653,1,0,0:0:0:0:
352,370,46741,1,0,0:0:0:0:
196,370,46918,5,4,1:2:0:0:
108,227,47094,1,0,0:0:0:0:
118,204,47182,1,0,0:0:0:0:
127,182,47270,1,0,0:0:0:0:
205,292,47447,5,0,1:0:0:0:
293,149,47623,1,0,0:0:0:0:
283,127,47711,1,0,0:0:0:0:
274,104,47799,1,0,0:0:0:0:
108,71,47977,1,0,1:0:0:0:
118,49,48065,1,0,0:0:0:0:
127,26,48153,1,0,0:0:0:0:
108,227,48329,5,4,1:2:0:0:
251,315,48505,1,0,0:0:0:0:
274,305,48593,1,0,0:0:0:0:
296,296,48681,1,0,0:0:0:0:
186,218,48858,5,0,1:0:0:0:
329,130,49034,1,0,0:0:0:0:
351,140,49124,1,0,0:0:0:0:
374,149,49212,1,0,0:0:0:0:
407,315,49388,1,0,1:0:0:0:
429,305,49476,1,0,0:0:0:0:
452,296,49564,1,0,0:0:0:0:
452,158,49741,5,4,1:2:0:0:
309,246,49917,1,0,0:0:0:0:
286,236,50005,1,0,0:0:0:0:
264,227,50093,1,0,0:0:0:0:
374,149,50270,5,0,1:0:0:0:
231,61,50446,1,0,0:0:0:0:
209,71,50534,1,0,0:0:0:0:
186,80,50624,1,0,0:0:0:0:
153,246,50800,5,0,1:0:0:0:
102,93,50977,1,0,1:0:0:0:
56,308,51153,6,0,L|42:200,1,108.5,4|0,1:2|0:0,0:0:0:0:
277,184,51506,2,0,L|291:76,1,108.5,0|0,1:0|0:0,0:0:0:0:
153,246,51859,2,0,L|140:138,1,108.5,0|0,1:0|0:0,0:0:0:0:
374,122,52212,2,0,L|387:14,1,108.5,4|0,1:2|0:0,0:0:0:0:
389,251,52565,5,4,1:2:0:0:
374,122,52741,1,0,0:0:0:0:
384,272,52918,1,0,1:0:0:0:
477,101,53094,1,0,0:0:0:0:
263,76,53271,6,0,L|154:79,1,108.5,0|0,1:0|0:0,0:0:0:0:
384,272,53624,2,0,L|492:268,1,108.5,4|0,1:2|0:0,0:0:0:0:
95,353,53977,5,4,1:2:0:0:
154,78,54153,1,0,1:0:0:0:
296,333,54329,1,0,1:0:0:0:
18,260,54506,1,0,1:0:0:0:
240,70,54682,1,0,1:0:0:0:
198,357,54859,1,0,1:0:0:0:
68,86,55035,1,2,1:2:0:0:
0,384,55212,1,2,0:2:0:0:
311,26,55741,6,0,P|319:52|311:78,1,54.25,2|0,0:1|0:0,0:0:0:0:
231,322,55918,2,0,P|210:302|203:274,1,56.9624982616425,2|0,0:1|0:0,0:0:0:0:
121,36,56094,2,0,P|149:43|170:64,1,59.6750018211365,2|0,0:1|0:0,0:0:0:0:
380,204,56271,2,0,P|350:212|320:203,1,62.3875011899472,2|0,0:1|0:0,0:0:0:0:
73,220,56447,2,0,P|105:219|132:203,1,65.0999980133057,2|0,0:1|0:0,0:0:0:0:
406,100,56624,2,0,P|376:83|343:82,1,67.8125,2|0,0:1|0:0,0:0:0:0:
34,0,56800,1,4,3:2:0:0:
406,100,57153,6,0,L|403:235,1,135.625,2|0,0:0|0:0,0:0:0:0:
106,100,57506,2,0,L|108:241,1,141.049993543244,10|0,0:0|0:0,0:0:0:0:
431,102,57859,2,0,L|403:246,1,146.475000558758,2|0,3:2|0:0,0:0:0:0:
79,102,58212,2,0,L|108:251,1,151.89999536438,2|0,0:0|3:0,0:0:0:0:
457,110,58565,2,0,L|401:257,1,157.325004801178,2|0,3:2|0:0,0:0:0:0:
52,110,58918,2,0,L|110:262,1,162.75000620842,10|0,0:0|3:0,0:0:0:0:
401,257,59271,5,2,0:0:0:0:
257,345,59447,1,2,0:0:0:0:
192,39,59624,2,0,P|154:94|153:161,1,135.625,4|0,3:2|0:0,0:0:0:0:
264,214,59977,1,0,0:0:0:0:
271,83,60153,1,0,0:0:0:0:
377,338,60329,5,10,0:0:0:0:
482,101,60506,1,2,0:0:0:0:
361,239,60682,1,2,3:2:0:0:
494,75,60859,1,2,0:0:0:0:
177,169,61035,2,0,P|152:106|167:41,1,135.625,2|0,0:0|3:0,0:0:0:0:
187,256,61388,6,0,P|220:251|245:228,1,67.8125,2|0,3:1|0:0,0:0:0:0:
329,8,61565,2,0,P|351:32|357:65,1,67.8125,2|0,0:1|0:0,0:0:0:0:
418,328,61741,2,0,P|412:295|389:270,1,67.8125,10|0,0:1|0:0,0:0:0:0:
177,169,61918,2,0,P|201:146|234:140,1,67.8125,2|0,0:1|0:0,0:0:0:0:
456,103,62094,2,0,P|450:135|427:160,1,67.8125,2|0,3:1|0:0,0:0:0:0:
320,361,62271,2,0,P|297:336|291:303,1,67.8125,2|0,0:1|0:0,0:0:0:0:
274,69,62447,6,0,P|175:28|68:48,1,219.712500838137,4|0,3:2|0:0,0:0:0:0:
108,189,62800,6,0,B|90:146|90:146|179:169,1,135.625,2|0,0:0|3:0,0:0:0:0:
164,312,63153,2,0,B|113:315|113:315|160:238,1,141.049993543244,10|0,0:0|0:0,0:0:0:0:
305,287,63506,2,0,B|291:341|291:341|233:271,1,146.475000558758,2|0,3:2|0:0,0:0:0:0:
313,147,63859,2,0,B|363:178|363:178|277:212,1,151.89999536438,2|0,0:0|3:0,0:0:0:0:
179,94,64212,2,0,B|226:52|226:52|232:147,1,157.325004801178,0|0,3:0|0:0,0:0:0:0:
91,208,64565,2,0,B|66:146|66:146|160:170,1,162.75000620842,8|0,0:0|3:0,0:0:0:0:
232,270,64918,6,0,L|241:349,1,67.8125,0|0,0:0|0:0,0:0:0:0:
312,146,65094,2,0,L|320:78,1,67.8125,0|0,0:0|0:0,0:0:0:0:
373,338,65271,1,4,3:2:0:0:
232,270,65447,1,0,0:0:0:0:
444,203,65624,1,0,0:0:0:0:
248,193,65800,1,0,0:0:0:0:
471,1,65977,5,8,0:0:0:0:
455,229,66153,1,0,0:0:0:0:
226,183,66329,1,0,3:0:0:0:
437,78,66506,1,0,0:0:0:0:
178,250,66682,6,0,P|142:194|159:130,1,135.625,2|0,0:0|3:0,0:0:0:0:
352,195,67035,2,0,L|361:259,1,54.25,2|0,3:0|0:0,0:0:0:0:
270,301,67212,2,0,L|261:365,1,54.25,2|0,0:0|0:0,0:0:0:0:
386,49,67388,6,0,L|395:116,1,67.8125,8|0,0:0|0:0,0:0:0:0:
509,182,67565,2,0,L|499:249,1,67.8125,2|0,1:2|0:0,0:0:0:0:
499,24,67741,1,2,1:2:0:0:
352,195,67918,1,2,1:2:0:0:
333,152,68006,1,0,0:0:0:0:
293,127,68094,6,0,P|257:120|221:126,1,73.2375002793789,6|0,3:2|0:0,0:0:0:0:
204,42,68271,2,0,P|170:56|144:82,1,73.2375002793789,2|0,0:0|0:0,0:0:0:0:
63,71,68447,2,0,P|70:106|64:142,1,73.2375002793789,2|0,0:0|0:0,0:0:0:0:
149,159,68624,2,0,P|134:192|108:218,1,73.2375002793789,2|0,0:0|0:0,0:0:0:0:
1,345,68800,5,8,0:0:0:0:
260,384,69153,1,0,3:0:0:0:
291,292,69329,1,0,0:0:0:0:
345,373,69506,5,4,0:0:0:0:
406,122,69682,2,0,L|441:283,1,146.475000558758,0|0,3:0|3:0,0:0:0:0:
512,51,70035,5,4,0:0:0:0:
276,214,70212,2,0,L|241:375,1,146.475000558758,8|0,0:0|3:0,0:0:0:0:
239,72,70565,2,0,P|155:29|71:71,1,195.299994039917,0|0,0:0|0:0,0:0:0:0:
138,180,70918,6,0,P|153:147|155:110,1,73.2375002793789,6|0,3:2|0:0,0:0:0:0:
71,239,71094,2,0,P|55:206|53:169,1,73.2375002793789,2|0,0:0|0:0,0:0:0:0:
164,256,71271,2,0,P|148:288|146:325,1,73.2375002793789,2|0,0:0|0:0,0:0:0:0:
231,197,71447,2,0,P|246:229|248:266,1,73.2375002793789,2|0,0:0|0:0,0:0:0:0:
359,368,71624,5,8,0:0:0:0:
288,95,71977,1,0,3:0:0:0:
319,187,72153,1,0,0:0:0:0:
373,106,72330,5,4,0:0:0:0:
274,345,72506,2,0,L|231:180,1,146.475000558758,0|0,3:0|3:0,0:0:0:0:
174,368,72859,5,4,0:0:0:0:
288,95,73035,1,8,0:0:0:0:
77,226,73212,5,0,0:0:0:0:
425,173,73388,1,0,0:0:0:0:
510,140,73741,5,4,3:2:0:0:
372,280,73918,1,0,1:0:0:0:
314,246,74006,1,0,1:0:0:0:
273,192,74094,1,0,1:0:0:0:
256,127,74182,1,0,1:0:0:0:
266,60,74270,5,0,1:0:0:0:
157,228,74447,2,0,P|150:161|104:114,1,135.625,8|0,0:0|0:0,0:0:0:0:
84,279,74800,6,0,P|69:248|71:215,1,67.8125,0|0,3:0|0:0,0:0:0:0:
181,308,74977,2,0,P|183:342|170:373,1,67.8125,0|0,0:0|0:0,0:0:0:0:
42,366,75153,1,4,0:0:0:0:
227,118,75329,6,0,L|246:252,1,135.625,0|0,3:0|3:0,0:0:0:0:
333,356,75682,1,4,0:0:0:0:
359,135,75859,2,0,L|378:0,1,135.625,8|0,0:0|3:0,0:0:0:0:
405,257,76212,6,0,P|389:321|333:357,1,135.625,0|0,0:0|0:0,0:0:0:0:
425,165,76565,1,2,1:2:0:0:
483,198,76653,1,2,1:2:0:0:
500,261,76741,1,2,1:2:0:0:
317,268,76918,6,0,P|311:234|317:201,1,67.8125,2|0,0:1|0:0,0:0:0:0:
457,56,77094,2,0,P|478:81|489:113,1,67.8125,2|0,0:1|0:0,0:0:0:0:
493,344,77271,2,0,P|461:332|436:310,1,67.8125,10|0,0:1|0:0,0:0:0:0:
334,110,77447,2,0,P|303:94|270:91,1,67.8125,2|0,0:1|0:0,0:0:0:0:
275,335,77624,2,0,P|305:350|338:353,1,67.8125,2|0,3:1|0:0,0:0:0:0:
411,133,77800,1,2,3:1:0:0:
139,251,77977,6,0,P|218:191|317:200,1,203.4375,0|0,0:0|0:0,0:0:0:0:
364,278,78329,6,0,B|411:177|411:177|469:281,1,227.84999304657,2|0,0:0|0:0,0:0:0:0:
464,291,78682,2,0,B|411:194|411:194|364:295,1,219.712500838137,2|0,0:0|0:0,0:0:0:0:
366,304,79035,2,0,B|411:210|411:210|462:304,1,211.574990314866,2|0,0:0|0:0,0:0:0:0:
460,317,79388,1,0,0:0:0:0:
200,336,79742,5,8,0:3:0:0:
259,195,79918,1,8,0:3:0:0:
252,275,80271,1,8,0:3:0:0:
220,125,80447,1,8,0:3:0:0:
100,266,80800,5,8,0:3:0:0:
120,55,80977,1,8,0:3:0:0:
14,172,81153,5,0,0:0:0:0:
220,125,81330,1,8,0:3:0:0:
63,347,81506,1,0,0:0:0:0:
105,353,81594,1,0,0:0:0:0:
146,340,81682,1,8,0:3:0:0:
177,311,81770,1,0,0:0:0:0:
192,270,81859,5,0,0:0:0:0:
193,286,81947,1,0,0:0:0:0:
195,302,82035,1,0,0:0:0:0:
197,318,82123,1,0,0:0:0:0:
207,354,82212,2,0,P|312:331|414:363,1,217,0|2,3:0|0:0,0:0:0:0:
488,254,82741,1,0,0:0:0:0:
308,64,83094,5,0,0:0:0:0:
371,188,83271,1,2,3:2:0:0:
294,150,83447,1,0,0:0:0:0:
459,48,83624,1,2,0:0:0:0:
488,254,83800,1,0,3:0:0:0:
294,150,83977,1,2,3:2:0:0:
308,64,84153,1,0,0:0:0:0:
202,259,84329,5,10,0:0:0:0:
202,95,84506,1,0,3:0:0:0:
171,341,84682,1,2,0:0:0:0:
171,177,84859,1,0,0:0:0:0:
318,311,85035,2,0,L|447:317,2,108.5,2|2|0,3:2|0:0|0:0,0:0:0:0:
294,150,85565,5,2,0:0:0:0:
355,185,85653,1,2,0:0:0:0:
294,221,85741,1,10,0:0:0:0:
425,39,85918,5,0,0:0:0:0:
479,106,86094,1,2,3:2:0:0:
484,192,86271,1,0,0:0:0:0:
339,25,86447,2,0,L|230:19,2,108.5,2|2|0,0:0|3:2|3:0,0:0:0:0:
294,221,86977,1,0,0:0:0:0:
142,54,87153,2,0,L|149:129,1,54.25,10|0,0:0|0:0,0:0:0:0:
89,244,87329,2,0,L|96:169,1,54.25,2|0,0:0|0:0,0:0:0:0:
291,92,87506,6,0,P|302:155|293:220,1,130.2,2|0,0:0|0:0,0:0:0:0:
236,272,87859,1,0,3:0:0:0:
94,118,88035,5,2,1:2:0:0:
155,153,88123,1,0,1:0:0:0:
94,189,88211,1,2,0:0:0:0:
236,343,88388,5,2,1:2:0:0:
175,308,88476,1,0,1:0:0:0:
236,272,88564,1,10,0:0:0:0:
76,289,88741,1,4,0:0:0:0:
327,106,88918,6,0,P|241:167|236:272,1,217,6|0,3:2|0:0,0:0:0:0:
410,138,89447,1,2,3:2:0:0:
403,62,89535,1,0,0:0:0:0:
339,20,89624,1,2,3:2:0:0:
151,185,89800,1,2,0:0:0:0:
158,109,89888,1,0,0:0:0:0:
222,67,89977,1,10,0:0:0:0:
359,236,90153,1,6,3:2:0:0:
158,109,90329,6,0,P|73:160|114:250,1,217,6|0,0:0|3:0,0:0:0:0:
341,257,90859,1,2,0:0:0:0:
316,284,90947,1,2,0:0:0:0:
291,257,91035,1,2,0:0:0:0:
260,294,91124,1,2,0:0:0:0:
220,250,91212,1,2,0:0:0:0:
175,303,91300,1,2,0:0:0:0:
114,250,91388,5,10,0:2:0:0:
222,67,91565,1,2,0:2:0:0:
299,360,91741,1,2,3:2:0:0:
404,121,91918,1,2,0:2:0:0:
126,65,92094,6,0,P|115:91|113:118,1,54.25,6|0,0:2|0:0,0:0:0:0:
32,119,92271,2,0,P|35:145|47:170,1,54.25,2|0,3:2|0:0,0:0:0:0:
125,197,92447,2,0,P|135:222|137:249,1,54.25,2|0,3:2|0:0,0:0:0:0:
219,250,92624,2,0,P|215:276|203:301,1,54.25,2|0,0:2|0:0,0:0:0:0:
5,281,92800,6,0,P|26:256|56:247,1,65.0999980133057,8|0,0:0|0:0,0:0:0:0:
125,197,92977,2,0,P|151:178|183:177,1,65.0999980133057,8|0,0:0|0:0,0:0:0:0:
262,148,93153,2,0,P|292:137|323:144,1,65.0999980133057,8|0,0:0|0:0,0:0:0:0:
405,135,93329,2,0,P|437:131|466:147,1,65.0999980133057,8|0,0:0|0:0,0:0:0:0:
392,334,93506,6,0,P|365:274|367:212,1,130.199996026611,2|0,3:2|0:0,0:0:0:0:
484,45,93859,2,0,P|419:42|361:70,1,130.199996026611,6|0,0:0|0:0,0:0:0:0:
323,144,94124,5,0,0:0:0:0:
131,0,94388,1,0,0:0:0:0:
192,55,94477,2,0,P|203:118|184:179,1,130.199996026611,2|0,0:0|0:0,0:0:0:0:
63,80,94741,5,2,0:0:0:0:
124,115,94829,1,2,0:0:0:0:
63,151,94918,2,0,P|52:214|71:275,1,130.199996026611,2|0,0:0|3:0,0:0:0:0:
183,180,95182,2,0,P|194:243|175:304,1,130.199996026611,2|0,0:0|0:0,0:0:0:0:
109,358,95447,1,2,0:0:0:0:
292,173,95624,6,0,P|355:186|390:239,1,130.199996026611,10|0,0:0|3:0,0:0:0:0:
400,331,95888,2,0,P|337:317|302:264,1,130.199996026611,2|0,0:0|0:0,0:0:0:0:
463,276,96153,1,2,0:0:0:0:
348,109,96329,6,0,P|288:86|230:111,1,130.199996026611,2|0,3:2|0:0,0:0:0:0:
109,358,96682,2,0,P|143:269|100:185,1,195.299994039917,6|0,0:0|0:0,0:0:0:0:
40,275,97035,1,8,0:0:0:0:
20,117,97212,1,0,0:0:0:0:
75,56,97301,2,0,P|138:45|199:64,1,130.199996026611,2|0,0:0|0:0,0:0:0:0:
100,185,97565,5,2,0:0:0:0:
135,124,97653,1,2,0:0:0:0:
171,185,97742,2,0,P|234:196|295:177,1,130.199996026611,2|0,0:0|3:0,0:0:0:0:
200,65,98006,2,0,P|263:54|324:73,1,130.199996026611,2|0,0:0|0:0,0:0:0:0:
378,139,98271,5,2,0:0:0:0:
442,65,98359,1,2,0:0:0:0:
487,151,98447,1,10,0:0:0:0:
430,302,98624,5,0,0:0:0:0:
417,264,98712,1,0,0:0:0:0:
423,225,98800,1,0,0:0:0:0:
189,266,99153,5,0,3:0:0:0:
233,146,99329,1,2,0:0:0:0:
298,327,99506,1,2,0:0:0:0:
152,185,99682,1,2,0:0:0:0:
446,59,99859,6,0,P|465:110|458:163,1,108.5,10|0,0:0|0:0,0:0:0:0:
433,194,100124,1,0,0:0:0:0:
433,194,100212,1,2,3:2:0:0:
324,83,100388,1,0,0:0:0:0:
217,346,100565,1,6,0:0:0:0:
250,133,100741,6,0,L|238:199,1,54.25,0|0,0:0|0:0,0:0:0:0:
152,185,100918,2,0,L|161:131,1,54.25,2|0,3:2|0:0,0:0:0:0:
324,83,101094,1,2,0:0:0:0:
462,368,101271,5,10,0:0:0:0:
217,346,101447,1,0,3:0:0:0:
365,289,101624,1,2,0:0:0:0:
152,185,101800,1,0,0:0:0:0:
341,62,101977,6,0,P|364:110|362:163,1,108.5,6|0,3:2|0:0,0:0:0:0:
226,252,102329,1,2,0:0:0:0:
452,207,102506,1,2,0:0:0:0:
182,29,102682,6,0,P|128:26|79:49,1,108.5,10|0,0:0|0:0,0:0:0:0:
56,81,102947,1,0,0:0:0:0:
56,81,103035,1,2,3:2:0:0:
226,252,103212,1,0,0:0:0:0:
335,46,103388,6,0,P|351:68|353:95,1,54.25,6|0,0:0|0:0,0:0:0:0:
440,92,103565,2,0,P|442:118|430:142,1,54.25,0|2,0:0|0:0,0:0:0:0:
267,99,103741,6,0,P|250:123|248:152,1,59.6750018211365,0|0,0:0|0:0,0:0:0:0:
151,157,103918,2,0,P|148:186|161:212,1,59.6750018211365,0|0,0:0|0:0,0:0:0:0:
374,229,104094,6,0,P|359:198|331:178,1,67.8125,8|0,0:0|0:0,0:0:0:0:
298,369,104271,2,0,P|300:334|285:304,1,67.8125,8|0,0:0|0:0,0:0:0:0:
64,90,104447,6,0,P|54:124|64:159,1,73.2375002793789,8|0,0:0|0:0,0:0:0:0:
224,27,104624,2,0,P|198:52|189:87,1,73.2375002793789,8|0,0:0|0:0,0:0:0:0:
376,312,104800,1,4,3:2:0:0:
377,123,105682,5,2,0:0:0:0:
297,143,105859,2,0,P|315:177|346:199,1,75.94999768219,2|0,0:0|0:0,0:0:0:0:
457,101,106212,2,0,P|440:69|410:47,1,75.94999768219,2|0,0:0|0:0,0:0:0:0:
312,51,106565,2,0,P|276:39|252:10,1,75.94999768219,2|0,0:0|0:0,0:0:0:0:
159,105,106917,6,0,P|161:142|145:177,1,75.94999768219,2|0,0:0|0:0,0:0:0:0:
67,238,107270,2,0,P|50:204|53:166,1,75.94999768219,2|0,0:0|0:0,0:0:0:0:
83,40,107623,1,2,0:0:0:0:
107,331,108505,5,2,0:0:0:0:
107,255,108682,1,2,0:0:0:0:
172,293,108858,1,0,0:0:0:0:
248,120,109035,5,2,0:0:0:0:
248,208,109212,1,0,0:0:0:0:
336,209,109388,1,2,0:0:0:0:
336,121,109565,1,0,0:0:0:0:
336,297,109741,2,0,L|336:401,1,75.94999768219,2|0,0:0|0:0,0:0:0:0:
432,281,110094,1,0,0:0:0:0:
432,281,110271,1,0,0:0:0:0:
456,86,110447,6,0,P|431:134|431:187,1,108.5,4|0,1:2|0:0,0:0:0:0:
336,121,110800,2,0,P|335:67|311:19,1,108.5,0|0,1:0|0:0,0:0:0:0:
219,199,111153,2,0,P|219:145|243:97,1,108.5,0|0,1:0|0:0,0:0:0:0:
328,208,111506,2,0,P|311:259|273:297,1,108.5,4|0,1:2|0:0,0:0:0:0:
101,223,111859,5,4,1:2:0:0:
147,360,112035,1,0,0:0:0:0:
219,199,112212,1,0,1:0:0:0:
138,378,112388,1,0,0:0:0:0:
66,146,112565,6,0,L|66:37,1,108.5,0|0,1:0|0:0,0:0:0:0:
328,99,112918,2,0,L|328:207,1,108.5,4|0,1:2|0:0,0:0:0:0:
146,358,113271,5,4,1:2:0:0:
142,40,113447,1,0,1:0:0:0:
327,294,113624,1,0,1:0:0:0:
29,197,113800,1,0,1:0:0:0:
328,99,113976,5,0,1:0:0:0:
299,153,114065,1,0,1:0:0:0:
242,176,114153,1,0,1:0:0:0:
184,156,114241,1,0,1:0:0:0:
152,104,114329,1,2,1:2:0:0:
120,51,114418,1,2,0:0:0:0:
62,32,114506,1,2,0:2:0:0:
5,54,114594,1,2,0:0:0:0:
512,238,115035,6,0,L|424:230,1,54.25,2|0,0:1|0:0,0:0:0:0:
301,83,115212,2,0,L|357:77,1,56.9624982616425,2|0,0:1|0:0,0:0:0:0:
300,314,115388,2,0,L|305:254,1,59.6750018211365,2|0,0:1|0:0,0:0:0:0:
211,83,115565,2,0,L|146:77,1,62.3875011899472,2|0,0:1|0:0,0:0:0:0:
212,314,115741,2,0,L|205:245,1,65.0999980133057,2|0,0:1|0:0,0:0:0:0:
0,238,115918,2,0,L|88:230,1,67.8125,2|0,0:1|0:0,0:0:0:0:
402,155,116094,1,4,3:2:0:0:
64,96,116447,6,0,L|67:231,1,135.625,2|0,0:0|0:0,0:0:0:0:
364,96,116800,2,0,L|362:237,1,141.049993543244,10|0,0:0|0:0,0:0:0:0:
39,98,117153,2,0,L|67:242,1,146.475000558758,2|0,3:2|0:0,0:0:0:0:
391,98,117506,2,0,L|362:247,1,151.89999536438,2|0,0:0|3:0,0:0:0:0:
13,106,117859,2,0,L|69:253,1,157.325004801178,2|0,3:2|0:0,0:0:0:0:
418,106,118212,2,0,L|360:258,1,162.75000620842,10|0,0:0|3:0,0:0:0:0:
69,253,118565,5,2,0:0:0:0:
185,89,118741,1,2,0:0:0:0:
310,351,118918,2,0,P|288:287|233:249,1,135.625,4|0,3:2|0:0,0:0:0:0:
69,253,119271,1,0,0:0:0:0:
197,345,119447,1,0,0:0:0:0:
298,72,119624,5,10,0:0:0:0:
359,258,119800,1,2,0:0:0:0:
435,12,119977,1,2,3:2:0:0:
356,278,120153,1,2,0:0:0:0:
220,28,120329,2,0,L|214:163,1,135.625,2|0,0:0|3:0,0:0:0:0:
73,317,120682,6,0,P|85:286|113:268,1,67.8125,2|0,3:1|0:0,0:0:0:0:
254,212,120859,2,0,P|241:180|213:162,1,67.8125,2|0,0:1|0:0,0:0:0:0:
257,383,121035,2,0,P|228:365|216:333,1,67.8125,10|0,0:1|0:0,0:0:0:0:
356,278,121212,2,0,P|384:260|396:228,1,67.8125,2|0,0:1|0:0,0:0:0:0:
254,114,121388,2,0,P|225:131|213:163,1,67.8125,2|0,3:1|0:0,0:0:0:0:
353,9,121565,2,0,P|381:26|393:58,1,67.8125,2|0,0:1|0:0,0:0:0:0:
357,277,121741,6,0,B|179:256|179:256|238:207,1,219.712500838137,4|0,3:2|0:0,0:0:0:0:
357,277,122094,6,0,B|400:290|400:290|370:204,1,135.625,2|0,0:0|3:0,0:0:0:0:
225,232,122447,2,0,B|225:282|225:282|298:229,1,141.049993543244,10|0,0:0|0:0,0:0:0:0:
238,88,122800,2,0,B|184:106|184:106|259:158,1,146.475000558758,2|0,3:2|0:0,0:0:0:0:
378,68,123153,2,0,B|341:20|341:20|315:109,1,151.89999536438,2|0,0:0|3:0,0:0:0:0:
442,198,123506,2,0,B|479:147|479:147|384:149,1,157.325004801178,0|0,3:0|0:0,0:0:0:0:
337,294,123859,2,0,B|400:313|400:313|368:221,1,162.75000620842,8|0,0:0|3:0,0:0:0:0:
260,228,124212,6,0,L|192:220,1,67.8125,2|0,0:0|0:0,0:0:0:0:
384,148,124388,2,0,L|452:140,1,67.8125,2|0,0:0|0:0,0:0:0:0:
337,294,124565,1,4,3:2:0:0:
276,106,124741,1,0,0:0:0:0:
451,140,124918,1,0,0:0:0:0:
260,228,125094,1,0,0:0:0:0:
447,11,125271,5,8,0:0:0:0:
481,257,125447,1,0,0:0:0:0:
276,106,125624,1,0,3:0:0:0:
451,140,125800,1,0,0:0:0:0:
235,33,125977,2,0,P|191:82|200:148,1,135.625,2|0,0:0|3:0,0:0:0:0:
352,195,126329,6,0,L|361:259,1,54.25,0|0,3:0|0:0,0:0:0:0:
270,301,126506,2,0,L|261:365,1,54.25,0|0,0:0|0:0,0:0:0:0:
51,107,126682,6,0,L|60:174,1,67.8125,8|0,0:0|0:0,0:0:0:0:
174,240,126859,2,0,L|164:307,1,67.8125,2|0,1:2|0:0,0:0:0:0:
27,363,127035,1,2,1:2:0:0:
199,147,127212,1,2,1:2:0:0:
228,110,127300,1,0,0:0:0:0:
273,96,127388,6,0,P|309:98|342:113,1,73.2375002793789,6|0,3:2|0:0,0:0:0:0:
381,37,127565,2,0,P|410:59|428:91,1,73.2375002793789,2|0,0:0|0:0,0:0:0:0:
510,102,127741,2,0,P|494:133|490:170,1,73.2375002793789,2|0,0:0|0:0,0:0:0:0:
404,164,127918,2,0,P|409:199|428:231,1,73.2375002793789,2|0,0:0|0:0,0:0:0:0:
499,382,128094,5,8,0:0:0:0:
242,352,128447,1,0,3:0:0:0:
211,260,128623,1,0,0:0:0:0:
157,341,128800,5,4,0:0:0:0:
96,90,128976,2,0,L|61:251,1,146.475000558758,0|0,3:0|3:0,0:0:0:0:
157,341,129329,5,4,0:0:0:0:
244,48,129505,2,0,L|279:209,1,146.475000558758,8|0,0:0|3:0,0:0:0:0:
417,371,129859,2,0,P|333:325|241:351,1,195.299994039917,0|0,0:0|0:0,0:0:0:0:
211,260,130212,6,0,P|191:228|183:193,1,73.2375002793789,6|0,3:2|0:0,0:0:0:0:
275,191,130388,2,0,P|294:159|302:124,1,73.2375002793789,2|0,0:0|0:0,0:0:0:0:
130,126,130565,2,0,P|110:157|102:192,1,73.2375002793789,2|0,0:0|0:0,0:0:0:0:
194,57,130741,2,0,P|213:88|221:123,1,73.2375002793789,2|0,0:0|0:0,0:0:0:0:
241,351,130918,5,8,0:0:0:0:
18,60,131271,1,0,3:0:0:0:
41,154,131447,1,0,0:0:0:0:
101,77,131624,5,4,0:0:0:0:
140,333,131800,2,0,L|188:175,1,146.475000558758,0|0,3:0|3:0,0:0:0:0:
241,351,132153,5,4,0:0:0:0:
41,154,132329,1,8,0:0:0:0:
305,97,132506,5,0,0:0:0:0:
49,339,132682,1,0,0:0:0:0:
140,333,133035,5,4,3:2:0:0:
140,154,133212,2,0,L|136:198,1,27.125,0|0,1:0|0:0,0:0:0:0:
221,178,133388,2,0,L|217:222,1,27.125,0|0,1:0|0:0,0:0:0:0:
56,205,133565,2,0,L|54:178,1,27.125,0|0,1:0|0:0,0:0:0:0:
147,353,133741,6,0,L|294:347,1,146.475000558758,8|0,0:0|0:0,0:0:0:0:
66,336,134094,2,0,P|78:302|107:280,1,73.2375002793789,0|0,3:0|0:0,0:0:0:0:
375,335,134271,2,0,P|363:301|334:280,1,73.2375002793789,0|0,0:0|0:0,0:0:0:0:
218,205,134447,1,4,0:0:0:0:
429,167,134624,6,0,P|356:166|297:207,1,146.475000558758,0|0,3:0|3:0,0:0:0:0:
446,260,134977,1,4,0:0:0:0:
303,44,135153,2,0,P|237:13|166:25,1,146.475000558758,8|0,0:0|3:0,0:0:0:0:
106,206,135506,6,0,P|108:133|76:68,1,146.475000558758,0|0,0:0|0:0,0:0:0:0:
31,302,135859,1,2,1:2:0:0:
48,239,135947,1,2,1:2:0:0:
106,206,136035,1,2,1:2:0:0:
186,336,136212,6,0,P|150:329|129:300,1,73.2375002793789,2|0,0:1|0:0,0:0:0:0:
258,276,136388,2,0,P|293:282|314:311,1,73.2375002793789,2|0,0:1|0:0,0:0:0:0:
168,95,136565,2,0,P|174:59|203:38,1,73.2375002793789,10|0,0:1|0:0,0:0:0:0:
228,166,136741,2,0,P|221:201|192:222,1,73.2375002793789,2|0,0:1|0:0,0:0:0:0:
401,62,136918,2,0,P|436:68|457:97,1,73.2375002793789,2|0,3:1|0:0,0:0:0:0:
279,92,137094,1,2,3:1:0:0:
460,326,137271,6,0,P|415:229|311:205,1,219.712500838137,0|0,0:0|0:0,0:0:0:0:
258,276,137624,6,0,B|211:175|211:175|153:279,1,227.84999304657,2|0,3:2|0:0,0:0:0:0:
158,289,137977,2,0,B|211:192|211:192|258:293,1,219.712500838137,10|0,0:0|0:0,0:0:0:0:
256,302,138330,2,0,B|211:208|211:208|160:302,1,211.574990314866,2|0,3:2|0:0,0:0:0:0:
160,315,138682,1,0,0:0:0:0:
184,323,149977,5,4,1:2:0:0:
184,323,150506,1,0,1:0:0:0:
184,323,151035,1,2,1:2:0:0:
344,235,151388,5,6,1:2:0:0:
344,235,151917,1,2,1:2:0:0:
344,235,152446,1,2,1:2:0:0:
184,147,152800,5,6,1:2:0:0:
184,147,153329,1,2,1:2:0:0:
184,147,153858,1,0,1:0:0:0:
344,59,154212,5,6,1:2:0:0:
344,59,154741,1,2,1:2:0:0:
344,59,155270,1,2,1:2:0:0:
383,122,155447,1,0,1:0:0:0:
184,147,155624,5,6,1:2:0:0:
184,147,155977,1,0,1:0:0:0:
184,147,156329,1,0,1:0:0:0:
184,147,156682,1,0,1:0:0:0:
344,235,157035,5,6,1:2:0:0:
344,235,157388,1,0,1:1:0:0:
344,235,157740,1,0,0:0:0:0:
344,235,158093,1,2,1:2:0:0:
119,154,158447,5,6,1:2:0:0:
162,288,158624,1,0,1:0:0:0:
207,154,158800,1,0,1:0:0:0:
92,237,158977,1,0,1:0:0:0:
234,237,159153,1,2,1:2:0:0:
97,124,159329,5,0,1:0:0:0:
161,325,159506,1,0,1:0:0:0:
229,124,159682,1,0,1:0:0:0:
56,248,159859,1,6,1:2:0:0:
269,248,160035,1,0,1:0:0:0:
163,42,160211,5,0,1:0:0:0:
61,350,160388,1,0,1:0:0:0:
324,161,160564,1,2,1:2:0:0:
1,162,160741,1,0,1:0:0:0:
261,351,160917,1,0,1:0:0:0:
163,16,161094,1,0,1:0:0:0:
496,192,161624,5,0,0:0:0:0:
416,192,161801,1,0,0:0:0:0:
336,192,161977,1,0,0:0:0:0:
256,192,162153,1,0,0:0:0:0:
176,192,162330,1,0,0:0:0:0:
96,192,162506,1,0,0:0:0:0:
16,192,162682,1,0,0:0:0:0:
396,119,163035,6,0,L|452:127,1,54.25,2|0,0:1|0:0,0:0:0:0:
396,263,163212,2,0,L|452:254,1,56.9624982616425,2|0,0:1|0:0,0:0:0:0:
252,87,163388,6,0,L|301:119,1,59.6750018211365,2|0,0:1|0:0,0:0:0:0:
252,297,163565,2,0,L|304:262,1,62.3875011899472,2|0,0:1|0:0,0:0:0:0:
125,54,163741,6,0,L|159:109,1,65.0999980133057,2|0,0:1|0:0,0:0:0:0:
125,330,163918,2,0,L|160:272,1,67.8125,2|0,0:1|0:0,0:0:0:0:
26,25,164094,1,4,3:2:0:0:
396,119,164447,6,0,L|389:265,1,146.475000558758,2|0,0:0|0:0,0:0:0:0:
116,119,164800,2,0,L|123:286,1,168.175001283073,10|0,0:0|0:0,0:0:0:0:
417,88,165153,2,0,L|426:277,1,189.875001810789,2|0,3:2|0:0,0:0:0:0:
95,88,165506,2,0,L|84:299,1,211.575000807095,2|0,0:0|3:0,0:0:0:0:
447,66,165859,2,0,L|435:299,1,233.275003559494,2|0,3:2|0:0,0:0:0:0:
65,66,166212,2,0,L|77:320,1,254.97499610939,10|0,0:0|3:0,0:0:0:0:
337,302,166565,5,2,0:0:0:0:
66,340,166741,1,2,0:0:0:0:
285,68,166918,2,0,P|340:113|352:184,1,146.475000558758,4|0,3:2|0:0,0:0:0:0:
253,326,167271,1,0,0:0:0:0:
270,158,167447,1,0,0:0:0:0:
473,375,167624,5,10,0:0:0:0:
501,174,167800,1,2,0:0:0:0:
337,302,167977,1,2,3:2:0:0:
285,68,168153,1,2,0:0:0:0:
253,326,168329,2,0,P|266:256|327:219,1,146.475000558758,2|0,0:0|3:0,0:0:0:0:
114,64,168682,6,0,P|119:100|115:136,1,73.2375002793789,2|0,3:1|0:0,0:0:0:0:
27,297,168859,2,0,P|21:260|25:224,1,73.2375002793789,2|0,0:1|0:0,0:0:0:0:
225,66,169035,2,0,P|230:102|226:138,1,73.2375002793789,10|0,0:1|0:0,0:0:0:0:
138,298,169212,2,0,P|132:261|136:225,1,73.2375002793789,2|0,0:1|0:0,0:0:0:0:
335,67,169388,2,0,P|340:103|336:139,1,73.2375002793789,2|0,3:1|0:0,0:0:0:0:
248,299,169565,2,0,P|242:262|246:226,1,73.2375002793789,2|0,0:1|0:0,0:0:0:0:
440,52,169741,6,0,B|424:109|441:146|441:146|420:189|420:189|435:232|415:279,1,235.987507201767,4|0,3:2|0:0,0:0:0:0:
217,152,170094,6,0,P|251:89|320:73,1,146.475000558758,2|0,0:0|3:0,0:0:0:0:
323,246,170447,2,0,P|284:318|205:338,1,168.175001283073,10|0,0:0|0:0,0:0:0:0:
319,72,170800,2,0,P|411:69|473:137,1,189.875001810789,2|0,3:2|0:0,0:0:0:0:
205,338,171153,2,0,P|102:340|32:265,1,211.575000807095,2|0,0:2|3:0,0:0:0:0:
472,136,171506,2,0,P|530:232|497:340,1,233.275003559494,2|0,3:2|0:0,0:0:0:0:
32,265,171859,2,0,P|-32:159|2:40,1,254.97499610939,10|0,0:0|3:0,0:0:0:0:
130,242,172212,6,0,L|122:330,1,73.2375002793789,2|0,0:0|0:0,0:0:0:0:
226,155,172388,2,0,L|218:67,1,73.2375002793789,2|0,0:0|0:0,0:0:0:0:
317,332,172565,1,4,3:2:0:0:
377,178,172741,1,0,0:0:0:0:
217,338,172918,1,0,0:0:0:0:
142,151,173094,1,0,0:0:0:0:
430,259,173271,5,8,0:0:0:0:
217,338,173447,1,0,0:0:0:0:
252,116,173624,1,0,3:0:0:0:
310,242,173800,1,0,0:0:0:0:
414,26,173977,2,0,L|421:172,1,146.475000558758,2|0,0:0|3:0,0:0:0:0:
310,242,174329,6,0,P|310:210|320:181,1,62.3875011899472,0|0,3:0|0:0,0:0:0:0:
252,116,174506,2,0,P|251:84|241:55,1,62.3875011899472,0|0,0:0|0:0,0:0:0:0:
216,337,174682,6,0,P|205:303|204:266,1,73.2375002793789,8|0,0:0|0:0,0:0:0:0:
138,211,174859,2,0,P|149:176|150:139,1,73.2375002793789,2|0,1:2|0:0,0:0:0:0:
82,84,175035,1,2,1:2:0:0:
81,366,175212,1,2,1:2:0:0:
94,320,175300,1,0,0:0:0:0:
131,289,175388,6,0,P|166:273|205:277,1,78.6625024005891,6|0,3:2|0:0,0:0:0:0:
236,190,175565,2,0,P|272:203|296:234,1,78.6625024005891,2|0,0:0|0:0,0:0:0:0:
447,262,175741,2,0,P|411:277|372:273,1,78.6625024005891,2|0,0:0|0:0,0:0:0:0:
342,361,175918,2,0,P|305:347|281:316,1,78.6625024005891,2|0,0:0|0:0,0:0:0:0:
392,159,176094,5,8,0:0:0:0:
114,12,176447,1,0,3:0:0:0:
63,125,176623,1,0,0:0:0:0:
5,17,176800,5,4,0:0:0:0:
242,150,176977,2,0,P|315:174|391:158,1,157.325004801178,0|0,3:0|3:0,0:0:0:0:
6,204,177329,5,4,0:0:0:0:
243,71,177506,2,0,P|316:46|392:62,1,157.325004801178,8|0,0:0|3:0,0:0:0:0:
241,359,177859,2,0,B|237:286|253:230|253:230|240:193|242:133,1,211.574990314866,0|0,0:0|0:0,0:0:0:0:
332,184,178212,6,0,P|345:220|339:258,1,78.6625024005891,6|0,3:2|0:0,0:0:0:0:
170,101,178388,2,0,P|156:137|162:175,1,78.6625024005891,2|0,0:0|0:0,0:0:0:0:
72,307,178565,2,0,P|58:270|64:232,1,78.6625024005891,2|0,0:0|0:0,0:0:0:0:
234,224,178742,2,0,P|247:187|241:149,1,78.6625024005891,2|0,0:0|0:0,0:0:0:0:
0,0,178918,5,8,0:0:0:0:
285,337,179271,1,0,3:0:0:0:
234,224,179447,1,0,0:0:0:0:
176,332,179624,5,4,0:0:0:0:
293,114,179800,2,0,P|329:182|331:260,1,157.325004801178,0|0,3:0|3:0,0:0:0:0:
234,224,180153,5,4,0:0:0:0:
488,81,180329,1,8,0:0:0:0:
429,230,180506,5,0,0:0:0:0:
124,58,180682,1,0,0:0:0:0:
29,23,181035,5,4,3:2:0:0:
41,269,181212,1,0,1:0:0:0:
107,246,181300,1,0,1:0:0:0:
150,191,181388,1,0,1:0:0:0:
156,121,181476,1,0,1:0:0:0:
124,58,181564,5,0,1:0:0:0:
226,218,181741,2,0,P|199:289|129:321,1,157.325004801178,8|0,0:0|0:0,0:0:0:0:
240,139,182094,2,0,P|276:152|300:183,1,78.6625024005891,0|0,3:0|0:0,0:0:0:0:
314,325,182271,2,0,P|338:294|374:280,1,78.6625024005891,0|0,0:0|0:0,0:0:0:0:
505,317,182447,1,4,0:0:0:0:
455,89,182624,6,0,L|450:246,1,157.325004801178,0|0,3:0|3:0,0:0:0:0:
314,325,182977,1,4,0:0:0:0:
295,25,183153,2,0,L|299:182,1,157.325004801178,8|0,0:0|3:0,0:0:0:0:
148,51,183506,6,0,P|217:16|294:24,1,157.325004801178,0|0,0:0|0:0,0:0:0:0:
129,136,183859,1,2,1:2:0:0:
71,103,183947,1,2,1:2:0:0:
54,40,184035,1,2,1:2:0:0:
49,241,184212,6,0,P|85:225|124:230,1,78.6625024005891,2|0,0:1|0:0,0:0:0:0:
250,324,184388,2,0,P|214:339|175:334,1,78.6625024005891,2|0,0:1|0:0,0:0:0:0:
287,170,184565,2,0,P|325:178|354:203,1,78.6625024005891,10|0,0:1|0:0,0:0:0:0:
403,352,184741,2,0,P|364:343|335:318,1,78.6625024005891,2|0,0:1|0:0,0:0:0:0:
447,77,184918,2,0,P|462:112|457:151,1,78.6625024005891,2|0,3:1|0:0,0:0:0:0:
286,252,185094,1,2,3:1:0:0:
166,11,185271,6,0,P|247:35|285:172,1,235.987507201767,0|0,0:0|0:0,0:0:0:0:
152,173,185624,6,0,P|167:93|180:173,1,227.84999304657,2|0,0:0|0:0,0:0:0:0:
188,186,185977,2,0,P|166:110|145:187,1,211.574990314866,2|0,0:0|0:0,0:0:0:0:
138,201,186329,2,0,P|171:129|180:208,1,195.299994039917,2|0,0:0|0:0,0:0:0:0:
186,210,186682,1,2,0:0:0:0:
