osu file format v14

[General]
AudioFilename: audio.mp3
AudioLeadIn: 0
PreviewTime: -1
Countdown: 0
SampleSet: Soft
StackLeniency: 0.7
Mode: 2
LetterboxInBreaks: 0
WidescreenStoryboard: 1

[Editor]
DistanceSpacing: 4
BeatDivisor: 4
GridSize: 4
TimelineZoom: 1.6

[Metadata]
Title:POP/STARS (ft. Madison Beer, (G)I-DLE, Jaira Burns)
TitleUnicode:POP/STARS (ft. Madison Beer, (G)I-DLE, Jaira Burns)
Artist:K/DA
ArtistUnicode:K/DA
Creator:Bastian
Version:Rain
Source:Riot Games
Tags:Riot Music Team K-Pop Soyeon Miyeon KDA POPSTARS
BeatmapID:1995009
BeatmapSetID:954001

[Difficulty]
HPDrainRate:6
CircleSize:4
OverallDifficulty:9
ApproachRate:9
SliderMultiplier:1.8
SliderTickRate:2

[Events]
//Background and Video events
0,0,"eeeee.png",0,0
//Break Periods
//Storyboard Layer 0 (Background)
//Storyboard Layer 1 (Fail)
//Storyboard Layer 2 (Pass)
//Storyboard Layer 3 (Foreground)
//Storyboard Sound Samples

[TimingPoints]
498,352.941176470588,4,2,0,70,1,0
33674,-66.6666666666667,4,2,0,70,0,0
34203,-100,4,2,0,70,0,0
35792,352.941176470588,4,2,0,40,1,8
38615,352.941176470588,4,2,0,40,1,8
39320,-200,4,2,0,40,0,8
39850,-100,4,2,0,40,0,8
41438,352.941176470588,4,2,0,40,1,8
41438,-166.666666666667,4,2,0,40,0,8
42143,-100,4,2,0,40,0,8
42849,352.941176470588,4,2,0,70,1,8
43378,352.941176470588,4,2,0,70,1,0
44260,352.941176470588,4,2,0,40,1,8
45671,-100,4,2,0,80,0,0
54142,-100,4,2,0,70,0,0
55907,-100,4,2,0,70,0,0
57318,-100,4,2,0,70,0,1
62612,-100,4,2,0,70,0,0
62965,-100,4,2,0,70,0,1
67024,-100,4,2,0,70,0,0
68259,-100,4,2,0,70,0,1
73377,-100,4,2,0,70,0,0
73645,-100,4,2,0,70,0,0
73997,-100,4,2,0,70,0,0
74259,-100,4,2,0,70,0,1
79554,-100,4,2,0,70,0,0
82377,-100,4,2,0,70,0,1
93495,-100,4,2,0,70,0,0
94377,-100,4,2,0,70,0,1
97024,-100,4,2,0,70,0,0
97642,-100,4,2,0,70,0,1
99318,-100,4,2,0,70,0,0
106377,352.941176470588,4,2,0,70,1,8
109200,352.941176470588,4,2,0,70,1,8
113350,-100,4,2,0,70,0,0
115200,-100,4,2,0,70,0,9
116258,-100,4,2,0,70,0,8
116611,-100,4,2,0,70,0,9
121905,-100,4,2,0,70,0,8
122258,-100,4,2,0,70,0,9
126317,-100,4,2,0,70,0,8
127552,-100,4,2,0,70,0,9
132670,-100,4,2,0,70,0,8
132939,-100,4,2,0,70,0,8
133292,-100,4,2,0,70,0,8
133552,-100,4,2,0,70,0,9
138847,-100,4,2,0,70,0,8
147586,-100,4,2,0,40,0,8
150056,-100,4,2,0,80,0,8
155703,-100,4,2,0,70,0,8
158527,-100,4,2,0,70,0,8
161703,-100,4,2,0,70,0,8
163199,-100,4,2,0,70,0,9
164258,-100,4,2,0,70,0,8
164611,-100,4,2,0,70,0,9
169905,-100,4,2,0,70,0,8
170258,-100,4,2,0,70,0,9
174317,-100,4,2,0,70,0,8
175552,-100,4,2,0,70,0,9
180670,-100,4,2,0,70,0,8
180939,-100,4,2,0,70,0,8
181292,-100,4,2,0,70,0,8
181552,-100,4,2,0,70,0,9
185788,-100,4,2,0,70,0,8

[Colours]
Combo1 : 9,255,156
Combo2 : 149,0,221
Combo3 : 0,240,240
Combo4 : 145,0,72

[HitObjects]
266,306,6145,6,0,L|376:306,1,90
230,306,6497,2,0,L|129:306,1,90
374,306,6850,2,0,P|458:221|365:142,1,270
131,141,7556,6,0,L|131:46,1,90
257,51,7909,2,0,L|158:51,1,90
401,51,8262,2,0,L|132:51,1,270
365,51,8968,6,0,L|365:162,1,90
238,141,9321,2,0,L|148:141,1,90
382,141,9674,2,0,P|439:206|369:265,1,180
260,264,10203,1,0,0:0:0:0:
25,264,10380,6,0,L|126:264,1,90
349,264,10733,2,0,L|217:264,1,90
24,264,11086,1,0,0:0:0:0:
492,264,11439,1,0,0:0:0:0:
203,264,11792,6,0,P|151:199|208:140,1,180
352,140,12321,1,0,0:0:0:0:
118,140,12497,2,0,L|10:140,1,90
154,140,12850,2,0,L|253:140,1,90
117,140,13203,2,0,P|75:95|139:59,1,135
336,56,13556,6,0,L|446:56,1,90
299,56,13909,2,0,L|196:56,1,90
335,56,14262,1,0,0:0:0:0:
208,56,14439,1,0,0:0:0:0:
441,56,14615,6,0,P|497:115|445:179,1,180
300,179,15145,1,0,0:0:0:0:
156,179,15321,2,0,L|156:283,1,90
300,269,15674,2,0,L|300:179,1,90
65,179,16027,6,0,L|65:88,1,90
209,89,16380,2,0,L|89:89,1,90
263,89,16733,2,0,L|357:89,1,90
119,89,17086,2,0,P|75:131|117:175,1,135
305,175,17439,5,0,0:0:0:0:
161,175,17615,1,0,0:0:0:0:
395,175,17792,2,0,L|498:175,2,90
250,175,18321,1,0,0:0:0:0:
393,175,18497,2,0,L|393:286,1,90
158,265,18850,6,0,P|104:202|160:141,1,180
306,141,19380,1,0,0:0:0:0:
162,141,19556,1,0,0:0:0:0:
306,141,19733,1,0,0:0:0:0:
72,141,19909,1,0,0:0:0:0:
32,157,19997,1,0,0:0:0:0:
31,199,20085,1,0,0:0:0:0:
70,217,20173,1,0,0:0:0:0:
243,221,20262,6,0,L|126:221,1,90
225,221,20527,1,0,0:0:0:0:
392,224,20615,2,0,L|482:224,2,90
246,224,21145,1,0,0:0:0:0:
102,224,21321,1,0,0:0:0:0:
335,224,21497,1,0,0:0:0:0:
28,225,21674,6,0,L|28:120,1,90
172,135,22027,2,0,L|55:135,1,90
316,135,22380,1,0,0:0:0:0:
459,135,22556,1,0,0:0:0:0:
314,135,22733,1,0,0:0:0:0:
170,135,22909,1,0,0:0:0:0:
404,135,23086,6,0,P|458:196|404:258,1,180
170,258,23615,2,0,L|361:258,1,180
113,258,24145,2,0,L|113:140,1,90
346,168,24497,6,0,L|445:168,2,90
200,168,25027,1,0,0:0:0:0:
436,168,25203,2,0,P|490:229|436:291,1,180
148,291,25909,6,0,P|94:228|150:167,1,180
384,167,26439,2,0,L|197:167,1,180
438,167,26968,2,0,L|438:64,1,90
203,77,27321,2,0,L|96:77,2,90
491,77,28027,2,0,L|119:77,1,360
419,77,29086,6,0,L|515:78,1,90
364,77,29439,2,0,L|274:76,1,90
418,76,29792,1,0,0:0:0:0:
184,76,29968,1,0,0:0:0:0:
418,76,30145,2,0,P|461:118|419:162,1,135
163,165,30497,6,0,L|45:165,2,90
308,165,31027,2,0,L|398:165,2,90
73,165,31556,6,0,L|257:165,1,180
107,165,32086,1,0,0:0:0:0:
340,165,32262,2,0,L|340:266,1,90
195,255,32615,2,0,L|100:255,1,90
339,255,32968,6,0,L|451:255,1,90
285,255,33321,2,0,L|195:255,1,90
393,259,33674,1,0,0:0:0:0:
490,177,33850,1,0,0:0:0:0:
446,58,34026,1,0,0:0:0:0:
319,60,34203,1,0,0:0:0:0:
84,60,34380,6,0,P|154:95|65:222,1,270
366,224,35262,2,0,L|485:224,2,90
220,224,35792,6,0,L|25:224,3,180
328,224,37203,2,0,P|418:144|333:59,1,270
45,59,38086,5,0,0:0:0:0:
188,59,38262,1,0,0:0:0:0:
43,59,38439,1,0,0:0:0:0:
276,59,38615,2,0,L|276:166,1,90
401,149,38967,1,0,0:0:0:0:
274,149,39144,1,0,0:0:0:0:
148,149,39320,2,0,L|248:149,1,90
92,149,39850,1,0,0:0:0:0:
382,284,40026,6,0,L|107:284,1,270
364,284,40909,2,0,P|418:221|363:160,1,180
128,160,41438,2,0,L|-1:160,2,107.999996704102
380,160,42496,5,0,0:0:0:0:
127,160,42849,2,0,P|73:97|129:36,1,180
362,36,43378,2,0,P|416:97|362:159,1,180
125,159,43907,6,0,L|30:159,1,90
161,159,44260,1,0,0:0:0:0:
286,159,44436,1,0,0:0:0:0:
52,159,44612,2,0,L|52:286,1,90
286,249,44965,6,0,L|478:249,1,180
338,249,45495,1,0,0:0:0:0:
104,249,45671,6,0,P|50:186|106:125,1,180
340,125,46201,2,0,L|149:125,1,180
394,125,46730,2,0,L|394:220,1,90
159,215,47083,6,0,P|105:152|161:91,1,180
286,91,47612,1,0,0:0:0:0:
159,91,47789,2,0,L|159:184,1,90
285,181,48142,2,0,L|180:181,1,90
429,181,48495,6,0,L|220:182,1,180
483,181,49024,2,0,L|483:366,1,180
337,361,49554,2,0,L|443:361,1,90
192,361,49907,6,0,L|91:361,2,90
318,361,50436,1,0,0:0:0:0:
84,361,50612,2,0,P|30:298|86:237,1,180
320,237,51142,1,0,0:0:0:0:
86,237,51318,6,0,L|-14:237,1,90
122,237,51671,2,0,L|212:237,1,90
446,237,52024,1,0,0:0:0:0:
319,237,52201,1,0,0:0:0:0:
444,237,52377,1,0,0:0:0:0:
317,237,52554,1,0,0:0:0:0:
83,237,52730,6,0,L|83:119,1,90
209,147,53083,2,0,L|209:237,1,90
335,237,53436,2,0,L|442:237,2,90
208,237,53965,1,0,0:0:0:0:
442,237,54142,5,0,0:0:0:0:
280,237,54318,1,0,0:0:0:0:
117,237,54495,1,0,0:0:0:0:
280,237,54671,1,0,0:0:0:0:
117,237,54848,1,0,0:0:0:0:
280,237,55024,1,0,0:0:0:0:
442,237,55201,2,0,P|496:174|441:113,1,180
116,113,55907,6,0,L|224:113,1,90
439,113,56259,2,0,L|349:113,1,90
222,113,56612,1,0,0:0:0:0:
456,113,56789,1,0,0:0:0:0:
165,115,56965,2,0,P|121:157|163:201,1,135
