osu file format v14

[General]
AudioFilename: audio.mp3
AudioLeadIn: 0
PreviewTime: -1
Countdown: 0
SampleSet: Normal
StackLeniency: 0.7
Mode: 1
LetterboxInBreaks: 0
WidescreenStoryboard: 0

[Editor]
DistanceSpacing: 0.8
BeatDivisor: 4
GridSize: 4
TimelineZoom: 1.6

[Metadata]
Title:POP/STARS (ft. Madison Beer, (G)I-DLE, Jaira Burns)
TitleUnicode:POP/STARS (ft. Madison Beer, (G)I-DLE, Jaira Burns)
Artist:K/DA
ArtistUnicode:K/DA
Creator:Bastian
Version:Oni
Source:Riot Games
Tags:Riot Music Team K-Pop Soyeon Miyeon KDA POPSTARS
BeatmapID:1991790
BeatmapSetID:954001

[Difficulty]
HPDrainRate:6
CircleSize:2
OverallDifficulty:6
ApproachRate:5
SliderMultiplier:1.4
SliderTickRate:1

[Events]
//Background and Video events
0,0,"eeeee.png",0,0
Video,0,"LeagueOfOniChans.mp4"
//Break Periods
2,139050,146473
//Storyboard Layer 0 (Background)
//Storyboard Layer 1 (Fail)
//Storyboard Layer 2 (Pass)
//Storyboard Layer 3 (Foreground)
//Storyboard Sound Samples

[TimingPoints]
498,352.941176470588,4,1,0,70,1,0
6145,-111.111111111111,4,1,0,70,0,0
10380,-100,4,1,0,70,0,0
10556,-90.9090909090909,4,1,0,70,0,0
10733,-83.3333333333333,4,1,0,70,0,0
10909,-76.9230769230769,4,1,0,70,0,0
11086,-71.4285714285714,4,1,0,70,0,0
11792,-100,4,1,0,70,0,0
34380,-100,4,1,0,70,0,0
34468,-142.857142857143,4,1,0,40,0,0
35792,352.941176470588,4,1,0,40,1,8
38615,352.941176470588,4,1,0,40,1,8
41438,352.941176470588,4,1,0,40,1,8
42849,352.941176470588,4,1,0,70,1,8
43378,352.941176470588,4,1,0,70,1,0
44260,352.941176470588,4,1,0,40,1,8
45674,-111.111111111111,4,1,0,80,0,0
54145,-100,4,1,0,70,0,0
55907,-83.3333333333333,4,1,0,70,0,1
56965,-83.3333333333333,4,1,0,70,0,0
57142,-83.3333333333333,4,1,0,70,0,0
57318,-83.3333333333333,4,1,0,70,0,1
62612,-83.3333333333333,4,1,0,70,0,0
62965,-83.3333333333333,4,1,0,70,0,1
67024,-83.3333333333333,4,1,0,70,0,0
68259,-83.3333333333333,4,1,0,70,0,1
73377,-83.3333333333333,4,1,0,70,0,0
73645,-100,4,1,0,70,0,0
73997,-83.3333333333333,4,1,0,70,0,0
74259,-83.3333333333333,4,1,0,70,0,1
79554,-100,4,1,0,70,0,0
82377,-100,4,1,0,70,0,1
94201,-100,4,1,0,70,0,0
94818,-100,4,1,0,70,0,1
97024,-100,4,1,0,70,0,0
97642,-100,4,1,0,70,0,1
99318,-90.9090909090909,4,1,0,70,0,0
103821,-83.3333333333333,4,1,0,70,0,0
104174,-76.9230769230769,4,1,0,70,0,0
104527,-71.4285714285714,4,1,0,70,0,0
104880,-66.6666666666667,4,1,0,70,0,0
105056,-111.111111111111,4,1,0,70,0,0
106377,352.941176470588,4,1,0,70,1,8
109200,352.941176470588,4,1,0,70,1,8
110174,-90.9090909090909,4,1,0,70,0,0
113350,-83.3333333333333,4,1,0,70,0,0
115200,-83.3333333333333,4,1,0,70,0,9
116258,-83.3333333333333,4,1,0,70,0,8
116611,-83.3333333333333,4,1,0,70,0,9
121905,-83.3333333333333,4,1,0,70,0,8
122258,-83.3333333333333,4,1,0,70,0,9
126317,-83.3333333333333,4,1,0,70,0,8
127552,-83.3333333333333,4,1,0,70,0,9
132670,-83.3333333333333,4,1,0,70,0,8
132939,-100,4,1,0,70,0,8
133292,-83.3333333333333,4,1,0,70,0,8
133552,-83.3333333333333,4,1,0,70,0,9
138056,-76.9230769230769,4,1,0,70,0,9
138409,-71.4285714285714,4,1,0,70,0,9
138762,-66.6666666666667,4,1,0,70,0,9
138847,-66.6666666666667,4,1,0,70,0,8
147586,-125,4,1,0,40,0,8
149880,-111.111111111111,4,1,0,70,0,8
150056,-111.111111111111,4,1,0,80,0,8
155703,-100,4,1,0,70,0,8
158527,-90.9090909090909,4,1,0,70,0,8
161703,-83.3333333333333,4,1,0,70,0,8
163199,-83.3333333333333,4,1,0,70,0,9
169905,-83.3333333333333,4,1,0,70,0,8
170258,-83.3333333333333,4,1,0,70,0,9
174317,-83.3333333333333,4,1,0,70,0,8
175552,-83.3333333333333,4,1,0,70,0,9
180670,-83.3333333333333,4,1,0,70,0,8
180939,-100,4,1,0,70,0,8
181292,-83.3333333333333,4,1,0,70,0,8
181552,-83.3333333333333,4,1,0,70,0,9
185788,-83.3333333333333,4,1,0,70,0,8
186056,-76.9230769230769,4,1,0,70,0,8
186409,-71.4285714285714,4,1,0,70,0,8
186762,-66.6666666666667,4,1,0,70,0,8

[Colours]
Combo1 : 9,255,156
Combo2 : 149,0,221
Combo3 : 0,240,240
Combo4 : 145,0,72

[HitObjects]
208,165,6145,5,0,0:0:0:0:
229,123,6321,1,8,0:0:0:0:
292,93,6497,1,0,0:0:0:0:
263,94,6586,1,0,0:0:0:0:
330,51,6674,1,0,0:0:0:0:
368,10,6850,1,8,0:0:0:0:
348,62,7027,1,0,0:0:0:0:
265,56,7203,1,0,0:0:0:0:
213,79,7380,1,0,0:0:0:0:
162,102,7556,1,8,0:0:0:0:
185,117,7645,1,0,0:0:0:0:
209,132,7733,1,8,0:0:0:0:
111,126,7909,1,8,0:0:0:0:
124,150,7997,1,0,0:0:0:0:
137,174,8086,1,0,0:0:0:0:
164,222,8262,1,8,0:0:0:0:
218,237,8439,1,0,0:0:0:0:
271,252,8615,1,0,0:0:0:0:
310,139,8792,1,0,0:0:0:0:
334,125,8880,1,0,0:0:0:0:
334,125,8968,1,8,0:0:0:0:
284,98,9145,1,8,0:0:0:0:
259,84,9233,1,0,0:0:0:0:
234,71,9321,1,8,0:0:0:0:
205,119,9497,1,0,0:0:0:0:
176,167,9674,1,8,0:0:0:0:
230,177,9850,1,0,0:0:0:0:
257,182,9939,1,0,0:0:0:0:
284,187,10027,1,8,0:0:0:0:
338,198,10203,1,0,0:0:0:0:
314,140,10380,1,12,0:0:0:0:
287,78,10556,1,12,0:0:0:0:
287,78,10733,1,12,0:0:0:0:
287,78,10909,1,12,0:0:0:0:
287,78,11086,1,12,0:0:0:0:
207,156,11439,1,4,0:0:0:0:
313,190,11792,1,0,0:0:0:0:
207,156,11968,1,0,0:0:0:0:
263,154,12145,1,8,0:0:0:0:
263,154,12321,1,0,0:0:0:0:
263,154,12497,1,8,0:0:0:0:
263,154,12586,1,0,0:0:0:0:
263,154,12674,1,8,0:0:0:0:
263,154,12850,1,8,0:0:0:0:
238,139,12939,1,8,0:0:0:0:
214,124,13027,1,0,0:0:0:0:
190,109,13115,1,0,0:0:0:0:
166,94,13203,1,8,0:0:0:0:
221,102,13380,1,0,0:0:0:0:
243,85,13468,1,0,0:0:0:0:
276,110,13556,1,8,0:0:0:0:
331,118,13733,1,0,0:0:0:0:
331,118,13909,1,8,0:0:0:0:
312,65,14086,1,0,0:0:0:0:
293,12,14262,1,8,0:0:0:0:
293,12,14350,1,8,0:0:0:0:
293,12,14439,1,0,0:0:0:0:
293,12,14527,1,0,0:0:0:0:
293,12,14615,1,8,0:0:0:0:
272,64,14792,1,0,0:0:0:0:
262,90,14880,1,0,0:0:0:0:
252,116,14968,1,8,0:0:0:0:
270,168,15145,1,0,0:0:0:0:
288,220,15321,1,8,0:0:0:0:
307,272,15497,1,0,0:0:0:0:
307,272,15674,1,8,0:0:0:0:
322,248,15762,1,0,0:0:0:0:
312,216,15850,1,0,0:0:0:0:
257,187,16027,1,12,0:0:0:0:
202,158,16203,1,0,0:0:0:0:
202,158,16380,1,12,0:0:0:0:
202,158,16556,1,0,0:0:0:0:
202,158,16733,1,12,0:0:0:0:
267,127,16909,1,0,0:0:0:0:
338,94,17086,1,12,0:0:0:0:
226,98,17439,1,0,0:0:0:0:
170,101,17615,1,0,0:0:0:0:
115,88,17792,1,8,0:0:0:0:
162,116,17968,1,0,0:0:0:0:
210,144,18145,1,8,0:0:0:0:
236,135,18233,1,0,0:0:0:0:
257,172,18321,1,8,0:0:0:0:
262,116,18497,1,8,0:0:0:0:
262,116,18586,1,0,0:0:0:0:
262,116,18674,1,8,0:0:0:0:
262,116,18762,1,0,0:0:0:0:
262,116,18850,1,8,0:0:0:0:
308,84,19027,1,8,0:0:0:0:
280,88,19115,1,0,0:0:0:0:
331,69,19203,1,8,0:0:0:0:
275,78,19380,1,0,0:0:0:0:
220,88,19556,1,8,0:0:0:0:
164,98,19733,1,0,0:0:0:0:
205,135,19909,1,8,0:0:0:0:
225,153,19997,1,8,0:0:0:0:
245,171,20086,1,0,0:0:0:0:
265,189,20174,1,0,0:0:0:0:
285,207,20262,1,8,0:0:0:0:
293,151,20439,1,0,0:0:0:0:
297,123,20527,1,0,0:0:0:0:
301,95,20615,1,8,0:0:0:0:
245,86,20792,1,0,0:0:0:0:
189,77,20968,1,8,0:0:0:0:
133,69,21145,1,0,0:0:0:0:
133,69,21321,1,8,0:0:0:0:
160,71,21409,1,0,0:0:0:0:
187,73,21497,1,0,0:0:0:0:
215,75,21586,1,0,0:0:0:0:
242,77,21674,1,8,0:0:0:0:
297,84,21850,1,0,0:0:0:0:
324,87,21939,1,0,0:0:0:0:
324,87,22027,1,8,0:0:0:0:
316,142,22203,1,0,0:0:0:0:
308,197,22380,1,8,0:0:0:0:
300,252,22556,1,0,0:0:0:0:
294,307,22733,1,8,0:0:0:0:
275,286,22821,1,0,0:0:0:0:
294,307,22909,1,8,0:0:0:0:
294,307,23086,1,4,0:0:0:0:
212,230,23439,1,0,0:0:0:0:
191,210,23527,1,0,0:0:0:0:
170,190,23615,1,8,0:0:0:0:
219,163,23792,1,0,0:0:0:0:
164,149,23968,1,0,0:0:0:0:
268,136,24145,1,8,0:0:0:0:
243,122,24233,1,0,0:0:0:0:
218,108,24322,1,8,0:0:0:0:
176,70,24497,1,8,0:0:0:0:
176,70,24586,1,8,0:0:0:0:
176,70,24674,1,0,0:0:0:0:
231,63,24850,1,8,0:0:0:0:
259,60,24939,1,8,0:0:0:0:
286,57,25027,1,0,0:0:0:0:
313,54,25115,1,0,0:0:0:0:
313,54,25203,1,8,0:0:0:0:
228,56,25380,1,0,0:0:0:0:
222,120,25556,1,8,0:0:0:0:
165,117,25733,1,8,0:0:0:0:
109,114,25909,1,0,0:0:0:0:
211,158,26262,1,0,0:0:0:0:
265,173,26439,1,0,0:0:0:0:
285,154,26527,1,0,0:0:0:0:
318,188,26615,1,8,0:0:0:0:
276,150,26792,1,0,0:0:0:0:
223,131,26968,1,8,0:0:0:0:
196,121,27056,1,0,0:0:0:0:
169,111,27145,1,8,0:0:0:0:
224,110,27321,1,8,0:0:0:0:
251,110,27409,1,0,0:0:0:0:
251,110,27497,1,8,0:0:0:0:
286,33,27674,1,8,0:0:0:0:
286,33,27762,1,0,0:0:0:0:
286,33,27850,1,0,0:0:0:0:
286,33,27939,1,8,0:0:0:0:
286,33,28027,1,8,0:0:0:0:
196,100,28380,1,8,0:0:0:0:
220,187,28733,1,0,0:0:0:0:
274,175,28909,1,8,0:0:0:0:
301,169,28997,1,0,0:0:0:0:
328,164,29086,1,8,0:0:0:0:
328,164,29262,1,0,0:0:0:0:
328,164,29439,1,8,0:0:0:0:
328,164,29527,1,8,0:0:0:0:
328,164,29615,1,0,0:0:0:0:
328,164,29703,1,0,0:0:0:0:
328,164,29792,1,8,0:0:0:0:
273,153,29968,1,0,0:0:0:0:
245,147,30056,1,0,0:0:0:0:
217,141,30145,1,8,0:0:0:0:
198,88,30321,1,8,0:0:0:0:
188,61,30409,1,8,0:0:0:0:
188,61,30497,1,0,0:0:0:0:
188,61,30674,1,0,0:0:0:0:
188,61,30850,1,8,0:0:0:0:
217,108,31027,1,0,0:0:0:0:
246,155,31203,1,8,0:0:0:0:
260,178,31292,1,8,0:0:0:0:
275,201,31380,1,0,0:0:0:0:
275,201,31468,1,0,0:0:0:0:
275,201,31556,1,8,0:0:0:0:
217,108,31733,1,0,0:0:0:0:
217,108,31909,1,8,0:0:0:0:
189,112,31997,1,0,0:0:0:0:
198,138,32086,1,8,0:0:0:0:
272,100,32262,1,8,0:0:0:0:
299,96,32350,1,0,0:0:0:0:
299,96,32439,1,0,0:0:0:0:
270,144,32615,1,8,0:0:0:0:
255,168,32703,1,0,0:0:0:0:
241,192,32792,1,8,0:0:0:0:
227,216,32880,1,0,0:0:0:0:
205,197,32968,1,8,0:0:0:0:
273,148,33145,1,0,0:0:0:0:
168,91,33321,1,8,0:0:0:0:
251,79,33497,1,0,0:0:0:0:
205,196,33674,1,8,0:0:0:0:
243,155,33850,1,0,0:0:0:0:
160,69,34027,1,8,0:0:0:0:
187,66,34115,1,0,0:0:0:0:
237,80,34203,1,8,0:0:0:0:
295,89,34380,1,4,0:0:0:0:
226,127,34909,1,0,0:0:0:0:
226,127,35439,1,0,0:0:0:0:
313,136,36497,1,8,0:0:0:0:
160,99,37203,1,0,0:0:0:0:
45,71,37733,1,0,0:0:0:0:
45,71,38262,1,0,0:0:0:0:
267,94,39321,1,8,0:0:0:0:
136,180,40027,1,0,0:0:0:0:
234,116,40556,1,0,0:0:0:0:
135,180,41086,1,0,0:0:0:0:
65,142,42145,1,8,0:0:0:0:
221,149,42850,1,0,0:0:0:0:
377,158,43380,1,8,0:0:0:0:
259,151,43909,1,8,0:0:0:0:
92,128,44262,1,0,0:0:0:0:
10,117,44615,1,0,0:0:0:0:
121,108,44968,1,8,0:0:0:0:
232,99,45321,1,0,0:0:0:0:
322,129,45674,1,8,0:0:0:0:
281,131,45850,1,0,0:0:0:0:
240,133,46027,1,0,0:0:0:0:
198,135,46203,1,8,0:0:0:0:
194,49,46557,1,0,0:0:0:0:
322,129,46645,1,0,0:0:0:0:
194,49,46733,1,8,0:0:0:0:
198,135,47086,1,8,0:0:0:0:
198,135,47263,1,8,0:0:0:0:
198,135,47439,1,0,0:0:0:0:
198,135,47615,1,8,0:0:0:0:
242,52,47968,1,0,0:0:0:0:
242,52,48145,1,8,0:0:0:0:
210,87,48321,1,0,0:0:0:0:
177,123,48498,1,8,0:0:0:0:
226,125,48674,1,8,0:0:0:0:
260,177,48851,1,0,0:0:0:0:
302,204,49027,1,8,0:0:0:0:
224,136,49380,1,0,0:0:0:0:
246,124,49468,1,0,0:0:0:0:
184,101,49557,1,8,0:0:0:0:
153,143,49733,1,0,0:0:0:0:
162,90,49910,1,0,0:0:0:0:
211,83,50086,1,8,0:0:0:0:
218,135,50263,1,8,0:0:0:0:
266,109,50439,1,8,0:0:0:0:
280,88,50527,1,0,0:0:0:0:
228,68,50615,1,0,0:0:0:0:
190,26,50968,1,0,0:0:0:0:
214,31,51056,1,0,0:0:0:0:
222,73,51145,1,8,0:0:0:0:
190,26,51321,1,8,0:0:0:0:
137,131,51674,1,0,0:0:0:0:
98,210,52027,1,8,0:0:0:0:
182,128,52380,1,8,0:0:0:0:
280,63,52733,1,8,0:0:0:0:
277,88,52821,1,0,0:0:0:0:
280,63,52910,1,0,0:0:0:0:
280,63,53086,1,8,0:0:0:0:
255,67,53174,1,0,0:0:0:0:
280,63,53262,1,0,0:0:0:0:
255,67,53350,1,0,0:0:0:0:
280,63,53439,1,8,0:0:0:0:
242,96,53615,1,0,0:0:0:0:
172,109,53792,1,8,0:0:0:0:
291,192,54145,1,8,0:0:0:0:
352,234,54321,1,0,0:0:0:0:
352,234,54498,1,8,0:0:0:0:
316,217,54586,1,0,0:0:0:0:
352,234,54674,1,8,0:0:0:0:
352,234,54851,1,8,0:0:0:0:
273,197,55027,1,0,0:0:0:0:
352,234,55204,1,8,0:0:0:0:
327,220,55292,1,0,0:0:0:0:
274,183,55380,1,0,0:0:0:0:
90,98,55910,1,8,0:0:0:0:
90,98,55998,1,0,0:0:0:0:
90,98,56086,1,0,0:0:0:0:
155,84,56262,1,8,0:0:0:0:
188,77,56351,1,8,0:0:0:0:
220,70,56439,1,0,0:0:0:0:
243,132,56615,1,8,0:0:0:0:
254,163,56704,1,8,0:0:0:0:
265,194,56792,1,0,0:0:0:0:
265,194,56880,1,0,0:0:0:0:
265,194,56968,1,8,0:0:0:0:
293,136,57145,1,0,0:0:0:0:
257,187,57321,1,12,0:0:0:0:
204,154,57498,1,0,0:0:0:0:
230,98,57674,1,12,0:0:0:0:
168,107,57851,1,0,0:0:0:0:
107,116,58027,1,12,0:0:0:0:
168,106,58204,1,0,0:0:0:0:
228,96,58380,1,12,0:0:0:0:
257,41,58557,1,0,0:0:0:0:
257,41,58733,1,12,0:0:0:0:
269,101,58910,1,0,0:0:0:0:
281,161,59086,1,12,0:0:0:0:
228,128,59262,1,0,0:0:0:0:
201,111,59351,1,0,0:0:0:0:
201,111,59439,1,8,0:0:0:0:
261,101,59615,1,8,0:0:0:0:
291,96,59704,1,0,0:0:0:0:
321,91,59792,1,8,0:0:0:0:
260,77,59968,1,8,0:0:0:0:
281,99,60057,1,8,0:0:0:0:
198,63,60145,1,0,0:0:0:0:
167,56,60321,1,0,0:0:0:0:
228,61,60498,1,8,0:0:0:0:
232,91,60586,1,0,0:0:0:0:
236,121,60674,1,0,0:0:0:0:
282,79,60851,1,8,0:0:0:0:
305,58,60939,1,0,0:0:0:0:
305,58,61027,1,8,0:0:0:0:
317,118,61204,1,0,0:0:0:0:
341,238,61557,1,8,0:0:0:0:
341,238,61645,1,0,0:0:0:0:
341,238,61733,1,8,0:0:0:0:
288,205,61910,1,8,0:0:0:0:
261,188,61998,1,8,0:0:0:0:
234,172,62086,1,0,0:0:0:0:
190,128,62262,1,8,0:0:0:0:
168,105,62351,1,8,0:0:0:0:
168,105,62439,1,0,0:0:0:0:
168,105,62527,1,0,0:0:0:0:
168,105,62615,1,8,0:0:0:0:
229,110,62792,1,0,0:0:0:0:
257,187,62968,1,12,0:0:0:0:
204,154,63145,1,0,0:0:0:0:
230,98,63321,1,12,0:0:0:0:
168,107,63498,1,0,0:0:0:0:
107,116,63674,1,12,0:0:0:0:
168,106,63851,1,0,0:0:0:0:
228,96,64027,1,12,0:0:0:0:
257,41,64204,1,0,0:0:0:0:
257,41,64380,1,12,0:0:0:0:
269,101,64557,1,0,0:0:0:0:
281,161,64733,1,12,0:0:0:0:
231,124,64910,1,0,0:0:0:0:
206,106,64998,1,0,0:0:0:0:
269,101,65086,1,8,0:0:0:0:
269,101,65262,1,0,0:0:0:0:
269,101,65439,1,8,0:0:0:0:
208,88,65615,1,8,0:0:0:0:
177,82,65704,1,8,0:0:0:0:
146,76,65792,1,0,0:0:0:0:
145,137,65968,1,0,0:0:0:0:
145,198,66145,1,8,0:0:0:0:
192,159,66321,1,8,0:0:0:0:
216,139,66410,1,0,0:0:0:0:
240,120,66498,1,8,0:0:0:0:
289,83,66674,1,8,0:0:0:0:
227,74,66851,1,0,0:0:0:0:
297,173,67204,1,0,0:0:0:0:
331,222,67380,1,0,0:0:0:0:
365,270,67557,1,8,0:0:0:0:
365,270,67733,1,8,0:0:0:0:
365,270,67910,1,8,0:0:0:0:
340,254,67998,1,0,0:0:0:0:
365,270,68086,1,0,0:0:0:0:
365,270,68262,1,6,0:0:0:0:
321,225,68439,1,0,0:0:0:0:
320,226,68527,1,0,0:0:0:0:
298,204,68615,1,0,0:0:0:0:
268,194,68704,1,0,0:0:0:0:
276,182,68792,1,8,0:0:0:0:
223,148,68968,1,0,0:0:0:0:
170,114,69145,1,0,0:0:0:0:
220,78,69321,1,8,0:0:0:0:
245,60,69410,1,8,0:0:0:0:
245,60,69498,1,0,0:0:0:0:
300,85,69674,1,8,0:0:0:0:
327,97,69762,1,0,0:0:0:0:
327,97,69851,1,8,0:0:0:0:
269,118,70027,1,0,0:0:0:0:
327,97,70204,1,8,0:0:0:0:
327,97,70292,1,0,0:0:0:0:
327,97,70381,1,8,0:0:0:0:
266,106,70557,1,0,0:0:0:0:
235,110,70645,1,0,0:0:0:0:
204,114,70733,1,8,0:0:0:0:
142,123,70910,1,0,0:0:0:0:
192,88,71086,1,8,0:0:0:0:
250,67,71262,1,0,0:0:0:0:
307,77,71439,1,0,0:0:0:0:
306,107,71527,1,0,0:0:0:0:
308,47,71615,1,8,0:0:0:0:
251,71,71792,1,0,0:0:0:0:
193,95,71968,1,0,0:0:0:0:
150,139,72145,1,8,0:0:0:0:
211,143,72321,1,0,0:0:0:0:
107,183,72498,1,8,0:0:0:0:
85,205,72587,1,0,0:0:0:0:
85,205,72675,1,8,0:0:0:0:
142,184,72851,1,0,0:0:0:0:
200,163,73028,1,8,0:0:0:0:
229,153,73116,1,0,0:0:0:0:
258,144,73204,1,8,0:0:0:0:
245,83,73380,1,0,0:0:0:0:
245,83,73557,1,8,0:0:0:0:
150,162,73910,1,4,0:0:0:0:
262,210,74262,1,2,0:0:0:0:
229,157,74439,1,8,0:0:0:0:
212,130,74527,1,0,0:0:0:0:
212,130,74615,1,0,0:0:0:0:
226,69,74792,1,0,0:0:0:0:
226,69,74880,1,0,0:0:0:0:
226,69,74968,1,8,0:0:0:0:
284,90,75145,1,0,0:0:0:0:
284,90,75321,1,8,0:0:0:0:
284,90,75410,1,0,0:0:0:0:
284,90,75498,1,8,0:0:0:0:
284,90,75674,1,0,0:0:0:0:
284,90,75851,1,8,0:0:0:0:
284,90,75939,1,0,0:0:0:0:
284,90,76027,1,8,0:0:0:0:
229,119,76204,1,0,0:0:0:0:
175,149,76380,1,8,0:0:0:0:
172,25,76733,1,0,0:0:0:0:
207,75,76910,1,0,0:0:0:0:
217,66,77086,1,8,0:0:0:0:
239,86,77174,1,0,0:0:0:0:
239,86,77262,1,0,0:0:0:0:
195,130,77439,1,8,0:0:0:0:
173,152,77527,1,8,0:0:0:0:
173,152,77615,1,0,0:0:0:0:
225,118,77792,1,8,0:0:0:0:
251,101,77880,1,8,0:0:0:0:
277,84,77968,1,0,0:0:0:0:
303,68,78057,1,0,0:0:0:0:
303,68,78145,1,8,0:0:0:0:
173,152,78321,1,0,0:0:0:0:
173,152,78498,1,0,0:0:0:0:
173,152,78851,1,0,0:0:0:0:
173,152,79204,1,8,0:0:0:0:
286,132,79557,1,4,0:0:0:0:
191,71,79910,1,0,0:0:0:0:
142,39,80086,1,8,0:0:0:0:
142,39,80439,1,0,0:0:0:0:
142,39,80615,1,8,0:0:0:0:
243,113,80968,1,8,0:0:0:0:
190,75,81145,1,0,0:0:0:0:
243,113,81321,1,8,0:0:0:0:
187,73,81498,1,8,0:0:0:0:
243,112,81674,1,8,0:0:0:0:
259,42,81851,1,0,0:0:0:0:
140,132,82204,1,8,0:0:0:0:
185,163,82380,1,0,0:0:0:0:
284,111,82910,1,8,0:0:0:0:
172,99,83439,1,8,0:0:0:0:
199,101,83527,1,0,0:0:0:0:
226,104,83615,1,0,0:0:0:0:
195,151,83792,1,8,0:0:0:0:
179,174,83880,1,8,0:0:0:0:
164,197,83968,1,0,0:0:0:0:
164,197,84145,1,8,0:0:0:0:
164,197,84233,1,8,0:0:0:0:
164,197,84321,1,0,0:0:0:0:
164,197,84410,1,0,0:0:0:0:
164,197,84498,1,8,0:0:0:0:
213,170,84674,1,0,0:0:0:0:
262,144,84851,1,8,0:0:0:0:
311,118,85027,1,8,0:0:0:0:
255,111,85204,1,0,0:0:0:0:
171,100,85380,1,8,0:0:0:0:
220,73,85557,1,0,0:0:0:0:
213,170,85733,1,0,0:0:0:0:
213,170,85821,1,0,0:0:0:0:
213,170,85909,1,8,0:0:0:0:
269,169,86086,1,0,0:0:0:0:
324,165,86262,1,8,0:0:0:0:
380,161,86439,1,0,0:0:0:0:
324,151,86615,1,8,0:0:0:0:
296,146,86704,1,8,0:0:0:0:
268,141,86792,1,0,0:0:0:0:
225,104,86968,1,0,0:0:0:0:
203,85,87145,1,0,0:0:0:0:
203,85,87233,1,0,0:0:0:0:
203,85,87321,1,8,0:0:0:0:
202,141,87498,1,0,0:0:0:0:
201,196,87674,1,8,0:0:0:0:
270,108,88027,1,0,0:0:0:0:
305,64,88204,1,8,0:0:0:0:
305,64,88292,1,8,0:0:0:0:
305,64,88380,1,8,0:0:0:0:
253,86,88557,1,0,0:0:0:0:
145,118,88733,1,8,0:0:0:0:
152,173,88910,1,0,0:0:0:0:
159,228,89086,1,0,0:0:0:0:
214,218,89262,1,8,0:0:0:0:
241,213,89351,1,0,0:0:0:0:
268,208,89439,1,8,0:0:0:0:
225,172,89615,1,8,0:0:0:0:
211,147,89704,1,8,0:0:0:0:
198,122,89792,1,0,0:0:0:0:
231,105,89910,1,0,0:0:0:0:
264,89,90027,1,0,0:0:0:0:
298,73,90145,1,8,0:0:0:0:
311,127,90321,1,0,0:0:0:0:
323,181,90498,1,8,0:0:0:0:
224,126,90851,1,0,0:0:0:0:
214,153,91027,1,8,0:0:0:0:
186,146,91115,1,8,0:0:0:0:
158,138,91203,1,0,0:0:0:0:
139,116,91292,1,0,0:0:0:0:
177,85,91380,1,8,0:0:0:0:
204,85,91468,1,0,0:0:0:0:
229,65,91557,1,8,0:0:0:0:
284,73,91733,1,0,0:0:0:0:
339,81,91910,1,8,0:0:0:0:
318,132,92086,1,8,0:0:0:0:
297,184,92262,1,0,0:0:0:0:
245,161,92439,1,0,0:0:0:0:
193,139,92615,1,8,0:0:0:0:
224,92,92792,1,0,0:0:0:0:
224,92,92968,1,8,0:0:0:0:
224,92,93145,1,0,0:0:0:0:
224,92,93321,1,8,0:0:0:0:
275,115,93498,1,8,0:0:0:0:
222,135,93674,1,0,0:0:0:0:
272,160,93851,1,0,0:0:0:0:
245,150,94027,1,0,0:0:0:0:
140,109,94380,1,6,0:0:0:0:
196,112,94557,1,8,0:0:0:0:
250,115,94733,1,0,0:0:0:0:
197,95,94910,1,0,0:0:0:0:
143,75,95086,1,8,0:0:0:0:
197,62,95262,1,0,0:0:0:0:
224,55,95351,1,8,0:0:0:0:
246,135,95615,1,0,0:0:0:0:
260,189,95792,1,8,0:0:0:0:
286,140,95968,1,8,0:0:0:0:
313,91,96145,1,0,0:0:0:0:
341,42,96321,1,0,0:0:0:0:
286,54,96498,1,0,0:0:0:0:
208,86,96762,1,8,0:0:0:0:
231,66,97204,1,6,0:0:0:0:
256,115,97380,1,0,0:0:0:0:
161,153,97557,1,0,0:0:0:0:
216,151,97733,1,8,0:0:0:0:
243,150,97821,1,0,0:0:0:0:
271,149,97910,1,8,0:0:0:0:
223,119,98086,1,0,0:0:0:0:
175,90,98262,1,8,0:0:0:0:
229,77,98439,1,0,0:0:0:0:
283,64,98615,1,8,0:0:0:0:
283,64,98968,1,0,0:0:0:0:
317,170,99321,1,0,0:0:0:0:
263,153,99498,1,0,0:0:0:0:
236,145,99586,1,0,0:0:0:0:
209,137,99674,1,8,0:0:0:0:
236,88,99851,1,0,0:0:0:0:
236,88,100027,1,8,0:0:0:0:
289,71,100204,1,0,0:0:0:0:
342,54,100380,1,8,0:0:0:0:
368,46,100468,1,8,0:0:0:0:
368,46,100557,1,0,0:0:0:0:
368,46,100733,1,8,0:0:0:0:
320,73,100910,1,0,0:0:0:0:
296,87,100998,1,0,0:0:0:0:
272,101,101086,1,8,0:0:0:0:
218,118,101262,1,0,0:0:0:0:
164,135,101439,1,8,0:0:0:0:
111,152,101615,1,0,0:0:0:0:
151,113,101792,1,8,0:0:0:0:
171,93,101880,1,8,0:0:0:0:
191,74,101968,1,0,0:0:0:0:
212,55,102057,1,0,0:0:0:0:
212,55,102145,1,8,0:0:0:0:
253,92,102321,1,0,0:0:0:0:
273,111,102410,1,0,0:0:0:0:
273,111,102498,1,8,0:0:0:0:
297,60,102674,1,0,0:0:0:0:
297,60,102851,1,8,0:0:0:0:
297,60,103027,1,0,0:0:0:0:
241,70,103204,1,8,0:0:0:0:
186,80,103380,1,8,0:0:0:0:
210,130,103557,1,0,0:0:0:0:
210,130,103910,1,0,0:0:0:0:
210,130,104262,1,8,0:0:0:0:
101,103,104615,1,8,0:0:0:0:
212,115,104968,1,4,0:0:0:0:
323,78,105498,1,0,0:0:0:0:
211,116,106027,1,0,0:0:0:0:
389,208,107085,1,8,0:0:0:0:
212,115,107791,1,0,0:0:0:0:
323,78,108321,1,0,0:0:0:0:
211,116,108850,1,0,0:0:0:0:
389,208,109908,1,8,0:0:0:0:
321,186,110261,1,0,0:0:0:0:
285,174,110438,1,0,0:0:0:0:
190,26,110615,1,8,0:0:0:0:
137,131,110968,1,0,0:0:0:0:
98,210,111321,1,8,0:0:0:0:
182,128,111674,1,8,0:0:0:0:
280,63,112027,1,8,0:0:0:0:
277,88,112115,1,0,0:0:0:0:
280,63,112204,1,0,0:0:0:0:
280,63,112380,1,8,0:0:0:0:
255,67,112468,1,0,0:0:0:0:
280,63,112556,1,0,0:0:0:0:
255,67,112644,1,0,0:0:0:0:
280,63,112733,1,8,0:0:0:0:
242,96,112909,1,0,0:0:0:0:
172,109,113086,1,8,0:0:0:0:
291,192,113439,1,8,0:0:0:0:
352,234,113615,1,0,0:0:0:0:
352,234,113792,1,8,0:0:0:0:
316,217,113880,1,0,0:0:0:0:
352,234,113968,1,8,0:0:0:0:
352,234,114145,1,8,0:0:0:0:
273,197,114321,1,0,0:0:0:0:
352,234,114498,1,8,0:0:0:0:
327,220,114586,1,0,0:0:0:0:
274,183,114674,1,0,0:0:0:0:
90,98,115204,1,8,0:0:0:0:
90,98,115292,1,0,0:0:0:0:
90,98,115380,1,0,0:0:0:0:
155,84,115556,1,8,0:0:0:0:
188,77,115645,1,8,0:0:0:0:
220,68,115733,1,0,0:0:0:0:
243,132,115909,1,8,0:0:0:0:
254,163,115998,1,8,0:0:0:0:
265,194,116086,1,0,0:0:0:0:
265,194,116174,1,0,0:0:0:0:
265,194,116262,1,8,0:0:0:0:
293,136,116438,1,0,0:0:0:0:
257,187,116614,1,12,0:0:0:0:
204,154,116791,1,0,0:0:0:0:
230,98,116967,1,12,0:0:0:0:
168,107,117144,1,0,0:0:0:0:
107,116,117320,1,12,0:0:0:0:
168,106,117497,1,0,0:0:0:0:
228,96,117673,1,12,0:0:0:0:
257,41,117850,1,0,0:0:0:0:
257,41,118026,1,12,0:0:0:0:
269,101,118203,1,0,0:0:0:0:
281,161,118379,1,12,0:0:0:0:
228,128,118555,1,0,0:0:0:0:
201,111,118644,1,0,0:0:0:0:
201,111,118732,1,8,0:0:0:0:
261,101,118908,1,8,0:0:0:0:
291,96,118997,1,0,0:0:0:0:
321,91,119085,1,8,0:0:0:0:
260,77,119261,1,8,0:0:0:0:
281,99,119350,1,8,0:0:0:0:
198,63,119438,1,0,0:0:0:0:
167,56,119614,1,0,0:0:0:0:
228,61,119791,1,8,0:0:0:0:
232,91,119879,1,0,0:0:0:0:
236,121,119967,1,0,0:0:0:0:
282,79,120144,1,8,0:0:0:0:
305,58,120232,1,0,0:0:0:0:
305,58,120320,1,8,0:0:0:0:
317,118,120497,1,0,0:0:0:0:
255,121,120673,1,0,0:0:0:0:
341,238,120850,1,8,0:0:0:0:
341,238,120938,1,0,0:0:0:0:
341,238,121026,1,8,0:0:0:0:
288,205,121203,1,8,0:0:0:0:
261,188,121291,1,8,0:0:0:0:
234,172,121379,1,0,0:0:0:0:
190,128,121555,1,8,0:0:0:0:
168,105,121644,1,8,0:0:0:0:
168,105,121732,1,0,0:0:0:0:
168,105,121820,1,0,0:0:0:0:
168,105,121908,1,8,0:0:0:0:
229,110,122085,1,0,0:0:0:0:
257,187,122261,1,12,0:0:0:0:
204,154,122438,1,0,0:0:0:0:
230,98,122614,1,12,0:0:0:0:
168,107,122791,1,0,0:0:0:0:
107,116,122967,1,12,0:0:0:0:
168,106,123144,1,0,0:0:0:0:
228,96,123320,1,12,0:0:0:0:
257,41,123497,1,0,0:0:0:0:
257,41,123673,1,12,0:0:0:0:
269,101,123850,1,0,0:0:0:0:
281,161,124026,1,12,0:0:0:0:
231,124,124203,1,0,0:0:0:0:
206,106,124291,1,0,0:0:0:0:
269,101,124379,1,8,0:0:0:0:
269,101,124555,1,0,0:0:0:0:
269,101,124732,1,8,0:0:0:0:
208,88,124908,1,8,0:0:0:0:
177,82,124997,1,8,0:0:0:0:
146,76,125085,1,0,0:0:0:0:
145,137,125261,1,0,0:0:0:0:
145,198,125438,1,8,0:0:0:0:
192,159,125614,1,8,0:0:0:0:
216,139,125703,1,0,0:0:0:0:
240,120,125791,1,8,0:0:0:0:
289,83,125967,1,0,0:0:0:0:
227,74,126144,1,8,0:0:0:0:
171,100,126320,1,0,0:0:0:0:
297,173,126497,1,0,0:0:0:0:
331,222,126673,1,0,0:0:0:0:
365,270,126850,1,8,0:0:0:0:
365,270,127026,1,8,0:0:0:0:
365,270,127203,1,8,0:0:0:0:
339,256,127291,1,0,0:0:0:0:
365,270,127379,1,0,0:0:0:0:
365,270,127555,1,6,0:0:0:0:
321,225,127732,1,8,0:0:0:0:
320,226,127820,1,0,0:0:0:0:
298,204,127908,1,0,0:0:0:0:
268,194,127997,1,0,0:0:0:0:
276,182,128085,1,8,0:0:0:0:
223,148,128261,1,0,0:0:0:0:
170,114,128438,1,0,0:0:0:0:
220,78,128614,1,8,0:0:0:0:
245,60,128703,1,8,0:0:0:0:
245,60,128791,1,0,0:0:0:0:
300,85,128967,1,8,0:0:0:0:
327,97,129055,1,0,0:0:0:0:
327,97,129144,1,8,0:0:0:0:
269,118,129320,1,0,0:0:0:0:
327,97,129497,1,8,0:0:0:0:
327,97,129585,1,0,0:0:0:0:
327,97,129674,1,8,0:0:0:0:
266,106,129850,1,0,0:0:0:0:
235,110,129938,1,0,0:0:0:0:
204,114,130026,1,8,0:0:0:0:
142,123,130203,1,0,0:0:0:0:
192,88,130379,1,8,0:0:0:0:
250,67,130555,1,0,0:0:0:0:
307,77,130732,1,0,0:0:0:0:
306,107,130820,1,0,0:0:0:0:
308,47,130908,1,8,0:0:0:0:
251,71,131085,1,0,0:0:0:0:
193,95,131261,1,0,0:0:0:0:
150,139,131438,1,8,0:0:0:0:
211,143,131614,1,0,0:0:0:0:
107,183,131791,1,8,0:0:0:0:
85,205,131880,1,0,0:0:0:0:
85,205,131968,1,8,0:0:0:0:
142,184,132144,1,0,0:0:0:0:
200,163,132321,1,8,0:0:0:0:
229,153,132409,1,0,0:0:0:0:
258,144,132497,1,8,0:0:0:0:
245,83,132673,1,0,0:0:0:0:
245,83,132850,1,8,0:0:0:0:
150,162,133203,1,0,0:0:0:0:
262,210,133555,1,6,0:0:0:0:
229,157,133732,1,8,0:0:0:0:
212,130,133820,1,0,0:0:0:0:
212,130,133908,1,0,0:0:0:0:
226,69,134085,1,0,0:0:0:0:
226,69,134173,1,0,0:0:0:0:
226,69,134261,1,8,0:0:0:0:
284,90,134438,1,0,0:0:0:0:
284,90,134614,1,8,0:0:0:0:
284,90,134703,1,0,0:0:0:0:
284,90,134791,1,8,0:0:0:0:
284,90,134967,1,0,0:0:0:0:
284,90,135144,1,8,0:0:0:0:
284,90,135232,1,0,0:0:0:0:
284,90,135320,1,8,0:0:0:0:
229,119,135497,1,0,0:0:0:0:
175,149,135673,1,8,0:0:0:0:
172,25,136026,1,0,0:0:0:0:
207,75,136203,1,0,0:0:0:0:
217,66,136379,1,8,0:0:0:0:
239,86,136467,1,0,0:0:0:0:
239,86,136555,1,0,0:0:0:0:
195,130,136732,1,8,0:0:0:0:
173,152,136820,1,8,0:0:0:0:
173,152,136908,1,0,0:0:0:0:
225,118,137085,1,8,0:0:0:0:
251,101,137173,1,8,0:0:0:0:
277,84,137261,1,0,0:0:0:0:
303,68,137350,1,0,0:0:0:0:
303,68,137438,1,8,0:0:0:0:
173,152,137614,1,0,0:0:0:0:
173,152,137791,1,0,0:0:0:0:
173,152,138144,1,0,0:0:0:0:
173,152,138497,1,8,0:0:0:0:
286,132,138850,1,4,0:0:0:0:
191,140,147673,5,8,0:0:0:0:
191,140,147761,1,8,0:0:0:0:
191,140,147850,1,8,0:0:0:0:
191,140,148026,1,0,0:0:0:0:
116,117,148379,1,8,0:0:0:0:
263,169,148555,1,8,0:0:0:0:
263,169,148732,1,8,0:0:0:0:
263,169,148908,1,0,0:0:0:0:
340,157,149261,1,0,0:0:0:0:
302,146,149438,1,8,0:0:0:0:
271,122,149614,1,0,0:0:0:0:
209,73,149967,1,0,0:0:0:0:
248,105,150145,1,8,0:0:0:0:
388,50,150673,1,8,0:0:0:0:
294,88,151202,1,0,0:0:0:0:
298,188,151555,1,8,0:0:0:0:
298,188,151908,1,0,0:0:0:0:
298,188,152085,1,8,0:0:0:0:
205,148,152438,1,0,0:0:0:0:
158,128,152614,1,8,0:0:0:0:
110,109,152791,1,0,0:0:0:0:
110,109,152967,1,8,0:0:0:0:
210,109,153497,1,8,0:0:0:0:
310,109,154026,1,0,0:0:0:0:
209,119,154379,1,8,0:0:0:0:
159,124,154555,1,8,0:0:0:0:
159,124,154732,1,0,0:0:0:0:
159,124,154908,1,8,0:0:0:0:
259,124,155261,1,0,0:0:0:0:
280,110,155350,1,0,0:0:0:0:
259,124,155438,1,8,0:0:0:0:
184,56,155791,1,0,0:0:0:0:
184,56,156144,1,0,0:0:0:0:
240,139,156497,1,8,0:0:0:0:
296,222,156850,1,8,0:0:0:0:
368,325,157202,1,0,0:0:0:0:
324,263,157555,1,0,0:0:0:0:
253,191,157908,1,8,0:0:0:0:
182,119,158261,1,8,0:0:0:0:
280,72,158614,1,8,0:0:0:0:
280,72,158791,1,0,0:0:0:0:
280,72,158967,1,0,0:0:0:0:
223,92,159144,1,8,0:0:0:0:
235,160,159320,1,0,0:0:0:0:
248,232,159497,1,8,0:0:0:0:
268,208,159586,1,0,0:0:0:0:
280,72,159673,1,8,0:0:0:0:
294,152,159850,1,0,0:0:0:0:
309,235,160026,1,8,0:0:0:0:
224,208,160202,1,0,0:0:0:0:
135,179,160379,1,0,0:0:0:0:
42,150,160555,1,8,0:0:0:0:
42,150,160732,1,0,0:0:0:0:
42,150,160908,1,0,0:0:0:0:
42,150,161085,1,8,0:0:0:0:
73,148,161174,1,0,0:0:0:0:
95,134,161261,1,8,0:0:0:0:
302,132,161791,1,8,0:0:0:0:
332,135,161879,1,0,0:0:0:0:
332,135,161967,1,0,0:0:0:0:
332,135,162144,1,8,0:0:0:0:
332,135,162232,1,8,0:0:0:0:
332,135,162320,1,0,0:0:0:0:
332,135,162497,1,8,0:0:0:0:
332,135,162585,1,8,0:0:0:0:
332,135,162673,1,0,0:0:0:0:
332,135,162761,1,0,0:0:0:0:
332,135,162850,1,8,0:0:0:0:
270,137,163026,1,0,0:0:0:0:
203,139,163202,1,8,0:0:0:0:
169,140,163291,1,8,0:0:0:0:
135,141,163379,1,0,0:0:0:0:
135,141,163555,1,8,0:0:0:0:
135,141,163644,1,0,0:0:0:0:
135,141,163732,1,8,0:0:0:0:
135,141,163908,1,8,0:0:0:0:
166,128,163997,1,8,0:0:0:0:
167,132,164085,1,0,0:0:0:0:
194,112,164173,1,0,0:0:0:0:
221,92,164261,1,8,0:0:0:0:
293,136,164438,1,0,0:0:0:0:
257,187,164614,1,12,0:0:0:0:
204,154,164791,1,0,0:0:0:0:
230,98,164967,1,12,0:0:0:0:
168,107,165144,1,0,0:0:0:0:
107,116,165320,1,12,0:0:0:0:
168,106,165497,1,0,0:0:0:0:
228,96,165673,1,12,0:0:0:0:
257,41,165850,1,0,0:0:0:0:
257,41,166026,1,12,0:0:0:0:
269,101,166203,1,0,0:0:0:0:
281,161,166379,1,12,0:0:0:0:
228,128,166555,1,0,0:0:0:0:
201,111,166644,1,0,0:0:0:0:
201,111,166732,1,8,0:0:0:0:
261,101,166908,1,8,0:0:0:0:
291,96,166997,1,0,0:0:0:0:
321,91,167085,1,8,0:0:0:0:
260,77,167261,1,8,0:0:0:0:
281,99,167350,1,8,0:0:0:0:
198,63,167438,1,0,0:0:0:0:
167,56,167614,1,0,0:0:0:0:
228,61,167791,1,8,0:0:0:0:
232,91,167879,1,0,0:0:0:0:
236,121,167967,1,0,0:0:0:0:
282,79,168144,1,8,0:0:0:0:
305,58,168232,1,0,0:0:0:0:
305,58,168320,1,8,0:0:0:0:
317,118,168497,1,0,0:0:0:0:
255,121,168673,1,0,0:0:0:0:
341,238,168850,1,8,0:0:0:0:
341,238,168938,1,0,0:0:0:0:
341,238,169026,1,8,0:0:0:0:
288,205,169203,1,8,0:0:0:0:
261,188,169291,1,8,0:0:0:0:
234,172,169379,1,0,0:0:0:0:
190,128,169555,1,8,0:0:0:0:
168,105,169644,1,8,0:0:0:0:
168,105,169732,1,0,0:0:0:0:
168,105,169820,1,0,0:0:0:0:
168,105,169908,1,8,0:0:0:0:
229,110,170085,1,0,0:0:0:0:
257,187,170261,1,12,0:0:0:0:
204,154,170438,1,0,0:0:0:0:
230,98,170614,1,12,0:0:0:0:
168,107,170791,1,0,0:0:0:0:
107,116,170967,1,12,0:0:0:0:
168,106,171144,1,0,0:0:0:0:
228,96,171320,1,12,0:0:0:0:
257,41,171497,1,0,0:0:0:0:
257,41,171673,1,12,0:0:0:0:
269,101,171850,1,0,0:0:0:0:
281,161,172026,1,12,0:0:0:0:
231,124,172203,1,0,0:0:0:0:
206,106,172291,1,0,0:0:0:0:
269,101,172379,1,8,0:0:0:0:
269,101,172555,1,0,0:0:0:0:
269,101,172732,1,8,0:0:0:0:
208,88,172908,1,8,0:0:0:0:
177,82,172997,1,8,0:0:0:0:
146,76,173085,1,0,0:0:0:0:
145,137,173261,1,0,0:0:0:0:
145,198,173438,1,8,0:0:0:0:
192,159,173614,1,8,0:0:0:0:
216,139,173703,1,0,0:0:0:0:
240,120,173791,1,8,0:0:0:0:
289,83,173967,1,0,0:0:0:0:
227,74,174144,1,8,0:0:0:0:
171,100,174320,1,0,0:0:0:0:
297,173,174497,1,0,0:0:0:0:
331,222,174673,1,0,0:0:0:0:
365,270,174850,1,8,0:0:0:0:
365,270,175026,1,0,0:0:0:0:
365,270,175203,1,8,0:0:0:0:
339,255,175291,1,0,0:0:0:0:
365,270,175379,1,0,0:0:0:0:
365,270,175555,1,6,0:0:0:0:
321,225,175732,1,8,0:0:0:0:
320,226,175820,1,0,0:0:0:0:
298,204,175908,1,0,0:0:0:0:
268,194,175997,1,0,0:0:0:0:
276,182,176085,1,8,0:0:0:0:
223,148,176261,1,0,0:0:0:0:
170,114,176438,1,0,0:0:0:0:
220,78,176614,1,8,0:0:0:0:
245,60,176703,1,8,0:0:0:0:
245,60,176791,1,0,0:0:0:0:
300,85,176967,1,8,0:0:0:0:
327,97,177055,1,0,0:0:0:0:
327,97,177144,1,8,0:0:0:0:
269,118,177320,1,0,0:0:0:0:
327,97,177497,1,8,0:0:0:0:
327,97,177585,1,0,0:0:0:0:
327,97,177674,1,8,0:0:0:0:
266,106,177850,1,0,0:0:0:0:
235,110,177938,1,0,0:0:0:0:
204,114,178026,1,8,0:0:0:0:
142,123,178203,1,0,0:0:0:0:
192,88,178379,1,8,0:0:0:0:
250,67,178555,1,0,0:0:0:0:
307,77,178732,1,0,0:0:0:0:
306,107,178820,1,0,0:0:0:0:
308,47,178908,1,8,0:0:0:0:
251,71,179085,1,0,0:0:0:0:
193,95,179261,1,0,0:0:0:0:
150,139,179438,1,8,0:0:0:0:
211,143,179614,1,0,0:0:0:0:
107,183,179791,1,8,0:0:0:0:
85,205,179880,1,0,0:0:0:0:
85,205,179968,1,8,0:0:0:0:
142,184,180144,1,0,0:0:0:0:
200,163,180321,1,8,0:0:0:0:
229,153,180409,1,0,0:0:0:0:
258,144,180497,1,8,0:0:0:0:
245,83,180673,1,0,0:0:0:0:
245,83,180850,1,8,0:0:0:0:
150,162,181203,1,0,0:0:0:0:
262,210,181555,1,6,0:0:0:0:
229,157,181732,1,8,0:0:0:0:
212,130,181820,1,0,0:0:0:0:
212,130,181908,1,0,0:0:0:0:
226,69,182085,1,0,0:0:0:0:
226,69,182173,1,0,0:0:0:0:
226,69,182261,1,8,0:0:0:0:
284,90,182438,1,0,0:0:0:0:
284,90,182614,1,8,0:0:0:0:
284,90,182703,1,0,0:0:0:0:
284,90,182791,1,8,0:0:0:0:
284,90,182967,1,0,0:0:0:0:
284,90,183144,1,8,0:0:0:0:
284,90,183232,1,0,0:0:0:0:
284,90,183320,1,8,0:0:0:0:
229,119,183497,1,0,0:0:0:0:
175,149,183673,1,8,0:0:0:0:
172,25,184026,1,0,0:0:0:0:
207,75,184203,1,0,0:0:0:0:
217,66,184379,1,8,0:0:0:0:
239,86,184467,1,0,0:0:0:0:
239,86,184555,1,0,0:0:0:0:
195,130,184732,1,8,0:0:0:0:
173,152,184820,1,8,0:0:0:0:
173,152,184908,1,0,0:0:0:0:
225,118,185085,1,8,0:0:0:0:
251,101,185173,1,8,0:0:0:0:
277,84,185261,1,0,0:0:0:0:
303,68,185350,1,0,0:0:0:0:
303,68,185438,1,8,0:0:0:0:
173,152,185614,1,0,0:0:0:0:
173,152,185791,1,0,0:0:0:0:
173,152,186144,1,0,0:0:0:0:
173,152,186497,1,8,0:0:0:0:
286,132,186850,1,4,0:0:0:0:
