osu file format v14

[General]
AudioFilename: audio.mp3
AudioLeadIn: 0
PreviewTime: -1
Countdown: 0
SampleSet: None
StackLeniency: 0.7
Mode: 1
LetterboxInBreaks: 0
WidescreenStoryboard: 1

[Editor]
DistanceSpacing: 0.7
BeatDivisor: 4
GridSize: 4
TimelineZoom: 1.6

[Metadata]
Title:POP/STARS (ft. Madison Beer, (G)I-DLE, Jaira Burns)
TitleUnicode:POP/STARS (ft. Madison Beer, (G)I-DLE, Jaira Burns)
Artist:K/DA
ArtistUnicode:K/DA
Creator:Bastian
Version:Muzukashii
Source:Riot Games
Tags:Riot Music Team K-Pop Soyeon Miyeon KDA POPSTARS
BeatmapID:1991789
BeatmapSetID:954001

[Difficulty]
HPDrainRate:7
CircleSize:2
OverallDifficulty:5
ApproachRate:5
SliderMultiplier:1.4
SliderTickRate:1

[Events]
//Background and Video events
0,0,"eeeee.png",0,0
Video,0,"LeagueOfOniChans.mp4"
//Break Periods
2,139047,146470
//Storyboard Layer 0 (Background)
//Storyboard Layer 1 (Fail)
//Storyboard Layer 2 (Pass)
//Storyboard Layer 3 (Foreground)
//Storyboard Sound Samples

[TimingPoints]
498,352.941176470588,4,1,0,70,1,0
6145,-111.111111111111,4,1,0,70,0,0
11792,-100,4,1,0,70,0,0
34380,-142.857142857143,4,1,0,40,0,0
35792,352.941176470588,4,1,0,40,1,8
36497,-142.857142857143,4,1,0,40,0,8
38615,352.941176470588,4,1,0,40,1,8
39320,-142.857142857143,4,1,0,40,0,8
41438,352.941176470588,4,1,0,40,1,8
42143,-142.857142857143,4,1,0,40,0,8
42849,352.941176470588,4,1,0,70,1,8
42849,-142.857142857143,4,1,0,70,0,8
43378,352.941176470588,4,1,0,70,1,0
43378,-142.857142857143,4,1,0,70,0,0
44260,352.941176470588,4,1,0,40,1,8
44965,-142.857142857143,4,1,0,40,0,8
45318,-125,4,1,0,40,0,0
45671,-111.111111111111,4,1,0,80,0,0
54142,-100,4,1,0,70,0,0
55907,-90.9090909090909,4,1,0,70,0,0
57318,-83.3333333333333,4,1,0,70,0,1
62612,-83.3333333333333,4,1,0,70,0,0
62965,-83.3333333333333,4,1,0,70,0,1
67024,-83.3333333333333,4,1,0,70,0,0
68259,-83.3333333333333,4,1,0,70,0,1
73377,-83.3333333333333,4,1,0,70,0,0
73645,-100,4,1,0,70,0,0
73997,-83.3333333333333,4,1,0,70,0,0
74259,-83.3333333333333,4,1,0,70,0,1
79554,-100,4,1,0,70,0,0
82377,-100,4,1,0,70,0,1
93495,-100,4,1,0,70,0,0
94377,-100,4,1,0,70,0,1
97024,-100,4,1,0,70,0,0
97642,-100,4,1,0,70,0,1
99318,-90.9090909090909,4,1,0,70,0,0
103821,-83.3333333333333,4,1,0,70,0,0
104174,-76.9230769230769,4,1,0,70,0,0
104527,-71.4285714285714,4,1,0,70,0,0
104880,-66.6666666666667,4,1,0,70,0,0
105056,-111.111111111111,4,1,0,70,0,0
106377,352.941176470588,4,1,0,70,1,8
109200,352.941176470588,4,1,0,70,1,8
110174,-90.9090909090909,4,1,0,70,0,0
113350,-83.3333333333333,4,1,0,70,0,0
115200,-83.3333333333333,4,1,0,70,0,9
116258,-83.3333333333333,4,1,0,70,0,8
116611,-83.3333333333333,4,1,0,70,0,9
121905,-83.3333333333333,4,1,0,70,0,8
122258,-83.3333333333333,4,1,0,70,0,9
126317,-83.3333333333333,4,1,0,70,0,8
127552,-83.3333333333333,4,1,0,70,0,9
132670,-83.3333333333333,4,1,0,70,0,8
132939,-100,4,1,0,70,0,8
133292,-83.3333333333333,4,1,0,70,0,8
133552,-83.3333333333333,4,1,0,70,0,9
138056,-76.9230769230769,4,1,0,70,0,9
138409,-71.4285714285714,4,1,0,70,0,9
138762,-66.6666666666667,4,1,0,70,0,9
138847,-66.6666666666667,4,1,0,70,0,8
147586,-125,4,1,0,40,0,8
149880,-111.111111111111,4,1,0,70,0,8
150056,-111.111111111111,4,1,0,80,0,8
155703,-100,4,1,0,70,0,8
158527,-90.9090909090909,4,1,0,70,0,8
161703,-83.3333333333333,4,1,0,70,0,8
163199,-83.3333333333333,4,1,0,70,0,9
164258,-83.3333333333333,4,1,0,70,0,8
164611,-83.3333333333333,4,1,0,70,0,9
169905,-83.3333333333333,4,1,0,70,0,8
170258,-83.3333333333333,4,1,0,70,0,9
174317,-83.3333333333333,4,1,0,70,0,8
175552,-83.3333333333333,4,1,0,70,0,9
180670,-83.3333333333333,4,1,0,70,0,8
180939,-100,4,1,0,70,0,8
181292,-83.3333333333333,4,1,0,70,0,8
181552,-83.3333333333333,4,1,0,70,0,9
185788,-83.3333333333333,4,1,0,70,0,8
186056,-76.9230769230769,4,1,0,70,0,8
186409,-71.4285714285714,4,1,0,70,0,8
186762,-66.6666666666667,4,1,0,70,0,8

[Colours]
Combo1 : 9,255,156
Combo2 : 149,0,221
Combo3 : 0,240,240
Combo4 : 145,0,72

[HitObjects]
263,199,6145,5,0,0:0:0:0:
263,199,6321,1,8,0:0:0:0:
215,181,6497,1,0,0:0:0:0:
167,163,6674,1,0,0:0:0:0:
119,146,6850,1,8,0:0:0:0:
258,291,7556,1,8,0:0:0:0:
222,254,7733,1,8,0:0:0:0:
222,254,7909,1,8,0:0:0:0:
222,254,8086,1,0,0:0:0:0:
222,254,8262,1,8,0:0:0:0:
274,112,8792,1,0,0:0:0:0:
257,159,8968,1,8,0:0:0:0:
257,159,9145,1,8,0:0:0:0:
257,159,9321,1,0,0:0:0:0:
257,159,9497,1,0,0:0:0:0:
257,159,9674,1,8,0:0:0:0:
156,151,10027,1,8,0:0:0:0:
241,97,10380,1,8,0:0:0:0:
241,97,10556,1,8,0:0:0:0:
278,131,10733,1,8,0:0:0:0:
315,164,10909,1,8,0:0:0:0:
351,198,11086,1,8,0:0:0:0:
251,183,11439,1,4,0:0:0:0:
151,168,11792,1,0,0:0:0:0:
206,116,12145,1,8,0:0:0:0:
254,102,12321,1,0,0:0:0:0:
302,88,12497,1,8,0:0:0:0:
350,75,12674,1,8,0:0:0:0:
350,75,12850,1,0,0:0:0:0:
350,75,13027,1,0,0:0:0:0:
350,75,13203,1,8,0:0:0:0:
257,116,13556,1,0,0:0:0:0:
211,136,13733,1,0,0:0:0:0:
211,136,13909,1,8,0:0:0:0:
211,136,14086,1,0,0:0:0:0:
248,169,14262,1,8,0:0:0:0:
266,185,14350,1,8,0:0:0:0:
266,185,14439,1,8,0:0:0:0:
266,185,14615,1,0,0:0:0:0:
168,158,14968,1,8,0:0:0:0:
119,145,15145,1,8,0:0:0:0:
119,145,15321,1,0,0:0:0:0:
119,145,15497,1,0,0:0:0:0:
119,145,15674,1,8,0:0:0:0:
168,137,15850,1,0,0:0:0:0:
119,145,16027,1,8,0:0:0:0:
218,129,16380,1,8,0:0:0:0:
317,113,16733,1,8,0:0:0:0:
342,110,17086,1,8,0:0:0:0:
243,130,17439,1,0,0:0:0:0:
170,215,17792,1,8,0:0:0:0:
170,215,17968,1,0,0:0:0:0:
170,215,18145,1,8,0:0:0:0:
170,215,18321,1,8,0:0:0:0:
201,168,18497,1,0,0:0:0:0:
233,121,18674,1,0,0:0:0:0:
265,75,18850,1,8,0:0:0:0:
169,133,19203,1,8,0:0:0:0:
169,133,19380,1,0,0:0:0:0:
169,133,19556,1,8,0:0:0:0:
169,133,19733,1,0,0:0:0:0:
219,108,19909,1,0,0:0:0:0:
244,95,19997,1,0,0:0:0:0:
244,95,20086,1,0,0:0:0:0:
261,147,20262,1,8,0:0:0:0:
279,200,20439,1,8,0:0:0:0:
279,200,20527,1,8,0:0:0:0:
279,200,20615,1,8,0:0:0:0:
228,174,20792,1,0,0:0:0:0:
178,148,20968,1,8,0:0:0:0:
127,122,21145,1,8,0:0:0:0:
179,104,21321,1,0,0:0:0:0:
258,77,21497,1,0,0:0:0:0:
290,123,21674,1,8,0:0:0:0:
218,209,22027,1,8,0:0:0:0:
218,209,22380,1,8,0:0:0:0:
218,209,22733,1,8,0:0:0:0:
151,118,23086,1,4,0:0:0:0:
262,103,23439,1,0,0:0:0:0:
262,103,23615,1,8,0:0:0:0:
179,179,23968,1,0,0:0:0:0:
179,179,24145,1,8,0:0:0:0:
130,151,24321,1,0,0:0:0:0:
177,122,24497,1,0,0:0:0:0:
201,107,24586,1,0,0:0:0:0:
201,107,24674,1,0,0:0:0:0:
256,105,24850,1,8,0:0:0:0:
312,103,25027,1,0,0:0:0:0:
312,103,25203,1,8,0:0:0:0:
310,215,25556,1,8,0:0:0:0:
310,327,25909,1,0,0:0:0:0:
231,247,26262,1,0,0:0:0:0:
191,207,26439,1,8,0:0:0:0:
171,187,26527,1,8,0:0:0:0:
151,166,26615,1,8,0:0:0:0:
235,91,26968,1,0,0:0:0:0:
235,91,27145,1,0,0:0:0:0:
235,91,27233,1,0,0:0:0:0:
235,91,27321,1,8,0:0:0:0:
184,115,27497,1,8,0:0:0:0:
84,166,27674,1,0,0:0:0:0:
184,115,28027,1,8,0:0:0:0:
50,294,28733,1,0,0:0:0:0:
123,209,29086,1,8,0:0:0:0:
171,181,29262,1,0,0:0:0:0:
219,153,29439,1,8,0:0:0:0:
268,126,29615,1,8,0:0:0:0:
218,99,29792,1,0,0:0:0:0:
165,119,29968,1,0,0:0:0:0:
112,139,30145,1,8,0:0:0:0:
216,99,30497,1,8,0:0:0:0:
269,81,30674,1,0,0:0:0:0:
269,81,30850,1,8,0:0:0:0:
294,131,31027,1,0,0:0:0:0:
319,180,31203,1,0,0:0:0:0:
319,180,31292,1,0,0:0:0:0:
319,180,31380,1,0,0:0:0:0:
319,180,31556,1,8,0:0:0:0:
207,167,31909,1,0,0:0:0:0:
151,160,32086,1,0,0:0:0:0:
95,154,32262,1,8,0:0:0:0:
119,141,32350,1,8,0:0:0:0:
39,149,32439,1,8,0:0:0:0:
39,149,32615,1,0,0:0:0:0:
39,149,32792,1,0,0:0:0:0:
94,147,32968,1,8,0:0:0:0:
206,145,33321,1,8,0:0:0:0:
318,145,33674,1,8,0:0:0:0:
205,145,34027,1,8,0:0:0:0:
318,145,34380,1,4,0:0:0:0:
202,164,34909,1,0,0:0:0:0:
221,88,35439,1,0,0:0:0:0:
127,142,36497,1,8,0:0:0:0:
338,68,37203,1,0,0:0:0:0:
179,124,37733,1,0,0:0:0:0:
337,69,38262,1,0,0:0:0:0:
65,266,39320,1,8,0:0:0:0:
264,164,40026,1,0,0:0:0:0:
414,88,40556,1,0,0:0:0:0:
439,76,41085,1,0,0:0:0:0:
111,148,42143,1,8,0:0:0:0:
320,67,42849,1,0,0:0:0:0:
163,127,43378,1,8,0:0:0:0:
163,127,43907,1,8,0:0:0:0:
293,69,44965,1,8,0:0:0:0:
293,69,45318,1,0,0:0:0:0:
186,103,45671,1,8,0:0:0:0:
137,118,45848,1,8,0:0:0:0:
137,118,46024,1,0,0:0:0:0:
137,118,46201,1,8,0:0:0:0:
236,133,46554,1,0,0:0:0:0:
285,140,46730,1,8,0:0:0:0:
230,55,47083,1,8,0:0:0:0:
257,97,47260,1,8,0:0:0:0:
257,97,47436,1,0,0:0:0:0:
257,97,47612,1,8,0:0:0:0:
257,97,47789,1,0,0:0:0:0:
238,196,48142,1,0,0:0:0:0:
219,295,48495,1,8,0:0:0:0:
228,245,48671,1,0,0:0:0:0:
228,245,48848,1,0,0:0:0:0:
228,245,49024,1,8,0:0:0:0:
236,144,49377,1,0,0:0:0:0:
240,93,49554,1,8,0:0:0:0:
144,124,49907,1,0,0:0:0:0:
96,140,50083,1,0,0:0:0:0:
96,140,50260,1,8,0:0:0:0:
96,140,50436,1,8,0:0:0:0:
96,140,50612,1,0,0:0:0:0:
196,133,50965,1,8,0:0:0:0:
221,131,51054,1,8,0:0:0:0:
221,131,51142,1,8,0:0:0:0:
221,131,51318,1,0,0:0:0:0:
221,131,51671,1,0,0:0:0:0:
221,131,52024,1,8,0:0:0:0:
221,131,52377,1,8,0:0:0:0:
120,127,52730,1,0,0:0:0:0:
120,127,52907,1,0,0:0:0:0:
120,127,53083,1,8,0:0:0:0:
120,127,53259,1,0,0:0:0:0:
120,127,53436,1,8,0:0:0:0:
220,114,53789,1,0,0:0:0:0:
224,214,54142,1,8,0:0:0:0:
224,214,54318,1,0,0:0:0:0:
224,214,54495,1,8,0:0:0:0:
224,214,54583,1,8,0:0:0:0:
224,214,54671,1,8,0:0:0:0:
216,158,54848,1,8,0:0:0:0:
210,102,55024,1,0,0:0:0:0:
210,102,55201,1,8,0:0:0:0:
308,276,55907,1,8,0:0:0:0:
342,335,56084,1,0,0:0:0:0:
241,158,56259,1,8,0:0:0:0:
275,217,56436,1,0,0:0:0:0:
230,166,56612,1,8,0:0:0:0:
185,115,56789,1,8,0:0:0:0:
141,63,56965,1,0,0:0:0:0:
9,91,57318,1,12,0:0:0:0:
132,143,57671,1,12,0:0:0:0:
255,195,58024,1,12,0:0:0:0:
377,249,58377,1,12,0:0:0:0:
254,194,58730,1,12,0:0:0:0:
376,249,59083,1,12,0:0:0:0:
285,149,59436,1,0,0:0:0:0:
240,99,59612,1,0,0:0:0:0:
240,99,59789,1,8,0:0:0:0:
108,128,60142,1,0,0:0:0:0:
42,143,60318,1,0,0:0:0:0:
42,143,60495,1,8,0:0:0:0:
42,143,60671,1,8,0:0:0:0:
109,145,60848,1,0,0:0:0:0:
142,146,60936,1,0,0:0:0:0:
142,146,61024,1,0,0:0:0:0:
142,146,61201,1,8,0:0:0:0:
266,95,61554,1,0,0:0:0:0:
266,95,61730,1,0,0:0:0:0:
266,95,61907,1,8,0:0:0:0:
266,95,62083,1,8,0:0:0:0:
266,95,62259,1,0,0:0:0:0:
266,95,62436,1,0,0:0:0:0:
266,95,62612,1,8,0:0:0:0:
142,147,62965,1,12,0:0:0:0:
171,15,63318,1,12,0:0:0:0:
142,146,63671,1,12,0:0:0:0:
172,15,64024,1,12,0:0:0:0:
142,146,64377,1,12,0:0:0:0:
172,15,64730,1,12,0:0:0:0:
252,122,65083,1,8,0:0:0:0:
294,173,65259,1,0,0:0:0:0:
250,121,65436,1,8,0:0:0:0:
123,75,65789,1,8,0:0:0:0:
186,97,65965,1,0,0:0:0:0:
122,75,66142,1,8,0:0:0:0:
153,85,66230,1,8,0:0:0:0:
185,96,66318,1,8,0:0:0:0:
240,134,66495,1,0,0:0:0:0:
240,134,66671,1,8,0:0:0:0:
240,134,66848,1,8,0:0:0:0:
106,116,67201,1,0,0:0:0:0:
106,116,67554,1,0,0:0:0:0:
240,140,67907,1,0,0:0:0:0:
308,152,68083,1,0,0:0:0:0:
308,152,68259,1,6,0:0:0:0:
176,140,68789,1,8,0:0:0:0:
376,128,69318,1,0,0:0:0:0:
308,132,69495,1,0,0:0:0:0:
308,132,69671,1,8,0:0:0:0:
308,132,69759,1,8,0:0:0:0:
308,132,69848,1,8,0:0:0:0:
176,120,70201,1,8,0:0:0:0:
144,116,70289,1,8,0:0:0:0:
112,112,70377,1,8,0:0:0:0:
120,180,70554,1,0,0:0:0:0:
120,180,70730,1,8,0:0:0:0:
180,148,70907,1,0,0:0:0:0:
180,148,71083,1,8,0:0:0:0:
180,148,71612,1,8,0:0:0:0:
348,36,72142,1,8,0:0:0:0:
292,72,72318,1,0,0:0:0:0:
236,112,72495,1,8,0:0:0:0:
268,128,72583,1,8,0:0:0:0:
300,144,72671,1,8,0:0:0:0:
164,144,73024,1,8,0:0:0:0:
164,144,73112,1,8,0:0:0:0:
164,144,73201,1,8,0:0:0:0:
236,112,73377,1,0,0:0:0:0:
236,112,73554,1,8,0:0:0:0:
132,156,73907,1,4,0:0:0:0:
120,92,74259,1,8,0:0:0:0:
180,124,74436,1,8,0:0:0:0:
236,160,74612,1,0,0:0:0:0:
120,92,74965,1,0,0:0:0:0:
120,92,75142,1,0,0:0:0:0:
120,92,75318,1,8,0:0:0:0:
120,92,75407,1,8,0:0:0:0:
120,92,75495,1,8,0:0:0:0:
256,112,75848,1,8,0:0:0:0:
256,112,75936,1,8,0:0:0:0:
256,112,76024,1,8,0:0:0:0:
188,100,76201,1,8,0:0:0:0:
128,148,76377,1,0,0:0:0:0:
188,100,76730,1,0,0:0:0:0:
188,100,77083,1,8,0:0:0:0:
188,100,77259,1,0,0:0:0:0:
188,100,77436,1,8,0:0:0:0:
188,100,77612,1,8,0:0:0:0:
188,100,77789,1,0,0:0:0:0:
188,100,77965,1,0,0:0:0:0:
188,100,78142,1,8,0:0:0:0:
228,228,78495,1,0,0:0:0:0:
268,356,78848,1,0,0:0:0:0:
228,228,79201,1,8,0:0:0:0:
264,336,79554,1,4,0:0:0:0:
196,184,80083,1,0,0:0:0:0:
124,32,80612,1,8,0:0:0:0:
216,96,80965,1,0,0:0:0:0:
304,164,81318,1,0,0:0:0:0:
216,96,81671,1,8,0:0:0:0:
200,112,81848,1,0,0:0:0:0:
304,164,82201,1,8,0:0:0:0:
192,164,82377,1,0,0:0:0:0:
192,164,82907,1,8,0:0:0:0:
308,44,83436,1,0,0:0:0:0:
220,116,83789,1,8,0:0:0:0:
264,80,83965,1,8,0:0:0:0:
264,80,84142,1,0,0:0:0:0:
264,80,84318,1,0,0:0:0:0:
264,80,84495,1,8,0:0:0:0:
208,84,84671,1,0,0:0:0:0:
156,108,84848,1,8,0:0:0:0:
108,136,85024,1,8,0:0:0:0:
108,136,85201,1,0,0:0:0:0:
164,136,85377,1,8,0:0:0:0:
260,80,85730,1,0,0:0:0:0:
236,92,85818,1,0,0:0:0:0:
236,92,85907,1,8,0:0:0:0:
268,136,86083,1,8,0:0:0:0:
300,180,86259,1,0,0:0:0:0:
332,224,86436,1,0,0:0:0:0:
276,212,86612,1,8,0:0:0:0:
220,200,86789,1,0,0:0:0:0:
240,88,87142,1,0,0:0:0:0:
232,144,87318,1,8,0:0:0:0:
176,148,87495,1,0,0:0:0:0:
120,152,87671,1,8,0:0:0:0:
228,124,88024,1,0,0:0:0:0:
188,164,88201,1,8,0:0:0:0:
148,200,88377,1,8,0:0:0:0:
192,164,88554,1,8,0:0:0:0:
212,144,88642,1,8,0:0:0:0:
232,128,88730,1,8,0:0:0:0:
180,112,88907,1,0,0:0:0:0:
128,96,89083,1,8,0:0:0:0:
240,80,89436,1,0,0:0:0:0:
288,76,89612,1,0,0:0:0:0:
268,140,89701,1,0,0:0:0:0:
248,204,89789,1,0,0:0:0:0:
200,196,89965,1,0,0:0:0:0:
152,188,90142,1,8,0:0:0:0:
152,188,90318,1,8,0:0:0:0:
152,188,90495,1,0,0:0:0:0:
196,100,90848,1,0,0:0:0:0:
196,100,91024,1,8,0:0:0:0:
196,100,91112,1,8,0:0:0:0:
196,100,91200,1,8,0:0:0:0:
152,188,91377,1,0,0:0:0:0:
152,188,91554,1,8,0:0:0:0:
152,188,91907,1,0,0:0:0:0:
232,132,92259,1,8,0:0:0:0:
192,160,92436,1,8,0:0:0:0:
156,192,92612,1,0,0:0:0:0:
160,144,92789,1,0,0:0:0:0:
164,96,92965,1,8,0:0:0:0:
164,96,93142,1,8,0:0:0:0:
164,96,93318,1,8,0:0:0:0:
124,124,93495,1,0,0:0:0:0:
308,108,93848,1,0,0:0:0:0:
260,104,94024,1,8,0:0:0:0:
176,132,94377,1,12,0:0:0:0:
200,172,94554,1,0,0:0:0:0:
248,172,94907,1,0,0:0:0:0:
276,132,95083,1,0,0:0:0:0:
212,124,95318,1,8,0:0:0:0:
192,204,95612,1,8,0:0:0:0:
180,252,95789,1,0,0:0:0:0:
180,252,95965,1,8,0:0:0:0:
148,164,96318,1,0,0:0:0:0:
264,156,96583,1,0,0:0:0:0:
264,108,96848,1,8,0:0:0:0:
128,100,97201,1,12,0:0:0:0:
264,108,97377,1,0,0:0:0:0:
256,204,97730,1,8,0:0:0:0:
256,204,97818,1,8,0:0:0:0:
256,204,97907,1,8,0:0:0:0:
208,192,98083,1,0,0:0:0:0:
160,180,98259,1,8,0:0:0:0:
184,136,98436,1,0,0:0:0:0:
208,92,98612,1,8,0:0:0:0:
208,92,98965,1,0,0:0:0:0:
232,196,99318,1,0,0:0:0:0:
180,184,99495,1,0,0:0:0:0:
232,196,99671,1,8,0:0:0:0:
232,196,99848,1,0,0:0:0:0:
232,196,100024,1,8,0:0:0:0:
232,196,100201,1,8,0:0:0:0:
268,156,100377,1,0,0:0:0:0:
284,136,100465,1,0,0:0:0:0:
300,116,100554,1,0,0:0:0:0:
336,76,100730,1,8,0:0:0:0:
252,140,101083,1,8,0:0:0:0:
208,172,101259,1,8,0:0:0:0:
208,172,101436,1,0,0:0:0:0:
208,172,101612,1,0,0:0:0:0:
156,152,101789,1,8,0:0:0:0:
132,140,101877,1,8,0:0:0:0:
108,132,101965,1,8,0:0:0:0:
108,132,102142,1,0,0:0:0:0:
212,108,102495,1,8,0:0:0:0:
160,120,102671,1,0,0:0:0:0:
160,120,102848,1,8,0:0:0:0:
204,148,103024,1,8,0:0:0:0:
204,148,103201,1,0,0:0:0:0:
204,148,103377,1,0,0:0:0:0:
252,128,103554,1,0,0:0:0:0:
252,128,103907,1,0,0:0:0:0:
252,128,104259,1,8,0:0:0:0:
252,128,104612,1,8,0:0:0:0:
252,128,104965,1,4,0:0:0:0:
320,240,105495,1,0,0:0:0:0:
320,240,106024,1,0,0:0:0:0:
104,140,107082,1,8,0:0:0:0:
104,140,107788,1,0,0:0:0:0:
104,140,108318,1,0,0:0:0:0:
104,140,108847,1,0,0:0:0:0:
392,76,109905,1,8,0:0:0:0:
288,108,110258,1,0,0:0:0:0:
236,124,110435,1,0,0:0:0:0:
184,144,110611,1,8,0:0:0:0:
104,216,110964,1,0,0:0:0:0:
104,216,111317,1,8,0:0:0:0:
104,216,111670,1,8,0:0:0:0:
208,184,112023,1,0,0:0:0:0:
260,168,112200,1,0,0:0:0:0:
312,148,112376,1,8,0:0:0:0:
312,148,112552,1,0,0:0:0:0:
312,148,112729,1,8,0:0:0:0:
204,160,113082,1,0,0:0:0:0:
224,214,113435,1,8,0:0:0:0:
224,214,113611,1,0,0:0:0:0:
224,214,113788,1,8,0:0:0:0:
224,214,113876,1,8,0:0:0:0:
224,214,113964,1,8,0:0:0:0:
216,158,114141,1,0,0:0:0:0:
210,102,114317,1,0,0:0:0:0:
210,102,114494,1,8,0:0:0:0:
16,232,115200,1,8,0:0:0:0:
64,200,115376,1,0,0:0:0:0:
112,168,115552,1,8,0:0:0:0:
112,168,115729,1,8,0:0:0:0:
112,168,115905,1,0,0:0:0:0:
168,148,116082,1,0,0:0:0:0:
224,132,116258,1,8,0:0:0:0:
9,91,116611,1,12,0:0:0:0:
132,143,116964,1,12,0:0:0:0:
255,195,117317,1,12,0:0:0:0:
377,249,117670,1,12,0:0:0:0:
254,194,118023,1,12,0:0:0:0:
376,249,118376,1,12,0:0:0:0:
268,204,118729,1,8,0:0:0:0:
212,184,118905,1,0,0:0:0:0:
156,160,119082,1,8,0:0:0:0:
265,116,119435,1,0,0:0:0:0:
228,70,119611,1,0,0:0:0:0:
228,70,119788,1,8,0:0:0:0:
228,70,119964,1,8,0:0:0:0:
228,70,120141,1,0,0:0:0:0:
228,70,120229,1,0,0:0:0:0:
228,70,120317,1,0,0:0:0:0:
228,70,120494,1,8,0:0:0:0:
315,148,120847,1,8,0:0:0:0:
322,206,121023,1,0,0:0:0:0:
329,264,121200,1,8,0:0:0:0:
329,264,121376,1,8,0:0:0:0:
329,264,121552,1,0,0:0:0:0:
329,264,121729,1,0,0:0:0:0:
329,264,121905,1,8,0:0:0:0:
237,190,122258,1,12,0:0:0:0:
182,85,122611,1,12,0:0:0:0:
182,85,122964,1,12,0:0:0:0:
251,180,123317,1,12,0:0:0:0:
182,84,123670,1,12,0:0:0:0:
250,179,124023,1,12,0:0:0:0:
346,111,124376,1,8,0:0:0:0:
346,111,124552,1,0,0:0:0:0:
346,111,124729,1,8,0:0:0:0:
346,111,124905,1,8,0:0:0:0:
288,123,125082,1,0,0:0:0:0:
259,129,125170,1,0,0:0:0:0:
230,135,125258,1,0,0:0:0:0:
178,163,125435,1,8,0:0:0:0:
127,192,125611,1,8,0:0:0:0:
76,221,125788,1,0,0:0:0:0:
76,221,125964,1,0,0:0:0:0:
76,221,126141,1,8,0:0:0:0:
176,159,126494,1,0,0:0:0:0:
276,97,126847,1,0,0:0:0:0:
176,159,127199,1,0,0:0:0:0:
226,128,127376,1,0,0:0:0:0:
226,128,127552,1,12,0:0:0:0:
176,140,128082,1,8,0:0:0:0:
376,128,128611,1,0,0:0:0:0:
308,132,128788,1,0,0:0:0:0:
308,132,128964,1,8,0:0:0:0:
308,132,129052,1,8,0:0:0:0:
308,132,129141,1,8,0:0:0:0:
176,120,129494,1,8,0:0:0:0:
144,116,129582,1,8,0:0:0:0:
112,112,129670,1,8,0:0:0:0:
120,180,129847,1,0,0:0:0:0:
120,180,130023,1,8,0:0:0:0:
180,148,130376,1,0,0:0:0:0:
180,148,130905,1,8,0:0:0:0:
348,36,131435,1,8,0:0:0:0:
292,72,131611,1,0,0:0:0:0:
236,112,131788,1,8,0:0:0:0:
268,128,131876,1,8,0:0:0:0:
300,144,131964,1,8,0:0:0:0:
164,144,132317,1,8,0:0:0:0:
164,144,132405,1,8,0:0:0:0:
164,144,132494,1,8,0:0:0:0:
236,112,132670,1,0,0:0:0:0:
236,112,132847,1,8,0:0:0:0:
132,156,133200,1,4,0:0:0:0:
120,92,133552,1,8,0:0:0:0:
180,124,133729,1,8,0:0:0:0:
236,160,133905,1,0,0:0:0:0:
120,92,134258,1,8,0:0:0:0:
120,92,134435,1,0,0:0:0:0:
120,92,134611,1,8,0:0:0:0:
120,92,134700,1,8,0:0:0:0:
120,92,134788,1,8,0:0:0:0:
256,112,135141,1,8,0:0:0:0:
256,112,135229,1,8,0:0:0:0:
256,112,135317,1,8,0:0:0:0:
188,100,135494,1,8,0:0:0:0:
128,148,135670,1,0,0:0:0:0:
188,100,136023,1,0,0:0:0:0:
188,100,136376,1,8,0:0:0:0:
188,100,136552,1,8,0:0:0:0:
188,100,136729,1,0,0:0:0:0:
188,100,136905,1,0,0:0:0:0:
188,100,137082,1,8,0:0:0:0:
188,100,137258,1,0,0:0:0:0:
188,100,137435,1,8,0:0:0:0:
228,228,137788,1,0,0:0:0:0:
268,356,138141,1,0,0:0:0:0:
228,228,138494,1,8,0:0:0:0:
264,336,138847,1,4,0:0:0:0:
317,176,147670,5,8,0:0:0:0:
317,176,147847,1,8,0:0:0:0:
317,176,148023,1,0,0:0:0:0:
239,161,148376,1,0,0:0:0:0:
200,154,148552,1,0,0:0:0:0:
200,154,148729,1,8,0:0:0:0:
200,154,148905,1,0,0:0:0:0:
277,145,149258,1,0,0:0:0:0:
316,141,149435,1,8,0:0:0:0:
316,141,149523,1,8,0:0:0:0:
316,141,149611,1,8,0:0:0:0:
183,148,150141,1,8,0:0:0:0:
227,71,150494,1,0,0:0:0:0:
119,263,150670,1,8,0:0:0:0:
119,263,151199,1,0,0:0:0:0:
188,208,151552,1,8,0:0:0:0:
257,153,151905,1,8,0:0:0:0:
292,126,152082,1,0,0:0:0:0:
203,128,152435,1,0,0:0:0:0:
159,129,152611,1,8,0:0:0:0:
70,133,152964,1,8,0:0:0:0:
158,133,153317,1,0,0:0:0:0:
202,133,153494,1,8,0:0:0:0:
290,135,154023,1,0,0:0:0:0:
202,133,154376,1,8,0:0:0:0:
202,133,154729,1,8,0:0:0:0:
202,133,154905,1,0,0:0:0:0:
202,133,155258,1,0,0:0:0:0:
202,133,155435,1,8,0:0:0:0:
111,170,155788,1,0,0:0:0:0:
20,207,156141,1,0,0:0:0:0:
20,207,156494,1,8,0:0:0:0:
20,207,156847,1,8,0:0:0:0:
108,165,157199,1,0,0:0:0:0:
196,123,157552,1,0,0:0:0:0:
285,82,157905,1,8,0:0:0:0:
285,82,158258,1,0,0:0:0:0:
202,151,158611,1,8,0:0:0:0:
160,185,158788,1,8,0:0:0:0:
160,185,158964,1,0,0:0:0:0:
160,185,159141,1,8,0:0:0:0:
188,81,159494,1,8,0:0:0:0:
181,107,159582,1,8,0:0:0:0:
181,107,159670,1,8,0:0:0:0:
281,146,160023,1,8,0:0:0:0:
281,146,160199,1,0,0:0:0:0:
281,146,160376,1,0,0:0:0:0:
281,146,160552,1,8,0:0:0:0:
173,158,160905,1,0,0:0:0:0:
173,158,161082,1,8,0:0:0:0:
173,158,161170,1,8,0:0:0:0:
173,158,161258,1,8,0:0:0:0:
321,62,161788,1,8,0:0:0:0:
272,94,161964,1,0,0:0:0:0:
272,94,162141,1,8,0:0:0:0:
169,151,162494,1,0,0:0:0:0:
169,151,162847,1,8,0:0:0:0:
308,276,163199,1,8,0:0:0:0:
342,335,163376,1,0,0:0:0:0:
241,158,163551,1,8,0:0:0:0:
275,217,163728,1,8,0:0:0:0:
230,166,163904,1,0,0:0:0:0:
185,115,164081,1,0,0:0:0:0:
141,63,164257,1,8,0:0:0:0:
9,91,164611,1,12,0:0:0:0:
132,143,164964,1,12,0:0:0:0:
255,195,165317,1,12,0:0:0:0:
377,249,165670,1,12,0:0:0:0:
254,194,166023,1,12,0:0:0:0:
376,249,166376,1,12,0:0:0:0:
312,152,166729,1,0,0:0:0:0:
280,104,166905,1,0,0:0:0:0:
244,56,167082,1,8,0:0:0:0:
192,80,167258,1,8,0:0:0:0:
140,104,167435,1,0,0:0:0:0:
256,104,167788,1,8,0:0:0:0:
316,104,167964,1,8,0:0:0:0:
376,108,168141,1,0,0:0:0:0:
376,108,168229,1,0,0:0:0:0:
376,108,168317,1,0,0:0:0:0:
376,108,168494,1,8,0:0:0:0:
292,188,168847,1,8,0:0:0:0:
248,228,169023,1,0,0:0:0:0:
204,268,169199,1,8,0:0:0:0:
204,268,169376,1,8,0:0:0:0:
204,268,169552,1,0,0:0:0:0:
204,268,169641,1,0,0:0:0:0:
204,268,169729,1,0,0:0:0:0:
188,212,169905,1,8,0:0:0:0:
237,190,170258,1,12,0:0:0:0:
182,85,170611,1,12,0:0:0:0:
182,85,170964,1,12,0:0:0:0:
251,180,171317,1,12,0:0:0:0:
182,84,171670,1,12,0:0:0:0:
250,179,172023,1,12,0:0:0:0:
308,112,172376,1,8,0:0:0:0:
308,112,172552,1,0,0:0:0:0:
252,100,172729,1,8,0:0:0:0:
204,132,172905,1,8,0:0:0:0:
156,168,173082,1,0,0:0:0:0:
156,168,173170,1,0,0:0:0:0:
156,168,173258,1,0,0:0:0:0:
200,128,173435,1,8,0:0:0:0:
240,88,173611,1,8,0:0:0:0:
240,88,173788,1,0,0:0:0:0:
240,88,173964,1,0,0:0:0:0:
240,88,174141,1,8,0:0:0:0:
220,204,174494,1,0,0:0:0:0:
220,204,174847,1,0,0:0:0:0:
220,204,175199,1,8,0:0:0:0:
220,204,175376,1,0,0:0:0:0:
220,204,175552,1,12,0:0:0:0:
176,140,176082,1,8,0:0:0:0:
376,128,176611,1,0,0:0:0:0:
308,132,176788,1,0,0:0:0:0:
308,132,176964,1,8,0:0:0:0:
308,132,177052,1,8,0:0:0:0:
308,132,177141,1,8,0:0:0:0:
176,120,177494,1,8,0:0:0:0:
144,116,177582,1,8,0:0:0:0:
112,112,177670,1,8,0:0:0:0:
120,180,177847,1,0,0:0:0:0:
120,180,178023,1,8,0:0:0:0:
180,148,178376,1,0,0:0:0:0:
180,148,178905,1,8,0:0:0:0:
348,36,179435,1,8,0:0:0:0:
292,72,179611,1,0,0:0:0:0:
236,112,179788,1,8,0:0:0:0:
268,128,179876,1,8,0:0:0:0:
300,144,179964,1,8,0:0:0:0:
164,144,180317,1,8,0:0:0:0:
164,144,180405,1,8,0:0:0:0:
164,144,180494,1,8,0:0:0:0:
236,112,180670,1,0,0:0:0:0:
236,112,180847,1,8,0:0:0:0:
132,156,181200,1,4,0:0:0:0:
120,92,181552,1,8,0:0:0:0:
180,124,181729,1,8,0:0:0:0:
236,160,181905,1,0,0:0:0:0:
120,92,182258,1,8,0:0:0:0:
120,92,182435,1,0,0:0:0:0:
120,92,182611,1,8,0:0:0:0:
120,92,182700,1,8,0:0:0:0:
120,92,182788,1,8,0:0:0:0:
256,112,183141,1,8,0:0:0:0:
256,112,183229,1,8,0:0:0:0:
256,112,183317,1,8,0:0:0:0:
188,100,183494,1,8,0:0:0:0:
128,148,183670,1,0,0:0:0:0:
188,100,184023,1,0,0:0:0:0:
188,100,184376,1,8,0:0:0:0:
188,100,184552,1,8,0:0:0:0:
188,100,184729,1,0,0:0:0:0:
188,100,184905,1,0,0:0:0:0:
188,100,185082,1,8,0:0:0:0:
188,100,185258,1,0,0:0:0:0:
188,100,185435,1,8,0:0:0:0:
228,228,185788,1,0,0:0:0:0:
268,356,186141,1,0,0:0:0:0:
228,228,186494,1,8,0:0:0:0:
264,336,186847,1,4,0:0:0:0:
