osu file format v14

[General]
AudioFilename: audio.mp3
AudioLeadIn: 0
PreviewTime: -1
Countdown: 0
SampleSet: Normal
StackLeniency: 0.7
Mode: 1
LetterboxInBreaks: 0
WidescreenStoryboard: 1

[Editor]
DistanceSpacing: 0.7
BeatDivisor: 4
GridSize: 4
TimelineZoom: 1.6

[Metadata]
Title:POP/STARS (ft. Madison Beer, (G)I-DLE, Jaira Burns)
TitleUnicode:POP/STARS (ft. Madison Beer, (G)I-DLE, Jaira Burns)
Artist:K/DA
ArtistUnicode:K/DA
Creator:Bastian
Version:Kantan
Source:Riot Games
Tags:Riot Music Team K-Pop Soyeon Miyeon KDA POPSTARS
BeatmapID:1991788
BeatmapSetID:954001

[Difficulty]
HPDrainRate:8.5
CircleSize:2
OverallDifficulty:3
ApproachRate:5
SliderMultiplier:1.4
SliderTickRate:1

[Events]
//Background and Video events
0,0,"eeeee.png",0,0
//Break Periods
2,139047,146470
//Storyboard Layer 0 (Background)
//Storyboard Layer 1 (Fail)
//Storyboard Layer 2 (Pass)
//Storyboard Layer 3 (Foreground)
//Storyboard Sound Samples

[TimingPoints]
498,352.941176470588,4,1,0,70,1,0
35792,352.941176470588,4,1,0,40,1,8
38615,352.941176470588,4,1,0,40,1,8
41438,352.941176470588,4,1,0,40,1,8
42849,352.941176470588,4,1,0,70,1,8
43378,352.941176470588,4,1,0,70,1,0
44260,352.941176470588,4,1,0,40,1,8
45671,-100,4,1,0,80,0,0
54142,-100,4,1,0,70,0,0
55907,-100,4,1,0,70,0,0
57318,-100,4,1,0,70,0,1
62612,-100,4,1,0,70,0,0
62965,-100,4,1,0,70,0,1
67024,-100,4,1,0,70,0,0
68259,-100,4,1,0,70,0,1
73377,-100,4,1,0,70,0,0
73645,-100,4,1,0,70,0,0
73997,-100,4,1,0,70,0,0
74259,-100,4,1,0,70,0,1
79554,-100,4,1,0,70,0,0
82377,-100,4,1,0,70,0,1
93495,-100,4,1,0,70,0,0
94377,-100,4,1,0,70,0,1
97024,-100,4,1,0,70,0,0
97642,-100,4,1,0,70,0,1
99318,-100,4,1,0,70,0,0
106377,352.941176470588,4,1,0,70,1,8
109200,352.941176470588,4,1,0,70,1,8
113350,-100,4,1,0,70,0,0
115200,-100,4,1,0,70,0,9
116258,-100,4,1,0,70,0,8
116611,-100,4,1,0,70,0,9
121905,-100,4,1,0,70,0,8
122258,-100,4,1,0,70,0,9
126317,-100,4,1,0,70,0,8
127552,-100,4,1,0,70,0,9
132670,-100,4,1,0,70,0,8
132939,-100,4,1,0,70,0,8
133292,-100,4,1,0,70,0,8
133552,-100,4,1,0,70,0,9
138847,-100,4,1,0,70,0,8
147586,-100,4,1,0,40,0,8
150056,-100,4,1,0,80,0,8
155703,-100,4,1,0,70,0,8
158527,-100,4,1,0,70,0,8
161703,-100,4,1,0,70,0,8
163199,-100,4,1,0,70,0,9
164258,-100,4,1,0,70,0,8
164611,-100,4,1,0,70,0,9
169905,-100,4,1,0,70,0,8
170258,-100,4,1,0,70,0,9
174317,-100,4,1,0,70,0,8
175552,-100,4,1,0,70,0,9
180670,-100,4,1,0,70,0,8
180939,-100,4,1,0,70,0,8
181292,-100,4,1,0,70,0,8
181552,-100,4,1,0,70,0,9
185788,-100,4,1,0,70,0,8

[Colours]
Combo1 : 9,255,156
Combo2 : 149,0,221
Combo3 : 0,240,240
Combo4 : 145,0,72

[HitObjects]
256,164,6145,5,0,0:0:0:0:
404,36,7556,1,8,0:0:0:0:
144,152,8968,1,0,0:0:0:0:
144,152,9674,1,8,0:0:0:0:
212,124,10380,1,0,0:0:0:0:
113,122,10733,1,0,0:0:0:0:
312,144,11086,1,8,0:0:0:0:
228,192,11792,1,4,0:0:0:0:
188,104,12497,1,8,0:0:0:0:
188,104,13203,1,0,0:0:0:0:
332,144,13909,1,8,0:0:0:0:
256,208,14262,1,0,0:0:0:0:
184,272,14615,1,0,0:0:0:0:
304,120,15321,1,8,0:0:0:0:
208,124,16027,1,8,0:0:0:0:
208,124,16733,1,8,0:0:0:0:
208,124,17086,1,8,0:0:0:0:
144,48,17439,1,0,0:0:0:0:
264,128,18145,1,8,0:0:0:0:
72,164,18850,1,0,0:0:0:0:
72,164,19556,1,8,0:0:0:0:
168,152,19909,1,0,0:0:0:0:
264,140,20262,1,0,0:0:0:0:
152,236,20968,1,8,0:0:0:0:
224,168,21674,1,8,0:0:0:0:
224,168,22380,1,8,0:0:0:0:
296,104,22733,1,8,0:0:0:0:
224,168,23086,1,4,0:0:0:0:
180,80,23615,1,8,0:0:0:0:
272,308,24497,1,0,0:0:0:0:
268,168,25203,1,8,0:0:0:0:
196,112,25909,1,0,0:0:0:0:
152,132,26439,1,8,0:0:0:0:
268,220,27321,1,0,0:0:0:0:
180,172,28027,1,0,0:0:0:0:
288,8,28733,1,0,0:0:0:0:
264,200,29439,1,8,0:0:0:0:
168,192,30145,1,0,0:0:0:0:
288,108,30850,1,8,0:0:0:0:
200,152,31556,1,0,0:0:0:0:
288,108,32262,1,8,0:0:0:0:
196,144,32968,1,8,0:0:0:0:
196,144,33674,1,8,0:0:0:0:
104,176,34027,1,8,0:0:0:0:
196,144,34380,1,4,0:0:0:0:
484,204,36497,1,8,0:0:0:0:
288,180,37203,1,0,0:0:0:0:
92,160,39320,1,8,0:0:0:0:
288,160,40026,1,0,0:0:0:0:
228,160,42143,1,8,0:0:0:0:
392,56,42849,1,0,0:0:0:0:
268,136,43378,1,8,0:0:0:0:
388,52,43907,1,8,0:0:0:0:
124,184,44965,1,0,0:0:0:0:
84,208,45671,1,8,0:0:0:0:
217,146,46201,1,8,0:0:0:0:
306,106,46730,1,8,0:0:0:0:
386,196,47789,1,0,0:0:0:0:
386,196,48495,1,8,0:0:0:0:
249,141,49024,1,8,0:0:0:0:
101,147,49554,1,8,0:0:0:0:
292,106,50612,1,8,0:0:0:0:
194,120,51318,1,8,0:0:0:0:
186,217,52024,1,8,0:0:0:0:
270,166,52730,1,0,0:0:0:0:
354,116,53436,1,8,0:0:0:0:
265,158,54142,1,8,0:0:0:0:
167,150,54848,1,0,0:0:0:0:
69,142,55201,1,8,0:0:0:0:
264,149,55907,1,8,0:0:0:0:
215,147,56259,1,0,0:0:0:0:
158,67,56612,1,0,0:0:0:0:
186,107,56965,1,8,0:0:0:0:
284,108,57318,1,12,0:0:0:0:
479,111,58024,1,12,0:0:0:0:
479,111,58730,1,12,0:0:0:0:
383,130,59436,1,0,0:0:0:0:
286,150,59789,1,8,0:0:0:0:
187,150,60495,1,0,0:0:0:0:
336,23,61201,1,8,0:0:0:0:
237,131,61554,1,0,0:0:0:0:
237,131,62612,1,0,0:0:0:0:
284,108,62965,1,12,0:0:0:0:
479,111,63671,1,12,0:0:0:0:
479,111,64377,1,12,0:0:0:0:
388,149,65083,1,0,0:0:0:0:
298,187,65436,1,8,0:0:0:0:
204,158,66142,1,8,0:0:0:0:
296,126,66495,1,0,0:0:0:0:
296,126,66848,1,8,0:0:0:0:
100,146,67554,1,0,0:0:0:0:
100,146,68259,1,12,0:0:0:0:
246,133,68789,1,8,0:0:0:0:
157,250,69318,1,0,0:0:0:0:
187,211,69671,1,8,0:0:0:0:
240,128,70201,1,8,0:0:0:0:
198,154,71083,1,8,0:0:0:0:
317,69,71612,1,8,0:0:0:0:
184,134,72142,1,0,0:0:0:0:
140,155,72495,1,8,0:0:0:0:
237,144,73024,1,8,0:0:0:0:
201,123,73907,1,4,0:0:0:0:
258,44,74436,1,0,0:0:0:0:
235,138,75318,1,8,0:0:0:0:
143,129,75848,1,8,0:0:0:0:
143,129,76377,1,0,0:0:0:0:
240,138,76730,1,0,0:0:0:0:
288,143,77436,1,8,0:0:0:0:
142,117,78142,1,8,0:0:0:0:
239,120,78495,1,0,0:0:0:0:
336,124,78848,1,0,0:0:0:0:
433,129,79201,1,8,0:0:0:0:
335,124,79554,1,4,0:0:0:0:
191,153,80083,1,0,0:0:0:0:
268,28,80612,1,0,0:0:0:0:
216,111,80965,1,8,0:0:0:0:
307,76,81671,1,0,0:0:0:0:
215,112,82377,1,0,0:0:0:0:
265,195,82907,1,8,0:0:0:0:
126,146,83436,1,0,0:0:0:0:
185,68,83789,1,8,0:0:0:0:
292,88,84495,1,8,0:0:0:0:
121,184,85201,1,0,0:0:0:0:
259,136,85907,1,8,0:0:0:0:
259,136,86612,1,8,0:0:0:0:
216,224,87318,1,0,0:0:0:0:
216,224,87671,1,8,0:0:0:0:
144,156,88024,1,0,0:0:0:0:
320,122,88730,1,8,0:0:0:0:
228,220,89789,1,0,0:0:0:0:
208,264,90142,1,8,0:0:0:0:
200,168,91201,1,8,0:0:0:0:
172,128,91554,1,8,0:0:0:0:
219,111,91907,1,0,0:0:0:0:
313,86,92259,1,8,0:0:0:0:
248,167,92965,1,8,0:0:0:0:
211,199,93318,1,0,0:0:0:0:
156,62,94024,1,0,0:0:0:0:
148,159,94377,1,12,0:0:0:0:
196,122,95083,1,0,0:0:0:0:
210,195,95789,1,8,0:0:0:0:
229,150,96495,1,0,0:0:0:0:
139,109,97201,1,12,0:0:0:0:
201,294,97907,1,0,0:0:0:0:
170,201,98612,1,8,0:0:0:0:
170,201,98965,1,0,0:0:0:0:
117,118,99318,1,0,0:0:0:0:
310,90,100024,1,8,0:0:0:0:
219,128,100730,1,8,0:0:0:0:
242,170,101436,1,0,0:0:0:0:
233,72,101789,1,0,0:0:0:0:
238,120,102142,1,8,0:0:0:0:
163,183,102495,1,0,0:0:0:0:
213,170,103201,1,0,0:0:0:0:
301,128,103554,1,0,0:0:0:0:
300,128,104259,1,8,0:0:0:0:
300,128,104965,1,8,0:0:0:0:
299,177,107082,1,8,0:0:0:0:
107,136,107788,1,0,0:0:0:0:
179,148,109905,1,8,0:0:0:0:
194,120,110611,1,8,0:0:0:0:
186,217,111317,1,8,0:0:0:0:
270,166,112023,1,0,0:0:0:0:
354,116,112729,1,8,0:0:0:0:
265,158,113435,1,8,0:0:0:0:
167,150,114141,1,0,0:0:0:0:
69,142,114494,1,8,0:0:0:0:
264,149,115200,1,8,0:0:0:0:
215,147,115552,1,0,0:0:0:0:
158,67,115905,1,0,0:0:0:0:
186,107,116258,1,8,0:0:0:0:
284,108,116611,1,12,0:0:0:0:
479,111,117317,1,12,0:0:0:0:
479,111,118023,1,12,0:0:0:0:
383,130,118729,1,0,0:0:0:0:
286,150,119082,1,8,0:0:0:0:
187,150,119788,1,0,0:0:0:0:
336,23,120494,1,8,0:0:0:0:
237,131,120847,1,0,0:0:0:0:
237,131,121905,1,0,0:0:0:0:
284,108,122258,1,12,0:0:0:0:
479,111,122964,1,12,0:0:0:0:
479,111,123670,1,12,0:0:0:0:
388,149,124376,1,0,0:0:0:0:
298,187,124729,1,8,0:0:0:0:
204,158,125435,1,8,0:0:0:0:
296,126,125788,1,0,0:0:0:0:
296,126,126141,1,8,0:0:0:0:
100,146,126847,1,0,0:0:0:0:
100,146,127552,1,12,0:0:0:0:
246,133,128082,1,8,0:0:0:0:
157,250,128611,1,0,0:0:0:0:
187,211,128964,1,8,0:0:0:0:
240,128,129494,1,8,0:0:0:0:
198,154,130376,1,8,0:0:0:0:
317,69,130905,1,8,0:0:0:0:
184,134,131435,1,0,0:0:0:0:
140,155,131788,1,8,0:0:0:0:
237,144,132317,1,8,0:0:0:0:
201,123,133200,1,4,0:0:0:0:
258,44,133729,1,0,0:0:0:0:
235,138,134611,1,8,0:0:0:0:
143,129,135141,1,8,0:0:0:0:
143,129,135670,1,0,0:0:0:0:
240,138,136023,1,0,0:0:0:0:
288,143,136729,1,8,0:0:0:0:
142,117,137435,1,8,0:0:0:0:
239,120,137788,1,0,0:0:0:0:
336,124,138141,1,0,0:0:0:0:
433,129,138494,1,8,0:0:0:0:
335,124,138847,1,4,0:0:0:0:
199,128,147670,5,8,0:0:0:0:
296,122,148729,1,0,0:0:0:0:
177,209,149435,1,8,0:0:0:0:
318,73,150141,1,8,0:0:0:0:
212,175,150670,1,8,0:0:0:0:
212,175,151552,1,8,0:0:0:0:
168,152,152964,1,8,0:0:0:0:
168,152,153494,1,8,0:0:0:0:
201,115,154376,1,8,0:0:0:0:
201,115,155435,1,0,0:0:0:0:
111,170,155788,1,0,0:0:0:0:
20,207,156494,1,0,0:0:0:0:
108,165,157199,1,8,0:0:0:0:
285,82,157905,1,8,0:0:0:0:
203,136,158611,1,8,0:0:0:0:
122,192,159141,1,8,0:0:0:0:
211,74,159670,1,0,0:0:0:0:
278,144,160023,1,8,0:0:0:0:
278,144,160552,1,8,0:0:0:0:
230,156,161082,1,0,0:0:0:0:
86,123,161788,1,8,0:0:0:0:
280,134,162494,1,8,0:0:0:0:
231,131,162847,1,0,0:0:0:0:
264,149,163199,1,8,0:0:0:0:
215,147,163551,1,0,0:0:0:0:
158,67,163904,1,0,0:0:0:0:
186,107,164257,1,8,0:0:0:0:
284,108,164610,1,12,0:0:0:0:
479,111,165316,1,12,0:0:0:0:
479,111,166022,1,12,0:0:0:0:
383,130,166728,1,0,0:0:0:0:
286,150,167081,1,8,0:0:0:0:
187,150,167787,1,0,0:0:0:0:
336,23,168493,1,8,0:0:0:0:
237,131,168846,1,0,0:0:0:0:
237,131,169904,1,0,0:0:0:0:
284,108,170257,1,12,0:0:0:0:
479,111,170963,1,12,0:0:0:0:
479,111,171669,1,12,0:0:0:0:
388,149,172375,1,0,0:0:0:0:
298,187,172728,1,8,0:0:0:0:
204,158,173434,1,8,0:0:0:0:
296,126,173787,1,0,0:0:0:0:
296,126,174140,1,8,0:0:0:0:
100,146,174846,1,0,0:0:0:0:
100,146,175551,1,12,0:0:0:0:
246,133,176081,1,8,0:0:0:0:
157,250,176610,1,0,0:0:0:0:
187,211,176963,1,8,0:0:0:0:
240,128,177493,1,8,0:0:0:0:
198,154,178375,1,8,0:0:0:0:
317,69,178904,1,8,0:0:0:0:
184,134,179434,1,0,0:0:0:0:
140,155,179787,1,8,0:0:0:0:
237,144,180316,1,8,0:0:0:0:
201,123,181199,1,4,0:0:0:0:
258,44,181728,1,0,0:0:0:0:
235,138,182610,1,8,0:0:0:0:
143,129,183140,1,8,0:0:0:0:
143,129,183669,1,0,0:0:0:0:
240,138,184022,1,0,0:0:0:0:
288,143,184728,1,8,0:0:0:0:
142,117,185434,1,8,0:0:0:0:
239,120,185787,1,0,0:0:0:0:
336,124,186140,1,0,0:0:0:0:
433,129,186493,1,8,0:0:0:0:
335,124,186846,1,4,0:0:0:0:
