osu file format v14

[General]
AudioFilename: audio.mp3
AudioLeadIn: 0
PreviewTime: 55725
Countdown: 0
SampleSet: Normal
StackLeniency: 0.7
Mode: 0
LetterboxInBreaks: 0
WidescreenStoryboard: 0

[Editor]
Bookmarks: 138842,150136
DistanceSpacing: 0.9
BeatDivisor: 4
GridSize: 32
TimelineZoom: 2.1

[Metadata]
Title:POP/STARS (ft Madison Beer, (G)I-DLE, Jaira Burns)
TitleUnicode:POP/STARS (ft Madison Beer, (G)I-DLE, Jaira Burns)
Artist:K/DA
ArtistUnicode:K/DA
Creator:Seox
Version:Extra
Source:League Of Legends
Tags:
BeatmapID:1843302
BeatmapSetID:881625

[Difficulty]
HPDrainRate:6
CircleSize:4
OverallDifficulty:8.8
ApproachRate:9.4
SliderMultiplier:1.9
SliderTickRate:1

[Events]
//Background and Video events
0,0,"bgex.jpg",0,0
//Break Periods
2,141666,149596
//Storyboard Layer 0 (Background)
//Storyboard Layer 1 (Fail)
//Storyboard Layer 2 (Pass)
//Storyboard Layer 3 (Foreground)
//Storyboard Sound Samples

[TimingPoints]
490,352.941176470588,4,1,0,100,1,0
490,-133.333333333333,4,1,0,100,0,0
11784,352.941176470588,4,1,0,100,1,0
11784,-100,4,1,0,100,0,0
28019,-133.333333333333,4,1,0,100,0,0
28725,-100,4,1,0,100,0,0
34372,-200,4,1,0,100,0,0
45666,-133.333333333333,4,1,0,100,0,0
51313,-100,4,1,0,100,0,0
55548,-181.818181818181,4,1,0,100,0,0
56960,-66.6666666666667,4,1,0,100,0,1
79548,-100,4,1,0,100,0,0
82372,-83.3333333333333,4,1,0,100,0,0
104960,-133.333333333333,4,1,0,100,0,0
116254,-66.6666666666667,4,1,0,100,0,1
138842,-200,4,1,0,100,0,0
150136,-133.333333333333,4,1,0,100,0,0
164254,-66.6666666666667,4,1,0,100,0,1
186842,-100,4,1,0,100,0,0

[Colours]
Combo1 : 255,128,192
Combo2 : 0,255,255

[HitObjects]
256,192,4723,12,0,5958,0:0:0:0:
83,55,6135,6,0,P|86:99|99:141,1,71.2500027179719
102,284,6487,1,0,0:0:0:0:
213,283,6664,1,0,0:0:0:0:
305,358,6840,2,0,P|333:342|363:304,1,71.2500027179719
451,306,7193,2,0,P|439:260|415:220,1,71.2500027179719
304,137,7546,5,0,0:0:0:0:
343,241,7723,1,0,0:0:0:0:
390,67,7899,1,0,0:0:0:0:
410,172,8076,1,0,0:0:0:0:
279,124,8252,2,0,P|259:82|256:37,1,71.2500027179719
143,80,8605,2,0,P|149:45|172:5,1,71.2500027179719
116,182,8958,6,0,L|39:177,2,71.2500027179719
180,267,9487,2,0,L|255:257,2,71.2500027179719
75,275,10017,2,0,P|60:314|60:361,1,71.2500027179719
258,341,10370,5,0,0:0:0:0:
379,315,10546,1,0,0:0:0:0:
258,341,10723,1,0,0:0:0:0:
379,315,10899,1,0,0:0:0:0:
250,257,11076,6,0,P|181:291|176:367,1,142.500005435944
379,315,11784,6,0,P|388:273|384:220,1,95
292,105,12136,1,0,0:0:0:0:
250,257,12313,1,0,0:0:0:0:
168,131,12489,2,0,B|117:124|117:124|69:131,1,95
11,275,12842,2,0,B|62:282|62:282|105:275,1,95
250,257,13195,5,0,0:0:0:0:
168,131,13372,1,0,0:0:0:0:
219,349,13548,2,0,B|266:360|266:360|314:353,1,95
426,301,13901,1,0,0:0:0:0:
472,118,14078,1,0,0:0:0:0:
413,258,14254,1,0,0:0:0:0:
301,131,14431,1,0,0:0:0:0:
406,221,14607,6,0,B|336:178|322:312|215:260,1,190
130,158,15136,1,0,0:0:0:0:
260,201,15313,1,0,0:0:0:0:
80,293,15489,1,0,0:0:0:0:
274,170,15666,2,0,P|244:227|250:275,1,95
375,354,16019,6,0,L|483:349,1,95
244,256,16372,2,0,L|136:251,1,95
388,192,16725,2,0,L|496:187,1,95
243,93,17078,2,0,L|135:88,1,95
368,35,17431,5,0,0:0:0:0:
350,278,17607,1,0,0:0:0:0:
247,120,17783,1,0,0:0:0:0:
253,365,17960,1,0,0:0:0:0:
319,190,18136,1,0,0:0:0:0:
200,284,18313,1,0,0:0:0:0:
350,278,18489,6,0,P|390:244|271:120,1,285
200,284,19195,1,0,0:0:0:0:
321,192,19372,1,0,0:0:0:0:
124,232,19548,2,0,P|110:290|124:342,1,95
229,198,19901,2,0,P|235:152|222:107,1,95
74,57,20254,5,0,0:0:0:0:
126,235,20431,1,0,0:0:0:0:
126,235,20519,1,0,0:0:0:0:
126,235,20607,1,0,0:0:0:0:
212,82,20783,1,0,0:0:0:0:
34,227,20960,2,0,L|50:337,1,95
210,276,21313,2,0,L|195:383,1,95
306,202,21666,6,0,L|322:312,1,95
482,251,22019,2,0,L|467:358,1,95
292,107,22372,2,0,L|308:217,1,95
495,156,22725,2,0,L|480:263,1,95
304,364,23078,5,0,0:0:0:0:
183,146,23254,1,0,0:0:0:0:
358,267,23431,1,0,0:0:0:0:
127,326,23607,1,0,0:0:0:0:
127,326,23695,1,0,0:0:0:0:
127,326,23783,2,0,P|161:324|217:355,1,95
101,193,24136,1,0,0:0:0:0:
39,280,24313,1,0,0:0:0:0:
17,157,24489,6,0,P|39:124|107:79,1,95
262,104,24842,1,0,0:0:0:0:
101,193,25019,1,0,0:0:0:0:
328,170,25195,2,0,P|383:211|405:250,1,95
355,344,25548,2,0,P|345:297|321:257,1,95
179,125,25901,5,0,0:0:0:0:
206,343,26078,1,0,0:0:0:0:
328,170,26254,1,0,0:0:0:0:
101,193,26431,1,0,0:0:0:0:
101,193,26519,1,0,0:0:0:0:
101,193,26607,2,0,B|96:247|96:247|99:304,1,95
168,60,26960,1,0,0:0:0:0:
209,253,27136,1,0,0:0:0:0:
295,134,27313,6,0,P|303:79|303:35,1,95
383,148,27666,2,0,P|383:195|391:242,1,95
300,357,28019,1,0,0:0:0:0:
300,357,28725,5,0,0:0:0:0:
183,261,28901,1,0,0:0:0:0:
323,208,29078,1,0,0:0:0:0:
209,357,29254,1,0,0:0:0:0:
223,174,29431,1,0,0:0:0:0:
368,295,29607,1,0,0:0:0:0:
183,261,29783,2,0,B|117:255|117:255|-9:275,1,190
164,128,30313,5,0,0:0:0:0:
261,337,30489,2,0,P|270:289|266:232,1,95
213,64,30842,1,0,0:0:0:0:
183,262,31019,1,0,0:0:0:0:
115,61,31195,1,0,0:0:0:0:
236,189,31372,1,0,0:0:0:0:
95,145,31548,6,0,L|50:158,2,47.5
236,189,31901,1,0,0:0:0:0:
88,266,32078,1,0,0:0:0:0:
265,218,32254,1,0,0:0:0:0:
95,145,32431,1,0,0:0:0:0:
279,258,32607,1,0,0:0:0:0:
169,65,32783,1,0,0:0:0:0:
214,349,32960,6,0,P|188:304|181:253,1,95
453,247,33313,2,0,P|444:293|419:333,1,95
173,335,33666,2,0,P|156:281|161:226,1,95
470,293,34019,2,0,P|449:339|414:376,1,95
274,331,34372,6,0,B|286:119|286:119|280:225|280:225|379:143|379:143|280:224|280:224|380:331,1,712.5
111,342,37195,2,0,B|11:80|11:80|101:69|181:113|236:161|215:249|198:307|112:343,1,712.5
413,267,40019,2,0,B|180:344|180:344|233:95|233:95|406:250,1,712.5
392,237,42842,6,0,P|394:174|334:99,1,142.5
425,295,43548,2,0,P|396:245|311:224,1,142.5
484,287,44254,2,0,L|474:351,1,47.5
343,313,44607,2,0,L|359:373,1,47.5
277,266,44960,1,0,0:0:0:0:
244,357,45136,1,0,0:0:0:0:
121,258,45313,1,0,0:0:0:0:
160,358,45489,1,0,0:0:0:0:
203,227,45666,6,0,L|207:149,1,71.2500027179719
121,80,46019,1,0,0:0:0:0:
121,80,46195,1,0,0:0:0:0:
62,257,46372,2,0,L|78:335,1,71.2500027179719
242,213,46725,2,0,L|223:126,1,71.2500027179719
155,284,47078,5,0,0:0:0:0:
354,332,47254,1,0,0:0:0:0:
225,348,47431,1,0,0:0:0:0:
399,264,47607,1,0,0:0:0:0:
233,266,47783,2,0,P|217:224|208:180,1,71.2500027179719
439,279,48136,2,0,P|441:323|432:373,1,71.2500027179719
342,174,48489,6,0,B|295:137|274:233|193:190,1,142.500005435944
207,68,49019,1,0,0:0:0:0:
64,200,49195,2,0,P|43:245|35:288,1,71.2500027179719
179,274,49548,2,0,P|200:319|208:362,1,71.2500027179719
161,160,49901,5,0,0:0:0:0:
229,342,50078,1,0,0:0:0:0:
285,183,50254,1,0,0:0:0:0:
265,365,50431,1,0,0:0:0:0:
365,256,50607,2,0,B|408:251|408:251|455:268,1,71.2500027179719
265,365,50960,2,0,B|222:370|222:370|175:353,1,71.2500027179719
368,161,51313,6,0,L|365:255,1,95
213,176,51666,2,0,L|210:82,1,95
400,195,52019,2,0,L|363:319,1,95
190,160,52372,2,0,L|219:35,1,95
147,291,52725,6,0,P|94:307|48:295,1,95
190,160,53078,2,0,P|236:152|280:168,1,95
140,309,53431,2,0,P|73:329|14:314,1,95
196,141,53784,2,0,P|255:131|312:151,1,95
357,337,54136,5,0,0:0:0:0:
413,5,54313,1,0,0:0:0:0:
308,355,54489,5,0,0:0:0:0:
225,45,54666,1,0,0:0:0:0:
263,356,54842,5,0,0:0:0:0:
61,118,55019,1,0,0:0:0:0:
301,196,55195,1,0,0:0:0:0:
41,291,55372,1,0,0:0:0:0:
41,291,55901,6,0,L|41:349,1,47.5
118,245,56254,2,0,L|118:303,1,47.5
195,189,56607,1,0,0:0:0:0:
200,355,56783,1,0,0:0:0:0:
293,178,56960,6,0,B|298:140|298:140|284:30,1,142.500005435944
101,120,57313,2,0,P|72:162|50:258,1,142.500005435944
383,351,57666,2,0,P|417:288|427:218,1,142.500005435944,0|0,0:3|0:0,0:0:0:0:
75,142,58019,2,0,P|53:194|49:301,1,142.500005435944
425,331,58372,6,0,P|449:258|445:180,1,142.500005435944,0|0,0:3|0:0,0:0:0:0:
50,173,58725,2,0,P|36:232|53:350,1,142.500005435944
466,311,59078,2,0,P|478:226|459:143,1,142.500005435944,0|0,0:3|0:0,0:0:0:0:
143,66,59431,1,0,0:0:0:0:
181,346,59607,1,0,0:0:0:0:
350,77,59783,5,0,0:0:0:0:
292,346,59960,1,0,0:0:0:0:
105,167,60136,1,0,0:0:0:0:
357,195,60313,1,0,0:0:0:0:
49,248,60489,2,0,P|23:196|33:106,1,142.500005435944
198,53,60842,1,0,0:0:0:0:
164,346,61019,1,0,0:0:0:0:
105,167,61195,6,0,B|138:143|189:224|253:180,1,142.500005435944
356,105,61548,1,0,0:0:0:0:
198,53,61725,1,0,0:0:0:0:
391,209,61901,1,0,0:0:0:0:
195,282,62078,1,0,0:0:0:0:
356,105,62254,1,0,0:0:0:0:
294,358,62431,1,0,0:0:0:0:
166,193,62607,6,0,P|115:243|113:324,1,142.500005435944
294,358,62960,2,0,P|293:300|272:206,1,142.500005435944
173,17,63313,2,0,P|194:78|188:169,1,142.500005435944
231,360,63666,2,0,P|251:306|265:210,1,142.500005435944
241,0,64019,2,0,P|238:63|200:146,1,142.500005435944
173,340,64372,2,0,P|211:297|258:213,1,142.500005435944
311,6,64725,2,0,P|286:65|220:129,1,142.500005435944
96,255,65078,1,0,0:0:0:0:
408,191,65254,1,0,0:0:0:0:
57,180,65431,6,0,P|32:211|34:319,1,142.500005435944
296,353,65783,1,0,0:0:0:0:
96,255,65960,1,0,0:0:0:0:
258,178,66136,1,0,0:0:0:0:
205,367,66313,1,0,0:0:0:0:
190,102,66489,1,0,0:0:0:0:
295,257,66666,1,0,0:0:0:0:
323,78,66842,6,0,B|270:45|241:120|185:100,1,142.500005435944
50,115,67195,1,0,0:0:0:0:
103,303,67372,1,0,0:0:0:0:
213,144,67548,1,0,0:0:0:0:
205,339,67725,1,0,0:0:0:0:
382,190,67901,1,0,0:0:0:0:
298,366,68078,1,0,0:0:0:0:
213,144,68254,5,0,0:0:0:0:
233,106,68342,1,0,0:0:0:0:
270,85,68431,1,0,0:0:0:0:
311,74,68519,1,0,0:0:0:0:
353,79,68607,2,0,P|420:109|460:176,1,142.500005435944
373,232,68960,2,0,B|364:275|364:275|382:374,1,142.500005435944
245,341,69313,2,0,B|262:244|262:244|253:201,1,142.500005435944
148,80,69666,5,0,0:0:0:0:
75,271,69842,1,0,0:0:0:0:
110,55,70019,1,0,0:0:0:0:
163,326,70195,1,0,0:0:0:0:
34,79,70372,2,0,B|14:141|14:141|22:241,1,142.500005435944
213,352,70725,2,0,B|219:274|219:274|199:212,1,142.500005435944
214,73,71078,5,0,0:0:0:0:
244,102,71166,1,0,0:0:0:0:
285,113,71254,1,0,0:0:0:0:
327,111,71342,1,0,0:0:0:0:
368,100,71431,2,0,P|399:85|453:63,1,71.2500027179719
500,226,71607,2,0,P|463:217|414:211,1,71.2500027179719
273,235,71783,2,0,P|248:309|387:276,1,285.000010871888
327,111,72313,1,0,0:0:0:0:
166,212,72489,6,0,B|157:250|157:250|179:365,1,142.500005435944
117,96,72842,1,0,0:0:0:0:
57,213,73019,1,0,0:0:0:0:
36,44,73195,1,0,0:0:0:0:
191,145,73372,1,0,0:0:0:0:
191,145,73460,1,0,0:0:0:0:
191,145,73548,2,0,B|150:111|108:219|31:143,1,142.500005435944
249,57,73901,5,0,0:0:0:0:
310,236,74078,1,0,0:0:0:0:
282,268,74166,1,0,0:0:0:0:
244,287,74254,1,0,0:0:0:0:
201,289,74342,1,0,0:0:0:0:
159,276,74431,1,0,0:0:0:0:
67,180,74607,2,0,P|43:228|43:317,1,142.500005435944
199,159,74960,6,0,P|201:94|130:206,1,427.500016307831
342,182,75666,1,0,0:0:0:0:
128,122,75842,1,0,0:0:0:0:
246,329,76019,2,0,P|283:342|390:333,1,142.500005435944
476,95,76372,2,0,P|475:196|454:257,1,142.500005435944
192,255,76725,5,0,0:0:0:0:
192,255,76813,1,0,0:0:0:0:
192,255,76901,1,0,0:0:0:0:
404,149,77078,1,0,0:0:0:0:
94,181,77254,5,0,0:0:0:0:
395,261,77431,1,0,0:0:0:0:
85,73,77607,5,0,0:0:0:0:
335,355,77783,1,0,0:0:0:0:
171,24,77960,1,0,0:0:0:0:
148,346,78136,6,0,P|148:308|175:357,1,142.500005435944
279,45,78489,1,0,0:0:0:0:
182,362,78666,1,0,0:0:0:0:
152,44,78842,1,0,0:0:0:0:
275,370,79019,1,0,0:0:0:0:
286,34,79195,1,0,0:0:0:0:
179,382,79372,1,0,0:0:0:0:
132,28,79548,6,0,P|135:110|79:218,1,190
255,168,80078,2,0,P|252:250|308:358,1,190
120,290,80607,2,0,P|123:346|113:403,1,95
326,156,80960,5,0,0:0:0:0:
310,349,81136,1,0,0:0:0:0:
201,127,81313,1,0,0:0:0:0:
192,277,81489,1,0,0:0:0:0:
303,66,81666,1,0,0:0:0:0:
349,42,81754,1,0,0:0:0:0:
400,45,81842,1,0,0:0:0:0:
436,82,81931,1,0,0:0:0:0:
444,133,82019,1,0,0:0:0:0:
416,177,82107,1,0,0:0:0:0:
381,216,82195,1,0,0:0:0:0:
376,267,82283,1,0,0:0:0:0:
422,310,82372,6,0,B|373:263|313:387|209:327,1,227.999993041992
198,296,82901,1,0,0:0:0:0:
198,296,83254,1,0,0:0:0:0:
146,38,83431,1,0,0:0:0:0:
183,341,83607,1,0,0:0:0:0:
79,145,83783,5,0,0:0:0:0:
152,366,83960,1,0,0:0:0:0:
261,189,84136,1,0,0:0:0:0:
40,280,84313,1,0,0:0:0:0:
254,344,84489,2,0,P|298:355|369:340,1,113.999996520996
438,259,84842,1,0,0:0:0:0:
261,189,85019,1,0,0:0:0:0:
453,93,85195,6,0,P|482:138|498:210,1,113.999996520996
312,42,85548,1,0,0:0:0:0:
312,42,85725,2,0,P|290:72|277:102,1,56.9999982604981
261,189,85901,1,0,0:0:0:0:
164,121,86078,1,0,0:0:0:0:
160,269,86254,1,0,0:3:0:0:
257,337,86431,1,0,0:3:0:0:
83,209,86607,6,0,P|62:264|59:329,1,113.999996520996
164,121,86960,2,0,P|184:173|188:230,1,113.999996520996
72,75,87313,1,0,0:0:0:0:
261,189,87489,1,0,0:0:0:0:
56,213,87666,1,0,0:0:0:0:
56,213,88019,5,0,0:0:0:0:
223,333,88195,1,0,0:0:0:0:
277,363,88283,1,0,0:0:0:0:
339,357,88372,1,0,0:0:0:0:
386,316,88460,1,0,0:0:0:0:
387,253,88548,1,0,0:0:0:0:
283,119,88725,1,0,0:0:0:0:
307,278,88901,1,0,0:0:0:0:
340,44,89078,2,0,P|282:29|226:44,1,113.999996520996
171,242,89431,5,0,0:0:0:0:
171,242,89607,2,0,P|157:200|154:169,1,56.9999982604981
117,66,89783,1,0,0:0:0:0:
61,303,89960,1,0,0:0:0:0:
43,135,90136,1,0,0:0:0:0:
150,357,90313,1,0,0:0:0:0:
172,243,90489,2,0,P|217:264|284:269,1,113.999996520996
472,352,90842,5,0,0:0:0:0:
439,214,91019,2,0,L|428:276,1,56.9999982604981
317,152,91195,2,0,L|328:214,1,56.9999982604981
416,86,91372,1,0,0:0:0:0:
228,77,91548,1,0,0:0:0:0:
372,355,91725,1,0,0:0:0:0:
486,223,91901,2,0,B|412:162|364:313|273:265,1,227.999993041992
313,89,92431,5,0,0:0:0:0:
308,369,92607,1,0,0:0:0:0:
162,91,92783,5,0,0:0:0:0:
214,323,92960,1,0,0:0:0:0:
47,113,93136,5,0,0:0:0:0:
88,295,93313,1,0,0:0:0:0:
191,173,93489,1,0,0:0:0:0:
191,173,93578,1,0,0:0:0:0:
191,173,93666,6,0,P|129:185|68:181,2,113.999996520996
232,57,94195,1,0,0:0:0:0:
362,153,94372,5,0,0:0:0:0:
389,209,94460,1,0,0:0:0:0:
384,271,94548,1,0,0:0:0:0:
357,327,94636,1,0,0:0:0:0:
298,351,94725,2,0,P|235:363|170:347,1,113.999996520996
49,219,95078,5,0,0:0:0:0:
257,268,95254,1,0,0:0:0:0:
72,243,95431,1,0,0:0:0:0:
217,181,95607,1,0,0:0:0:0:
217,181,95695,1,0,0:0:0:0:
217,181,95783,2,0,P|190:253|201:380,2,170.999994781494
399,66,96489,5,0,0:0:0:0:
346,357,96666,1,0,0:0:0:0:
239,62,96842,1,0,0:0:0:0:
343,315,97019,1,0,0:0:0:0:
138,162,97195,2,0,P|95:178|38:225,1,113.999996520996
171,358,97548,2,0,P|120:305|152:147,1,227.999993041992
256,35,98078,5,0,0:0:0:0:
419,346,98254,2,0,P|434:277|429:224,1,113.999996520996
373,186,98519,1,0,0:0:0:0:
356,182,98607,1,0,0:0:0:0:
228,248,98783,1,0,0:0:0:0:
223,282,98872,1,0,0:0:0:0:
227,315,98960,1,0,0:0:0:0:
357,140,99136,1,0,0:0:0:0:
175,135,99313,6,0,B|140:150|140:150|48:140,1,113.999996520996
185,33,99666,1,0,0:0:0:0:
230,249,99842,1,0,0:0:0:0:
266,102,100019,2,0,P|312:62|376:48,1,113.999996520996
484,155,100372,2,0,P|421:163|315:295,1,227.999993041992
188,335,100901,5,0,0:0:0:0:
172,304,100989,1,0,0:0:0:0:
162,270,101078,1,0,0:0:0:0:
62,193,101254,1,0,0:0:0:0:
60,158,101342,1,0,0:0:0:0:
71,125,101431,1,0,0:0:0:0:
150,50,101607,1,0,0:0:0:0:
254,202,101783,1,0,0:0:0:0:
277,67,101960,1,0,0:0:0:0:
140,183,102136,6,0,L|17:182,2,113.999996520996
336,336,102666,1,0,0:0:0:0:
385,102,102842,1,0,0:0:0:0:
203,356,103019,1,0,0:0:0:0:
203,356,103107,1,0,0:0:0:0:
203,356,103195,2,0,L|177:240,1,113.999996520996
346,238,103548,6,0,L|370:126,1,113.999996520996
121,33,103901,1,0,0:0:0:0:
199,333,104078,1,0,0:0:0:0:
65,124,104254,1,0,0:0:0:0:
156,339,104431,1,0,0:0:0:0:
156,339,104519,1,0,0:0:0:0:
156,339,104607,1,0,0:0:0:0:
212,116,104783,1,0,0:0:0:0:
93,264,104960,6,0,B|151:178|256:385|355:293,1,285.000010871888
373,226,105842,1,0,0:0:0:0:
281,209,106018,1,0,0:0:0:0:
248,120,106195,1,0,0:0:0:0:
323,65,106372,2,0,P|388:60|459:108,2,142.500005435944
275,191,107431,2,0,P|245:160|226:126,1,71.2500027179719
159,67,107695,1,0,0:0:0:0:
159,67,107783,6,0,P|174:157|119:354,1,285.000010871888
70,182,108666,1,0,0:0:0:0:
70,182,108842,2,0,L|68:275,1,71.2500027179719
280,198,109195,6,0,L|279:109,2,71.2500027179719
350,302,109725,1,0,0:0:0:0:
442,236,109901,2,0,P|469:291|474:349,2,106.875004076958
350,302,110607,6,0,B|267:235|189:382|77:317,1,285.000010871888
110,200,111489,1,0,0:0:0:0:
110,200,111666,2,0,P|143:248|150:277,1,71.2500027179719
19,191,112019,6,0,P|34:143|61:117,1,71.2500027179719
205,240,112372,2,0,P|248:246|297:242,1,71.2500027179719
406,182,112725,2,0,P|423:143|421:93,1,71.2500027179719
294,76,113078,1,0,0:0:0:0:
315,173,113254,1,0,0:0:0:0:
212,51,113431,5,0,0:0:0:0:
115,214,113607,1,0,0:0:0:0:
82,39,113783,1,0,0:0:0:0:
232,233,113960,1,0,0:0:0:0:
228,30,114136,6,0,L|216:94,1,35.625001358986
103,234,114312,2,0,L|103:176,1,35.625001358986
62,14,114488,2,0,L|77:71,1,35.625001358986
250,258,114665,2,0,L|241:201,1,35.625001358986
218,22,114842,1,0,0:0:0:0:
146,130,115195,5,0,0:0:0:0:
165,355,115372,1,0,0:0:0:0:
361,239,115548,1,0,0:0:0:0:
160,81,115725,5,0,0:0:0:0:
109,338,115902,1,0,0:0:0:0:
364,271,116078,1,0,0:0:0:0:
64,69,116254,6,0,B|48:103|48:103|57:224,1,142.500005435944
293,348,116607,2,0,P|320:290|301:204,1,142.500005435944
138,82,116960,2,0,P|124:150|152:215,1,142.500005435944
395,321,117313,2,0,P|387:245|314:168,1,142.500005435944
70,143,117666,2,0,P|99:222|168:272,1,142.500005435944
456,248,118019,2,0,P|411:176|302:135,1,142.500005435944
50,228,118372,2,0,P|116:293|208:308,1,142.500005435944
456,248,118725,1,0,0:0:0:0:
118,93,118901,1,0,0:0:0:0:
309,342,119078,6,0,P|302:292|308:188,1,142.500005435944
299,41,119431,1,0,0:0:0:0:
214,355,119607,1,0,0:0:0:0:
177,9,119783,1,0,0:0:0:0:
123,367,119960,1,0,0:0:0:0:
392,191,120136,1,0,0:0:0:0:
71,187,120313,1,0,0:0:0:0:
458,342,120489,6,0,B|473:305|473:305|473:197,1,142.500005435944
330,53,120842,1,0,0:0:0:0:
310,320,121019,1,0,0:0:0:0:
223,113,121195,1,0,0:0:0:0:
392,191,121372,1,0,0:0:0:0:
188,241,121548,1,0,0:0:0:0:
423,296,121725,1,0,0:0:0:0:
191,363,121901,5,0,0:0:0:0:
191,363,122078,1,0,0:0:0:0:
191,363,122254,2,0,P|170:323|156:220,1,142.500005435944
274,49,122607,2,0,P|252:116|253:187,1,142.500005435944
143,340,122960,2,0,P|135:293|155:185,1,142.500005435944,0|0,1:0|1:0,1:0:0:0:
330,53,123313,2,0,P|286:114|264:185,1,142.500005435944,0|0,1:0|1:0,1:0:0:0:
107,290,123666,2,0,P|117:244|174:150,1,142.500005435944,0|0,1:0|1:0,1:0:0:0:
384,88,124019,2,0,P|321:129|275:188,1,142.500005435944,0|0,1:0|1:0,1:0:0:0:
228,333,124372,1,0,0:0:0:0:
224,6,124548,1,0,0:0:0:0:
415,281,124725,6,0,B|329:200|233:382|147:327,1,285.000010871888,0|0,0:1|0:1,0:1:0:0:
170,85,125254,1,0,0:0:0:0:
228,333,125431,1,0,0:0:0:0:
56,153,125607,1,0,0:0:0:0:
246,303,125783,1,0,0:0:0:0:
8,307,125960,1,0,0:0:0:0:
283,214,126136,6,0,P|326:260|329:349,1,142.500005435944
183,237,126489,1,0,0:0:0:0:
195,135,126666,1,0,0:0:0:0:
210,38,126842,1,0,0:0:0:0:
101,288,127019,1,0,0:0:0:0:
55,66,127195,1,0,0:0:0:0:
315,148,127372,1,0,0:0:0:0:
315,148,127460,1,0,0:0:0:0:
315,148,127548,6,0,P|297:209|306:306,1,142.500005435944
422,54,127901,2,0,P|440:115|431:212,1,142.500005435944
147,51,128254,1,0,0:0:0:0:
358,129,128431,1,0,0:0:0:0:
132,256,128607,1,0,0:0:0:0:
334,135,128783,1,0,0:0:0:0:
104,47,128960,5,0,0:0:0:0:
248,344,129136,1,0,0:0:0:0:
245,82,129313,1,0,0:0:0:0:
112,339,129489,1,0,0:0:0:0:
114,150,129666,2,0,P|175:168|269:168,1,142.500005435944
324,329,130019,2,0,P|368:312|446:235,1,142.500005435944
389,70,130372,5,0,0:0:0:0:
332,40,130460,1,0,0:0:0:0:
268,41,130548,1,0,0:0:0:0:
213,73,130636,1,0,0:0:0:0:
183,130,130725,2,0,P|170:202|170:293,1,142.500005435944
92,367,131078,2,0,P|90:295|77:225,1,142.500005435944
79,59,131431,6,0,B|146:87|195:58|195:58|220:86|220:86|292:54|388:66,1,285.000010871888
436,128,131960,1,0,0:0:0:0:
279,197,132136,2,0,P|263:248|253:353,1,142.500005435944
334,60,132489,1,0,0:0:0:0:
444,201,132666,2,0,P|460:252|470:357,1,142.500005435944
363,349,133195,5,0,0:0:0:0:
363,349,133372,2,0,B|326:363|326:363|212:369,1,142.500005435944
135,320,133725,1,0,0:0:0:0:
135,320,133901,2,0,P|178:291|281:292,1,142.500005435944
133,136,134254,1,0,0:0:0:0:
52,346,134431,2,0,B|31:266|79:207|79:207|42:151|58:59,1,285.000010871888
180,46,134960,1,0,0:0:0:0:
141,319,135136,1,0,0:0:0:0:
247,128,135313,2,0,P|273:110|398:104,1,142.500005435944
346,355,135666,2,0,P|409:357|501:320,1,142.500005435944
381,182,136019,5,0,0:0:0:0:
381,182,136107,1,0,0:0:0:0:
381,182,136195,1,0,0:0:0:0:
90,276,136372,1,0,0:0:0:0:
410,209,136548,1,0,0:0:0:0:
80,87,136725,1,0,0:0:0:0:
421,254,136901,1,0,0:0:0:0:
178,8,137078,1,0,0:0:0:0:
248,353,137254,1,0,0:0:0:0:
372,42,137431,6,0,B|388:78|388:78|384:194,1,142.500005435944
248,353,137783,1,0,0:0:0:0:
154,21,137960,1,0,0:0:0:0:
152,322,138136,1,0,0:0:0:0:
243,72,138313,1,0,0:0:0:0:
240,329,138489,1,0,0:0:0:0:
155,51,138666,1,0,0:0:0:0:
202,199,138842,1,0,0:0:0:0:
256,192,138931,12,0,140254,0:0:0:0:
254,190,150136,6,0,P|291:198|366:133,1,142.500005435944
265,80,150666,1,0,0:0:0:0:
168,251,150842,2,0,L|174:350,1,71.2500027179719
63,247,151195,2,0,L|69:148,1,71.2500027179719
142,74,151548,6,0,B|184:59|184:59|282:74,1,142.500005435944
343,202,152078,1,0,0:0:0:0:
343,202,152254,2,0,P|379:181|404:147,1,71.2500027179719
442,295,152607,2,0,P|454:266|451:219,1,71.2500027179719
356,347,152960,2,0,B|301:304|274:388|217:355,1,142.500005435944
160,287,153489,1,0,0:0:0:0:
112,362,153666,2,0,P|63:364|27:357,1,71.2500027179719
160,287,154019,2,0,P|195:282|230:285,1,71.2500027179719
61,273,154372,6,0,P|44:205|58:134,1,142.500005435944
127,58,154901,1,0,0:0:0:0:
188,137,155078,2,0,P|222:129|265:96,1,71.2500027179719
311,171,155431,2,0,P|335:135|342:98,1,71.2500027179719
446,73,155783,6,0,B|440:112|440:112|453:233,2,142.500005435944
361,338,156842,1,0,0:0:0:0:
206,311,157195,2,0,P|132:302|63:340,2,142.500005435944
220,120,158254,1,0,0:0:0:0:
59,106,158607,5,0,0:0:0:0:
325,186,158783,1,0,0:0:0:0:
68,351,158960,1,0,0:0:0:0:
334,271,159136,1,0,0:0:0:0:
29,89,159313,1,0,0:0:0:0:
339,182,159489,1,0,0:0:0:0:
39,375,159666,1,0,0:0:0:0:
350,282,159842,1,0,0:0:0:0:
132,47,160019,5,0,0:0:0:0:
187,357,160195,1,0,0:0:0:0:
340,55,160372,1,0,0:0:0:0:
285,365,160548,1,0,0:0:0:0:
120,29,160725,1,0,0:0:0:0:
181,373,160901,1,0,0:0:0:0:
351,38,161078,1,0,0:0:0:0:
290,382,161254,1,0,0:0:0:0:
99,133,163195,6,0,L|149:124,1,35.625001358986
180,135,163372,2,0,L|199:184,1,35.625001358986
195,204,163548,2,0,L|157:239,1,35.625001358986
132,248,163725,2,0,L|122:302,1,35.625001358986
141,326,163901,2,0,L|186:364,1,35.625001358986
210,362,164078,2,0,L|266:357,1,35.625001358986
292,335,164254,6,0,P|340:328|449:321,1,142.500005435944
476,168,164607,1,0,0:0:0:0:
241,275,164783,1,0,0:0:0:0:
241,275,164872,1,0,0:0:0:0:
241,275,164960,2,0,B|212:226|212:226|210:124,1,142.500005435944
114,140,165313,2,0,P|127:93|206:43,1,142.500005435944
368,207,165666,6,0,P|370:280|319:359,1,142.500005435944
75,217,166019,2,0,P|29:151|28:88,1,142.500005435944
374,120,166372,2,0,P|409:133|454:232,1,142.500005435944
193,361,166725,1,0,0:0:0:0:
173,95,166901,1,0,0:0:0:0:
304,265,167078,5,0,0:0:0:0:
300,17,167254,1,0,0:0:0:0:
156,195,167431,1,0,0:0:0:0:
428,240,167607,1,0,0:0:0:0:
428,240,167695,1,0,0:0:0:0:
428,240,167783,2,0,P|434:295|429:390,1,142.500005435944
305,113,168136,1,0,0:0:0:0:
255,295,168313,1,0,0:0:0:0:
168,149,168489,6,0,P|158:98|165:0,1,142.500005435944
115,287,168842,1,0,0:0:0:0:
305,113,169019,1,0,0:0:0:0:
82,273,169195,1,0,0:0:0:0:
389,249,169372,1,0,0:0:0:0:
54,240,169548,1,0,0:0:0:0:
359,378,169725,1,0,0:0:0:0:
158,163,169901,6,0,P|174:239|174:309,1,142.500005435944
328,66,170254,2,0,P|339:117|363:62,1,142.500005435944
72,311,170607,2,0,P|94:259|113:312,1,142.500005435944
352,293,170960,2,0,P|371:345|393:294,1,142.500005435944
123,92,171313,2,0,P|100:40|81:93,1,142.500005435944
325,366,171666,2,0,P|347:326|328:231,1,142.500005435944
188,125,172019,1,0,0:0:0:0:
160,347,172195,1,0,0:0:0:0:
156,121,172372,1,0,0:0:0:0:
250,276,172548,1,0,0:0:0:0:
68,151,172725,6,0,P|54:106|54:4,1,142.500005435944
321,57,173078,1,0,0:0:0:0:
156,121,173254,1,0,0:0:0:0:
156,121,173342,1,0,0:0:0:0:
156,121,173431,1,0,0:0:0:0:
431,150,173607,1,0,0:0:0:0:
133,89,173783,1,0,0:0:0:0:
348,293,173960,1,0,0:0:0:0:
220,40,174136,6,0,P|226:101|217:208,1,142.500005435944
148,354,174489,2,0,L|126:276,1,71.2500027179719
348,293,174666,2,0,L|370:215,1,71.2500027179719
141,188,174842,2,0,L|119:110,1,71.2500027179719
341,127,175019,2,0,L|363:49,1,71.2500027179719
220,40,175195,2,0,B|197:118|257:120|221:197,1,142.500005435944
250,346,175548,5,0,0:0:0:0:
272,286,175636,1,0,0:0:0:0:
331,261,175725,1,0,0:0:0:0:
391,282,175813,1,0,0:0:0:0:
423,337,175901,2,0,P|411:288|429:189,1,142.500005435944
414,42,176254,1,0,0:0:0:0:
331,261,176431,1,0,0:0:0:0:
252,45,176607,2,0,P|181:35|55:188,1,285.000010871888
150,253,177136,5,0,0:0:0:0:
150,253,177313,2,0,P|160:304|155:404,1,142.500005435944
24,231,177666,2,0,P|22:184|77:89,1,142.500005435944
180,153,178019,2,0,P|309:213|439:149,1,285.000010871888
312,60,178548,5,0,0:0:0:0:
293,121,178636,1,0,0:0:0:0:
308,183,178725,1,0,0:0:0:0:
353,227,178813,1,0,0:0:0:0:
364,289,178901,1,0,0:0:0:0:
336,346,178989,1,0,0:0:0:0:
273,363,179078,2,0,P|203:371|126:358,1,142.500005435944
73,277,179431,6,0,P|36:211|70:13,1,285.000010871888
65,199,179960,1,0,0:0:0:0:
156,88,180136,2,0,P|195:62|314:41,1,142.500005435944
444,165,180489,2,0,P|382:129|313:116,1,142.500005435944
200,208,180842,1,0,0:0:0:0:
200,208,181195,5,0,0:0:0:0:
341,322,181372,1,0,0:0:0:0:
389,280,181460,1,0,0:0:0:0:
406,218,181548,1,0,0:0:0:0:
400,154,181636,1,0,0:0:0:0:
362,101,181725,1,0,0:0:0:0:
83,95,181901,2,0,P|43:145|37:245,1,142.500005435944
250,360,182254,2,0,B|317:221|185:228|261:75,1,285.000010871888
362,101,182783,5,0,0:0:0:0:
180,286,182960,2,0,P|101:291|31:275,1,142.500005435944
22,204,183225,1,0,0:0:0:0:
18,186,183313,1,0,0:0:0:0:
90,23,183489,1,0,0:0:0:0:
129,209,183666,1,0,0:0:0:0:
58,32,183842,1,0,0:0:0:0:
166,232,184019,5,0,0:0:0:0:
228,244,184107,1,0,0:0:0:0:
291,242,184195,1,0,0:0:0:0:
433,123,184372,1,0,0:0:0:0:
255,98,184548,1,0,0:0:0:0:
457,142,184725,1,0,0:0:0:0:
324,299,184901,1,0,0:0:0:0:
366,50,185078,1,0,0:0:0:0:
357,327,185254,1,0,0:0:0:0:
255,98,185431,6,0,P|203:85|116:135,1,142.500005435944
146,340,185783,2,0,P|168:297|52:232,1,213.750008153916
185,242,186136,2,0,P|121:189|35:278,1,213.750008153916
143,179,186489,2,0,P|51:178|71:338,1,285.000010871888
