osu file format v14

[General]
AudioFilename: audio.mp3
AudioLeadIn: 0
PreviewTime: 55766
Countdown: 0
SampleSet: None
StackLeniency: 0.7
Mode: 0
LetterboxInBreaks: 0
WidescreenStoryboard: 1

[Editor]
Bookmarks: 34237,82237,99178,104825
DistanceSpacing: 1
BeatDivisor: 4
GridSize: 8
TimelineZoom: 1.8

[Metadata]
Title:POP/STARS (ft Madison Beer, (G)I-DLE, Jaira Burns)
TitleUnicode:POP/STARS (ft Madison Beer, (G)I-DLE, Jaira Burns)
Artist:K/DA
ArtistUnicode:K/DA
Creator:Hullahopp
Version:Normal
Source:
Tags:
BeatmapID:1892521
BeatmapSetID:878304

[Difficulty]
HPDrainRate:3
CircleSize:3.2
OverallDifficulty:4
ApproachRate:4.8
SliderMultiplier:1
SliderTickRate:1

[Events]
//Background and Video events
0,0,"popstar bg.jpg",0,0
//Break Periods
2,34437,44308
2,79613,81014
2,105025,109249
2,138907,148778
//Storyboard Layer 0 (Background)
//Storyboard Layer 1 (Fail)
//Storyboard Layer 2 (Pass)
//Storyboard Layer 3 (Foreground)
//Storyboard Sound Samples

[TimingPoints]
11649,352.941176470588,4,3,0,100,1,0
45531,-100,4,3,0,100,0,0
56825,-100,4,3,0,100,0,1
66707,-100,4,3,0,100,0,0
68119,-100,4,3,0,100,0,1
78354,-100,4,3,0,100,0,0
116119,-100,4,3,0,100,0,1
126001,-100,4,3,0,100,0,0
127413,-100,4,3,0,100,0,1
137648,-100,4,3,0,100,0,0
150001,-100,4,3,0,100,0,0
164119,-100,4,3,0,100,0,1
174001,-100,4,3,0,100,0,0
175413,-100,4,3,0,100,0,1
185648,-100,4,3,0,100,0,0

[Colours]
Combo1 : 152,33,156
Combo2 : 89,235,252
Combo3 : 209,36,160
Combo4 : 128,128,192
Combo5 : 47,52,147

[HitObjects]
393,226,11649,6,0,L|294:237,1,100
230,159,12354,2,0,L|329:148,1,100
379,141,12884,1,0,0:0:0:0:
379,141,13060,6,0,P|402:102|403:45,1,100
306,71,13766,2,0,L|207:82,1,100
156,89,14296,1,0,0:0:0:0:
156,89,14472,6,0,P|167:135|152:187,1,100
117,219,15001,1,0,0:0:0:0:
76,247,15178,2,0,L|79:298,2,50
164,294,15884,6,0,P|211:316|259:313,1,100
349,271,16590,2,0,P|396:249|444:252,1,100
485,160,17296,6,0,L|488:107,1,50
439,95,17649,2,0,L|436:42,1,50
392,20,18001,2,0,P|349:45|297:52,1,100
205,17,18707,6,0,L|207:117,1,100
178,158,19237,1,0,0:0:0:0:
178,158,19413,2,0,P|129:142|77:147,1,100
118,238,20119,6,0,B|124:277|115:311|115:311|124:304|139:297,1,100
187,294,20648,1,0,0:0:0:0:
187,294,20825,2,0,P|211:294|236:298,1,50
278,271,21178,2,0,P|302:271|327:267,1,50
376,278,21531,6,0,P|364:229|369:180,1,100
446,117,22237,2,0,L|439:16,1,100
346,54,22943,6,0,P|292:33|242:36,1,100
212,66,23472,2,0,B|160:74|160:74|113:64,1,100
68,85,24001,2,0,L|66:139,1,50
90,178,24354,6,0,P|79:231|91:276,2,100
177,226,25413,1,0,0:0:0:0:
264,273,25766,6,0,B|312:287|312:287|362:275,1,100
408,260,26296,2,0,P|392:203|422:119,1,150
474,35,27178,6,0,L|421:32,1,50
375,44,27531,1,0,0:0:0:0:
277,68,27884,2,0,B|253:71|253:71|245:78|245:78|227:72|227:72|218:78|218:78|178:83,1,100
88,115,28590,5,0,0:0:0:0:
57,154,28766,1,0,0:0:0:0:
51,203,28943,2,0,L|51:263,1,50
44,302,29296,2,0,P|95:287|141:291,1,100
185,313,29825,1,0,0:0:0:0:
223,344,30001,6,0,L|322:340,1,100
373,337,30531,1,0,0:0:0:0:
422,332,30707,2,0,B|406:280|406:280|415:233,1,100
434,188,31237,1,0,0:0:0:0:
454,142,31413,6,0,P|465:97|452:44,1,100
412,15,31943,1,0,0:0:0:0:
363,27,32119,2,0,L|314:32,1,50
267,12,32472,2,0,L|218:7,1,50
179,39,32825,6,0,P|127:27|74:38,1,100
28,119,33531,2,0,P|80:131|133:120,1,100
220,155,34237,5,0,0:0:0:0:
149,96,45531,6,0,B|143:122|156:150|156:150|152:166|152:166|176:198|170:242,1,150
158,289,46237,2,0,P|203:268|255:266,1,100
350,288,46943,6,0,B|397:312|443:279|443:279|424:259|413:232,1,150
432,189,47648,2,0,L|404:90,1,100
305,78,48354,6,0,B|325:152|325:152|288:130|248:133,1,150
222,170,49060,2,0,P|169:181|119:170,1,100
68,89,49766,6,0,P|83:162|76:236,1,150
40,271,50472,2,0,B|25:320|25:320|40:367,1,100
87,380,51001,1,0,0:0:0:0:
127,350,51178,6,0,L|226:342,1,100
268,250,51884,2,0,L|367:242,1,100
442,175,52590,2,0,B|456:128|456:128|440:79,1,100
351,32,53296,2,0,B|337:79|337:79|353:128,1,100
256,192,53825,12,0,55413,0:0:0:0:
162,269,56825,5,0,0:0:0:0:
257,297,57178,2,0,L|358:300,1,100
405,212,57884,2,0,L|305:209,1,100
257,297,58590,6,0,L|358:300,1,100
416,219,59296,1,0,0:0:0:0:
416,219,59472,1,0,0:0:0:0:
416,219,59648,6,0,B|430:192|424:152|424:152|432:139|432:139|419:105|419:72,1,150
450,35,60354,2,0,P|399:53|352:48,1,100
262,7,61060,5,0,0:0:0:0:
177,59,61413,1,0,0:0:0:0:
177,59,61590,1,0,0:0:0:0:
177,59,61766,2,0,P|127:62|81:45,2,100
177,159,62825,6,0,B|166:209|166:209|182:260,1,100
280,253,63531,2,0,B|291:203|291:203|275:152,1,100
177,159,64237,6,0,B|166:209|166:209|182:260,1,100
235,339,64943,1,0,0:0:0:0:
235,339,65119,1,0,0:0:0:0:
235,339,65296,6,0,B|283:351|283:351|306:339|331:337,1,100
381,342,65825,1,0,0:0:0:0:
426,321,66001,2,0,L|430:271,1,50
475,250,66354,2,0,L|471:200,1,50
441,147,66707,5,0,0:0:0:0:
152,67,67590,1,0,0:0:0:0:
152,67,67766,2,0,L|103:65,1,50
55,47,68119,6,0,P|85:104|65:183,1,150
28,218,68825,2,0,L|114:278,1,100
160,276,69354,1,0,0:0:0:0:
209,269,69531,6,0,L|253:294,1,50
341,247,70060,2,0,L|385:272,1,50
434,272,70413,1,0,0:0:0:0:
481,256,70590,2,0,P|489:235|492:205,1,50
468,163,70943,6,0,B|449:118|467:64|467:64|447:83|420:86,1,150
378,65,71648,2,0,P|326:53|278:60,1,100
237,85,72178,1,0,0:0:0:0:
192,106,72354,6,0,L|141:103,1,50
61,162,72884,2,0,L|10:159,1,50
158,294,73766,6,0,B|206:324|256:314|256:274|315:267|358:294,1,200
434,340,74825,1,0,0:0:0:0:
461,298,75001,1,0,0:0:0:0:
466,248,75178,6,0,L|469:199,1,50
399,126,75707,2,0,L|402:77,1,50
324,12,76237,1,0,0:0:0:0:
238,63,76590,6,0,L|136:68,1,100
94,93,77119,1,0,0:0:0:0:
56,125,77296,2,0,P|63:156|62:179,1,50
98,208,77648,2,0,P|91:239|92:262,1,50
109,303,78001,5,0,0:0:0:0:
215,358,78354,1,0,0:0:0:0:
215,358,78707,1,0,0:0:0:0:
215,358,79060,1,0,0:0:0:0:
215,358,79413,5,0,0:0:0:0:
126,113,82237,5,0,0:0:0:0:
126,113,82590,2,0,B|122:136|128:152|128:152|120:170|120:170|128:189|126:210,1,100
96,305,83296,2,0,P|145:292|195:298,1,100
235,324,83825,5,0,0:0:0:0:
278,349,84001,2,0,L|327:344,1,50
361,306,84354,2,0,B|397:288|435:298|435:298|425:260|438:225,1,150
467,184,85060,6,0,L|465:132,1,50
376,86,85590,2,0,L|377:135,1,50
359,182,85943,1,0,0:0:0:0:
330,222,86119,2,0,B|281:227|281:227|228:220,1,100
183,204,86648,5,0,0:0:0:0:
85,180,87001,1,0,0:0:0:0:
43,151,87178,2,0,P|39:128|40:101,1,50
55,53,87531,1,0,0:0:0:0:
153,34,87884,5,0,0:0:0:0:
202,26,88060,1,0,0:0:0:0:
251,36,88237,2,0,B|300:46|344:26|344:26|337:51|343:83,1,150
364,125,88943,1,0,0:0:0:0:
416,209,89296,5,0,0:0:0:0:
427,257,89472,2,0,B|427:284|436:308|436:308|407:309|385:323,1,100
350,350,90001,2,0,L|301:349,1,50
254,328,90354,1,0,0:0:0:0:
159,294,90707,6,0,B|110:279|62:298|62:298|76:271|78:245,1,150
59,202,91413,2,0,L|57:152,1,50
75,105,91766,1,0,0:0:0:0:
75,54,91943,1,0,0:0:0:0:
59,6,92119,6,0,L|108:8,1,50
155,26,92472,2,0,L|204:24,1,50
253,10,92825,1,0,0:0:0:0:
302,10,93001,1,0,0:0:0:0:
346,32,93178,1,0,0:0:0:0:
376,71,93354,2,0,P|392:118|387:177,1,100
400,217,93884,6,0,P|354:200|298:202,1,100
258,223,94413,1,0,0:0:0:0:
174,277,94766,1,0,0:0:0:0:
130,301,94943,6,0,P|145:225|119:158,1,150
91,117,95648,2,0,P|140:127|189:113,1,100
219,74,96178,2,0,B|269:70|269:70|305:81|305:81|362:76|362:76|346:99|341:129,1,200
360,172,97060,6,0,L|359:227,1,50
396,315,97590,1,0,0:0:0:0:
348,330,97766,6,0,B|304:323|301:342|248:330,1,100
176,260,98472,2,0,P|220:237|271:237,1,100
368,221,99178,6,0,L|416:202,1,50
426,153,99531,2,0,L|467:123,1,50
477,74,99884,2,0,P|430:46|383:47,1,100
342,71,100413,1,0,0:0:0:0:
292,64,100590,6,0,B|215:66|215:66|239:83,1,100
265,118,101119,1,0,0:0:0:0:
291,160,101296,2,0,P|304:207|293:256,1,100
252,285,101825,1,0,0:0:0:0:
202,288,102001,6,0,L|102:284,1,100
56,262,102531,1,0,0:0:0:0:
37,215,102707,2,0,L|31:164,1,50
64,127,103060,2,0,L|70:76,1,50
116,58,103413,6,0,P|185:37|260:58,1,150
282,100,104119,2,0,L|286:205,1,100
350,276,104825,5,0,0:0:0:0:
387,156,110472,6,0,L|377:256,1,100
297,193,111178,2,0,L|307:93,1,100
206,93,111884,6,0,L|216:193,1,100
136,256,112590,2,0,L|126:156,1,100
256,192,113119,12,0,114707,0:0:0:0:
136,192,116119,5,0,0:0:0:0:
222,242,116472,2,0,B|255:259|255:259|318:250,1,100
319,149,117178,2,0,B|286:132|286:132|223:141,1,100
222,242,117884,6,0,B|255:259|255:259|318:250,1,100
409,210,118590,1,0,0:0:0:0:
409,210,118766,1,0,0:0:0:0:
409,210,118943,6,0,B|439:170|434:109|434:109|415:114|388:108,1,150
354,74,119648,2,0,L|254:68,1,100
154,61,120354,5,0,0:0:0:0:
107,149,120707,1,0,0:0:0:0:
107,149,120884,1,0,0:0:0:0:
107,149,121060,2,0,B|112:186|112:186|108:194|108:194|113:201|113:201|118:245,2,100
202,180,122119,6,0,P|253:192|301:188,1,100
295,288,122825,2,0,P|244:276|196:280,1,100
202,180,123531,6,0,P|253:192|301:188,1,100
399,174,124237,1,0,0:0:0:0:
399,174,124413,1,0,0:0:0:0:
399,174,124590,6,0,P|416:128|410:79,1,100
376,40,125119,1,0,0:0:0:0:
326,50,125296,2,0,P|300:55|277:57,1,50
238,24,125648,2,0,P|212:19|189:17,1,50
141,33,126001,5,0,0:0:0:0:
112,281,126884,1,0,0:0:0:0:
112,281,127060,2,0,L|162:281,1,50
199,314,127413,6,0,P|211:234|264:191,1,150
303,165,128119,2,0,P|296:215|313:264,1,100
355,284,128648,1,0,0:0:0:0:
403,297,128825,6,0,L|453:294,1,50
417,200,129354,2,0,L|467:197,1,50
503,162,129707,1,0,0:0:0:0:
510,112,129884,2,0,P|511:90|510:62,1,50
477,24,130237,6,0,P|414:58|341:41,1,150
297,16,130943,2,0,P|315:68|310:112,1,100
281,152,131472,1,0,0:0:0:0:
236,174,131648,6,0,L|183:172,1,50
224,264,132178,2,0,L|171:262,1,50
12,143,133060,5,0,0:0:0:0:
19,93,133237,1,0,0:0:0:0:
48,52,133413,1,0,0:0:0:0:
95,36,133590,1,0,0:0:0:0:
143,47,133766,2,0,P|191:57|242:46,1,100
284,22,134296,1,0,0:0:0:0:
333,14,134472,6,0,L|388:15,1,50
353,110,135001,2,0,L|408:111,1,50
467,187,135531,1,0,0:0:0:0:
425,277,135884,6,0,B|417:305|419:329|419:329|399:321|368:322,1,100
323,333,136413,1,0,0:0:0:0:
275,349,136590,2,0,B|254:354|254:354|226:356,1,50
200,312,136943,2,0,B|179:307|179:307|151:305,1,50
101,313,137296,5,0,0:0:0:0:
46,229,137648,1,0,0:0:0:0:
46,229,138001,1,0,0:0:0:0:
46,229,138354,1,0,0:0:0:0:
46,229,138707,5,0,0:0:0:0:
334,273,150001,6,0,P|348:201|336:127,1,150
307,84,150707,2,0,P|259:97|209:93,1,100
113,63,151413,6,0,B|116:113|116:113|101:142|101:142|105:213,1,150
84,255,152119,2,0,P|132:242|181:248,1,100
272,290,152825,6,0,B|321:315|369:308|369:308|364:281|374:254,1,150
415,233,153531,2,0,L|417:132,1,100
482,56,154237,6,0,P|414:87|344:65,1,150
308,31,154943,2,0,L|209:33,1,100
160,49,155472,1,0,0:0:0:0:
114,68,155648,6,0,B|106:119|106:119|113:174,1,100
126,266,156354,2,0,P|176:253|228:261,1,100
308,311,157060,6,0,B|360:318|360:318|408:312,1,100
506,295,157766,2,0,P|486:247|484:200,1,100
500,100,158472,6,0,L|445:90,1,50
418,52,158825,2,0,L|363:62,1,50
320,75,159178,1,0,0:0:0:0:
271,84,159354,1,0,0:0:0:0:
220,87,159531,1,0,0:0:0:0:
170,80,159707,1,0,0:0:0:0:
121,68,159884,6,0,L|115:120,1,50
79,152,160237,2,0,L|85:204,1,50
97,250,160590,1,0,0:0:0:0:
130,286,160766,1,0,0:0:0:0:
178,299,160943,1,0,0:0:0:0:
224,280,161119,1,0,0:0:0:0:
256,192,161296,12,0,163060,0:0:0:0:
354,109,164119,5,0,0:0:0:0:
255,128,164472,2,0,L|179:192,1,100
247,264,165178,2,0,B|294:248|294:248|320:203,1,100
255,128,165884,6,0,L|179:192,1,100
102,257,166590,1,0,0:0:0:0:
102,257,166766,1,0,0:0:0:0:
102,257,166943,6,0,B|90:268|80:281|80:281|102:220|84:157,1,150
54,127,167648,2,0,L|61:26,1,100
158,52,168354,5,0,0:0:0:0:
253,22,168707,1,0,0:0:0:0:
253,22,168884,1,0,0:0:0:0:
253,22,169060,2,0,P|301:12|352:26,2,100
299,110,170119,6,0,P|321:153|321:205,1,100
252,276,170825,2,0,P|230:233|230:181,1,100
299,110,171531,6,0,P|321:153|321:205,1,100
252,276,172237,1,0,0:0:0:0:
252,276,172413,1,0,0:0:0:0:
252,276,172590,6,0,P|203:260|153:268,1,100
113,293,173119,1,0,0:0:0:0:
66,274,173296,2,0,P|57:253|53:225,1,50
74,181,173648,2,0,L|72:130,1,50
86,82,174001,5,0,0:0:0:0:
327,147,174884,1,0,0:0:0:0:
327,147,175060,2,0,L|381:149,1,50
421,125,175413,6,0,P|391:194|416:263,1,150
442,303,176119,2,0,P|389:288|346:295,1,100
300,317,176648,1,0,0:0:0:0:
255,339,176825,6,0,L|201:342,1,50
162,251,177354,2,0,L|108:254,1,50
63,241,177707,1,0,0:0:0:0:
24,208,177884,2,0,P|15:178|14:156,1,50
36,114,178237,6,0,B|42:81|41:55|41:55|81:80|134:68,1,150
171,44,178943,2,0,B|220:39|220:39|274:41,1,100
318,54,179472,1,0,0:0:0:0:
364,70,179648,6,0,L|416:73,1,50
436,170,180178,2,0,L|488:173,1,50
334,303,181060,6,0,B|285:283|241:294|241:324|187:334|133:301,1,200
66,239,182119,1,0,0:0:0:0:
45,193,182296,1,0,0:0:0:0:
42,143,182472,6,0,L|45:91,1,50
140,64,183001,2,0,L|143:12,1,50
242,21,183531,1,0,0:0:0:0:
333,61,183884,6,0,B|397:65|397:65|386:79|382:99,1,100
386,147,184413,1,0,0:0:0:0:
405,193,184590,2,0,P|405:224|411:249,1,50
371,276,184943,2,0,P|371:307|365:332,1,50
328,357,185296,5,0,0:0:0:0:
232,327,185648,1,0,0:0:0:0:
232,327,186001,1,0,0:0:0:0:
232,327,186354,1,0,0:0:0:0:
232,327,186707,5,0,0:0:0:0:
