osu file format v14

[General]
AudioFilename: audio.mp3
AudioLeadIn: 0
PreviewTime: 55444
Countdown: 0
SampleSet: Soft
StackLeniency: 0.3
Mode: 0
LetterboxInBreaks: 0
WidescreenStoryboard: 1

[Editor]
DistanceSpacing: 1
BeatDivisor: 4
GridSize: 32
TimelineZoom: 2.2

[Metadata]
Title:POP/STARS (feat. Madison Beer, (G)I-DLE, Jaira Burns)
TitleUnicode:POP/STARS (feat. Madison Beer, (G)I-DLE, Jaira Burns)
Artist:K/DA
ArtistUnicode:K/DA
Creator:neonat
Version:Walao's Extra
Source:League of Legends
Tags:KDA Riot Music Team Harloe Miyeon Soyeon (여자)아이들 소연 미연 World Championship 2018 Irreversible Voli -_Matha_- Ahri Kai'Sa Kaisa Evelynn Akali walaowey Matsubara Kanon Petal
BeatmapID:1838940
BeatmapSetID:875080

[Difficulty]
HPDrainRate:5
CircleSize:3.8
OverallDifficulty:8.5
ApproachRate:9.2
SliderMultiplier:1.8
SliderTickRate:1

[Events]
//Background and Video events
Video,-200,"KDa.avi"
0,0,"PrestigeKS.jpg",0,0
//Break Periods
//Storyboard Layer 0 (Background)
//Storyboard Layer 1 (Fail)
//Storyboard Layer 2 (Pass)
//Storyboard Layer 3 (Foreground)
//Storyboard Layer 4 (Overlay)
//Storyboard Sound Samples

[TimingPoints]
385,352.941176470588,4,2,2,70,1,0
385,-133.333333333333,4,2,2,70,0,0
10973,-200,4,2,2,70,0,0
11326,-66.6666666666667,4,2,2,70,0,0
11679,-100,4,2,1,70,0,0
20326,-100,4,2,2,70,0,0
20679,-100,4,2,1,70,0,0
27914,-66.6666666666667,4,2,1,70,0,0
28179,-66.6666666666667,4,2,1,5,0,0
28267,-66.6666666666667,4,2,1,70,0,0
28532,-66.6666666666667,4,2,1,5,0,0
28620,-100,4,2,1,70,0,0
34267,-133.333333333333,4,2,2,50,0,0
45561,-100,4,2,2,60,0,0
53590,-100,4,2,2,5,0,0
53679,-100,4,2,2,60,0,0
55796,-200,4,2,2,60,0,0
56061,-200,4,2,2,5,0,0
56149,-200,4,2,2,60,0,0
56414,-200,4,2,2,5,0,0
56502,-200,4,2,2,60,0,0
56855,-66.6666666666667,4,2,1,80,0,1
57120,-66.6666666666667,4,2,1,5,0,1
57208,-83.3333333333333,4,2,1,80,0,1
62502,-66.6666666666667,4,2,1,80,0,1
62855,-83.3333333333333,4,2,1,80,0,1
67796,-83.3333333333333,4,2,1,80,0,0
68149,-83.3333333333333,4,2,1,80,0,1
73443,-133.333333333333,4,2,1,80,0,1
73708,-133.333333333333,4,2,1,5,0,1
73796,-83.3333333333333,4,2,1,80,0,1
78384,-100,4,2,1,80,0,0
79443,-100,4,2,2,65,0,0
82267,-100,4,2,1,70,0,0
84384,-66.6666666666667,4,2,1,70,0,0
84737,-100,4,2,1,70,0,0
85796,-66.6666666666667,4,2,1,70,0,0
86149,-100,4,2,1,70,0,0
87208,-50,4,2,1,70,0,0
87561,-100,4,2,1,70,0,0
88620,-66.6666666666667,4,2,1,70,0,0
88973,-100,4,2,1,70,0,0
90032,-66.6666666666667,4,2,1,70,0,0
90385,-100,4,2,1,70,0,0
91443,-66.6666666666667,4,2,1,70,0,0
91796,-100,4,2,1,70,0,0
104855,-133.333333333333,4,2,2,50,0,0
110502,-100,4,2,2,60,0,0
112884,-100,4,2,2,5,0,0
112973,-100,4,2,2,60,0,0
115090,-200,4,2,2,60,0,0
115355,-200,4,2,2,5,0,0
115443,-200,4,2,2,60,0,0
115708,-200,4,2,2,5,0,0
115796,-200,4,2,2,60,0,0
116149,-66.6666666666667,4,2,1,80,0,1
116414,-66.6666666666667,4,2,1,5,0,1
116502,-83.3333333333333,4,2,1,80,0,1
121796,-66.6666666666667,4,2,1,80,0,1
122149,-83.3333333333333,4,2,1,80,0,1
127090,-83.3333333333333,4,2,1,80,0,0
127443,-83.3333333333333,4,2,1,80,0,1
132737,-133.333333333333,4,2,1,80,0,1
133002,-133.333333333333,4,2,1,5,0,1
133090,-83.3333333333333,4,2,1,80,0,1
138737,-133.333333333333,4,2,2,25,0,0
150032,-100,4,2,2,60,0,0
161679,-133.333333333333,4,2,2,60,0,0
162737,-200,4,2,2,60,0,0
163002,-200,4,2,2,5,0,0
163090,-200,4,2,2,60,0,0
163355,-200,4,2,2,5,0,0
163443,-200,4,2,2,60,0,0
163708,-200,4,2,2,5,0,0
163796,-200,4,2,2,60,0,0
164149,-66.6666666666667,4,2,1,80,0,1
164414,-66.6666666666667,4,2,1,5,0,1
164502,-83.3333333333333,4,2,1,80,0,1
169796,-66.6666666666667,4,2,1,80,0,1
170149,-83.3333333333333,4,2,1,80,0,1
171208,-76.9230769230769,4,2,1,80,0,1
172267,-83.3333333333333,4,2,1,80,0,1
175090,-83.3333333333333,4,2,1,80,0,0
175443,-83.3333333333333,4,2,1,80,0,1
180737,-133.333333333333,4,2,1,80,0,1
181090,-83.3333333333333,4,2,1,80,0,1
185679,-100,4,2,2,40,0,0

[Colours]
Combo1 : 235,222,65
Combo2 : 235,165,233
Combo3 : 44,205,239
Combo4 : 141,236,55

[HitObjects]
320,96,385,6,0,L|338:177,1,67.5000025749208,0|0,0:0|0:0,0:0:0:0:
366,298,737,2,0,L|359:264,1,33.7500012874604,2|0,0:1|0:0,0:0:0:0:
353,295,1267,2,0,L|344:247,1,33.7500012874604,2|0,0:1|0:0,0:0:0:0:
343,292,1796,2,0,L|334:249,1,33.7500012874604,2|0,0:1|0:0,0:0:0:0:
192,96,3208,5,0,0:0:0:0:
192,96,3384,2,0,L|181:147,1,33.7500012874604,2|0,0:1|0:0,0:0:0:0:
105,130,3561,2,0,L|97:172,1,33.7500012874604,2|0,0:1|0:0,0:0:0:0:
167,203,3737,2,0,L|157:244,1,33.7500012874604,2|0,0:1|0:0,0:0:0:0:
83,238,3914,2,0,L|72:280,1,33.7500012874604,2|0,0:1|0:0,0:0:0:0:
72,241,4443,2,0,L|59:289,1,33.7500012874604,2|0,0:1|0:0,0:0:0:0:
320,256,5326,6,0,L|312:223,1,33.7500012874604,0|0,0:0|0:0,0:0:0:0:
357,163,5502,2,0,L|345:114,1,33.7500012874604,0|0,0:0|0:0,0:0:0:0:
392,60,5679,2,0,P|329:50|293:70,1,101.250003862381,0|0,0:0|0:0,0:0:0:0:
274,99,6032,5,2,0:1:0:0:
235,199,6208,1,0,0:0:0:0:
235,199,6296,1,0,0:0:0:0:
235,199,6384,1,0,0:0:0:0:
195,66,6561,1,0,0:0:0:0:
154,168,6737,2,0,L|134:222,2,33.7500012874604,0|0|0,0:0|0:0|0:0,0:0:0:0:
111,35,7090,1,0,0:0:0:0:
111,35,7179,1,0,0:0:0:0:
111,35,7267,2,0,L|90:89,1,33.7500012874604,0|0,0:0|0:0,0:0:0:0:
71,136,7443,5,2,0:1:0:0:
195,66,7620,1,0,0:0:0:0:
195,66,7708,1,0,0:0:0:0:
195,66,7796,1,0,0:0:0:0:
235,199,7973,1,0,0:0:0:0:
274,99,8149,2,0,L|296:47,2,33.7500012874604,0|0|0,0:0|0:0|0:0,0:0:0:0:
154,168,8502,2,0,P|148:209|160:248,1,67.5000025749208,0|0,0:0|0:0,0:0:0:0:
257,338,8855,5,2,0:1:0:0:
235,199,9032,1,0,0:0:0:0:
166,319,9208,1,0,0:0:0:0:
295,261,9384,1,0,0:0:0:0:
153,234,9561,2,0,L|115:243,2,33.7500012874604,2|0|0,0:1|0:0|0:0,0:0:0:0:
257,338,9914,2,0,P|294:348|339:333,1,67.5000025749208,2|0,0:1|0:0,0:0:0:0:
376,198,10267,6,0,L|376:237,1,33.7500012874604,0|0,0:0|0:0,0:0:0:0:
388,158,10443,2,0,L|388:204,1,33.7500012874604,0|0,0:0|0:0,0:0:0:0:
399,115,10620,2,0,L|399:154,1,33.7500012874604,0|0,0:0|0:0,0:0:0:0:
411,75,10796,2,0,L|411:121,1,33.7500012874604,0|0,0:0|0:0,0:0:0:0:
492,49,10973,6,0,B|492:86|492:86|508:120,1,67.5,2|0,0:1|0:0,0:0:0:0:
506,177,11326,6,0,B|516:153|506:113|506:113|448:157|457:268,1,202.500007724762,2|0,0:1|0:0,0:0:0:0:
470,278,11679,5,2,0:0:0:0:
470,278,11855,1,0,0:0:0:0:
381,159,12032,1,0,0:0:0:0:
319,299,12208,1,0,0:0:0:0:
298,119,12384,2,0,P|329:83|385:68,1,90,8|0,0:0|0:0,0:0:0:0:
235,178,12737,2,0,P|204:214|148:229,1,90,2|0,0:0|0:0,0:0:0:0:
100,66,13090,6,0,L|154:139,1,90,0|2,0:0|0:0,0:0:0:0:
180,318,13443,1,2,0:0:0:0:
85,196,13620,1,0,0:0:0:0:
248,268,13796,2,0,L|330:197,1,90,8|2,0:0|0:0,0:0:0:0:
371,65,14149,2,0,L|289:136,1,90,0|0,0:0|0:0,0:0:0:0:
396,243,14502,6,0,P|402:199|385:157,1,90,2|0,0:0|0:0,0:0:0:0:
235,178,14855,1,0,0:0:0:0:
332,297,15032,1,0,0:0:0:0:
180,318,15208,1,8,0:0:0:0:
248,268,15384,1,0,0:0:0:0:
93,203,15561,2,0,B|54:218|54:218|4:325,1,135,2|0,0:0|0:0,0:0:0:0:
73,364,15914,6,0,L|113:279,1,90,0|2,0:0|0:0,0:0:0:0:
41,127,16267,2,0,L|2:208,1,90,2|0,0:0|0:0,0:0:0:0:
86,359,16620,2,0,L|126:274,1,90,8|0,0:0|0:0,0:0:0:0:
56,124,16973,2,0,L|17:205,1,90,0|0,0:0|0:0,0:0:0:0:
178,176,17326,5,2,0:0:0:0:
178,176,17502,1,0,0:0:0:0:
72,83,17679,1,0,0:0:0:0:
215,98,17855,1,0,0:0:0:0:
89,44,18032,2,0,L|-16:58,1,90,8|0,0:0|0:0,0:0:0:0:
88,187,18384,2,0,L|177:175,1,90,2|0,0:0|0:0,0:0:0:0:
299,43,18737,6,0,P|293:87|309:129,1,90,0|2,0:0|0:0,0:0:0:0:
433,205,19090,1,2,0:0:0:0:
382,76,19267,1,0,0:0:0:0:
342,210,19443,2,0,P|296:215|241:184,1,90,8|2,0:0|0:0,0:0:0:0:
172,82,19796,1,0,0:0:0:0:
309,128,19973,1,0,0:0:0:0:
166,171,20149,6,0,P|163:216|182:261,1,90,2|8,0:0|0:0,0:0:0:0:
194,273,20414,1,8,0:0:0:0:
212,285,20502,1,8,0:0:0:0:
342,210,20679,1,0,0:0:0:0:
346,48,20855,2,0,P|302:42|260:56,1,90,8|0,0:0|0:0,0:0:0:0:
85,89,21208,2,0,P|129:95|171:81,1,90,2|0,0:0|0:0,0:0:0:0:
0,67,21561,6,0,L|24:162,1,90,0|2,0:0|0:0,0:0:0:0:
115,260,21914,2,0,L|137:172,1,90,2|0,0:0|0:0,0:0:0:0:
4,239,22267,2,0,L|28:334,1,90,8|0,0:0|0:0,0:0:0:0:
196,334,22620,1,2,0:0:0:0:
115,260,22796,1,0,0:0:0:0:
342,182,22973,6,0,L|315:280,1,90,2|0,0:0|0:0,0:0:0:0:
280,118,23326,1,0,0:0:0:0:
432,165,23502,1,0,0:0:0:0:
256,197,23679,2,0,P|206:159|197:121,1,90,8|0,0:0|0:0,0:0:0:0:
301,34,24032,1,2,0:0:0:0:
342,182,24208,1,0,0:0:0:0:
219,53,24384,6,0,P|176:54|121:92,1,90,0|2,0:0|0:0,0:0:0:0:
256,197,24737,2,0,P|233:154|196:134,1,90,2|0,0:0|0:0,0:0:0:0:
147,302,25090,2,0,P|170:264|171:219,1,90,8|2,0:0|0:0,0:0:0:0:
0,259,25443,2,0,P|44:260|83:238,1,90,0|0,0:0|0:0,0:0:0:0:
8,83,25796,6,0,L|23:171,1,90,2|0,0:0|0:0,0:0:0:0:
147,302,26149,1,0,0:0:0:0:
115,155,26326,1,0,0:0:0:0:
56,322,26502,1,8,0:0:0:0:
23,171,26679,1,0,0:0:0:0:
147,302,26855,2,0,P|197:305|239:273,1,90,2|0,0:0|0:0,0:0:0:0:
301,174,27208,5,0,0:0:0:0:
173,218,27384,1,2,0:0:0:0:
334,297,27561,2,0,L|306:201,1,90,2|0,0:0|0:0,0:0:0:0:
263,25,27914,6,0,B|217:33|209:61|209:61|261:78|360:35,1,202.500007724762,8|0,0:0|0:0,0:0:0:0:
250,11,28267,2,0,B|198:26|190:69|190:69|248:97|325:57,1,202.500007724762,0|0,0:0|0:0,0:0:0:0:
339,43,28620,5,2,0:0:0:0:
339,43,28796,1,0,0:0:0:0:
161,24,28973,1,0,0:0:0:0:
283,145,29149,1,0,0:0:0:0:
128,140,29326,2,0,L|151:34,1,90,8|0,0:0|0:0,0:0:0:0:
200,193,29679,2,0,L|177:299,1,90,2|0,0:0|0:0,0:0:0:0:
348,240,30032,6,0,P|302:238|258:264,1,90,0|2,0:0|0:0,0:0:0:0:
164,363,30384,1,2,0:0:0:0:
323,325,30561,1,0,0:0:0:0:
281,169,30737,2,0,L|264:258,1,90,8|2,0:0|0:0,0:0:0:0:
428,214,31090,2,0,L|445:125,1,90,0|0,0:0|0:0,0:0:0:0:
297,81,31443,5,2,0:0:0:0:
283,80,31532,1,0,0:0:0:0:
269,80,31620,2,0,P|301:99|359:99,1,90,0|0,0:0|0:0,0:0:0:0:
491,40,31973,1,0,0:0:0:0:
331,13,32149,1,8,0:0:0:0:
486,54,32326,1,0,0:0:0:0:
313,9,32502,2,0,L|180:5,1,90,2|0,0:0|0:0,0:0:0:0:
155,216,32855,5,0,0:0:0:0:
196,82,33032,1,2,0:0:0:0:
300,277,33208,5,2,0:0:0:0:
259,143,33385,1,2,0:0:0:0:
135,298,33561,5,8,0:0:0:0:
175,169,33738,1,0,0:0:0:0:
299,363,33914,6,0,L|267:260,1,90,2|0,0:0|0:0,0:0:0:0:
100,219,34267,6,0,L|60:348,2,135.000005149842,2|0|0,0:0|0:0|0:0,0:0:0:0:
72,142,35149,1,0,0:0:0:0:
72,142,35326,2,0,L|97:59,1,67.5000025749208,0|0,0:0|0:0,0:0:0:0:
161,36,35679,6,0,P|221:52|296:26,1,135.000005149842,0|0,0:0|0:0,0:0:0:0:
473,248,36384,2,0,P|413:232|338:258,1,135.000005149842,8|0,0:1|0:0,0:0:0:0:
79,302,37090,6,0,B|123:304|123:304|214:280,2,135.000005149842,2|0|0,0:1|0:0|0:0,0:0:0:0:
111,227,37973,1,0,0:0:0:0:
111,227,38149,2,0,L|176:209,1,67.5000025749208,0|0,0:0|0:0,0:0:0:0:
195,68,38502,6,0,L|213:133,1,67.5000025749208,0|0,0:0|0:0,0:0:0:0:
352,153,38855,2,0,L|287:171,1,67.5000025749208,0|0,0:0|0:0,0:0:0:0:
267,317,39208,2,0,P|302:270|248:246,1,135.000005149842,8|0,0:1|0:0,0:0:0:0:
188,300,39737,1,0,0:0:0:0:
323,375,39914,6,0,L|471:360,2,135.000005149842,2|0|0,0:1|0:0|0:0,0:0:0:0:
347,297,40796,1,0,0:0:0:0:
347,297,40973,2,0,L|436:287,1,67.5000025749208,0|0,0:0|0:0,0:0:0:0:
475,236,41326,6,0,P|445:176|487:100,1,135.000005149842,0|0,0:0|0:0,0:0:0:0:
212,25,42032,1,8,0:1:0:0:
227,286,42384,2,0,P|250:262|261:230,1,67.5000025749208,0|0,0:0|0:0,0:0:0:0:
278,150,42737,6,0,P|214:163|180:220,1,135.000005149842,0|0,0:1|0:0,0:0:0:0:
341,203,43267,2,0,P|359:160|354:126,1,67.5000025749208,2|0,0:1|0:0,0:0:0:0:
310,74,43620,1,0,0:0:0:0:
310,74,43796,2,0,L|237:75,1,67.5000025749208,2|0,0:1|0:0,0:0:0:0:
101,47,44149,6,0,L|185:95,1,67.5000025749208,0|0,0:0|0:0,0:0:0:0:
278,150,44502,2,0,L|210:150,1,67.5000025749208,0|0,0:0|0:0,0:0:0:0:
38,100,44855,2,0,P|91:134|88:229,1,135.000005149842,8|0,0:1|0:0,0:0:0:0:
23,181,45384,1,0,0:0:0:0:
179,229,45561,6,0,P|127:227|22:304,1,180,10|0,0:0|0:0,0:0:0:0:
172,217,46090,2,0,P|120:215|15:292,1,180,8|0,0:0|0:0,0:0:0:0:
148,351,46620,1,8,0:0:0:0:
255,233,46796,1,0,0:0:0:0:
385,355,46973,6,0,B|406:318|406:318|415:158,1,180,10|0,0:0|0:0,0:0:0:0:
229,143,47502,1,8,0:0:0:0:
329,282,47679,2,0,L|334:192,1,90,8|0,0:1|0:0,0:0:0:0:
316,20,48032,2,0,L|311:110,1,90,8|0,0:0|0:0,0:0:0:0:
84,172,48384,6,0,P|147:114|228:141,1,180,10|0,0:0|0:0,0:0:0:0:
79,161,48914,2,0,P|143:103|226:126,1,180,8|0,0:0|0:0,0:0:0:0:
191,281,49443,1,8,0:0:0:0:
164,195,49620,1,0,0:0:0:0:
280,303,49796,5,8,0:0:0:0:
248,214,49973,1,0,0:0:0:0:
220,365,50149,1,0,0:0:0:0:
191,281,50326,1,8,0:0:0:0:
366,321,50502,2,0,P|407:287|426:231,1,90,8|0,0:1|0:0,0:0:0:0:
408,108,50855,1,8,0:0:0:0:
332,232,51032,1,8,0:0:0:0:
511,255,51208,6,0,P|499:213|469:181,1,90,10|0,0:0|0:0,0:0:0:0:
338,57,51561,2,0,P|323:99|330:142,1,90,10|0,0:0|0:0,0:0:0:0:
492,90,51914,2,0,P|447:89|407:107,1,90,10|0,0:0|0:0,0:0:0:0:
332,232,52267,2,0,P|289:223|256:192,1,90,10|0,0:0|0:0,0:0:0:0:
174,73,52620,5,10,0:0:0:0:
165,211,52796,1,0,0:0:0:0:
255,104,52973,1,10,0:0:0:0:
231,271,53149,1,0,0:0:0:0:
115,135,53326,6,0,P|75:196|100:270,1,135,10|0,0:0|0:0,0:0:0:0:
61,184,53679,2,0,P|68:245|85:280,1,90,10|0,0:0|0:0,0:0:0:0:
305,321,54032,5,10,0:0:0:0:
165,211,54208,1,10,0:0:0:0:
425,189,54384,1,10,0:0:0:0:
301,291,54561,1,10,0:0:0:0:
282,84,54737,5,10,0:0:0:0:
395,191,54914,1,10,0:0:0:0:
193,114,55090,1,10,0:0:0:0:
365,47,55267,1,10,0:0:0:0:
454,51,55796,5,2,0:1:0:0:
406,121,55973,2,0,L|408:157,1,22.5,2|0,0:1|0:0,0:0:0:0:
409,165,56149,1,2,0:1:0:0:
488,138,56326,2,0,L|490:174,1,22.5,2|0,0:1|0:0,0:0:0:0:
491,182,56502,1,2,0:1:0:0:
432,243,56679,1,2,0:1:0:0:
478,382,56855,6,0,P|398:324|300:337,1,202.500007724762,2|0,0:0|0:0,0:0:0:0:
195,347,57208,6,0,P|247:333|311:340,1,107.999996704102,0|0,0:0|0:0,0:0:0:0:
435,258,57561,2,0,P|383:246|319:251,1,107.999996704102,8|0,0:0|0:0,0:0:0:0:
176,330,57914,2,0,P|228:316|292:323,1,107.999996704102,2|0,0:0|0:0,0:0:0:0:
451,243,58267,2,0,P|399:229|335:236,1,107.999996704102,0|2,0:0|0:0,0:0:0:0:
156,312,58620,2,0,P|208:298|272:305,1,107.999996704102,2|0,0:0|0:0,0:0:0:0:
469,222,58973,2,0,P|417:208|353:215,1,107.999996704102,8|2,0:0|0:0,0:0:0:0:
199,220,59326,1,0,0:0:0:0:
310,124,59502,1,0,0:0:0:0:
216,380,59679,5,2,0:0:0:0:
113,191,59855,1,0,0:0:0:0:
282,250,60032,1,0,0:0:0:0:
127,276,60208,1,0,0:0:0:0:
272,168,60384,1,8,0:0:0:0:
113,191,60561,1,0,0:0:0:0:
261,84,60737,1,2,0:0:0:0:
98,103,60914,1,0,0:0:0:0:
282,250,61090,6,0,P|336:224|356:160,1,107.999996704102,0|0,0:0|0:0,0:0:0:0:
169,33,61443,1,2,0:0:0:0:
199,220,61620,1,0,0:0:0:0:
210,40,61796,1,8,0:0:0:0:
272,168,61973,1,0,0:0:0:0:
131,28,62149,1,2,0:0:0:0:
113,191,62326,1,0,0:0:0:0:
327,44,62502,6,0,B|374:36|374:36|465:58,1,135.000005149842,2|0,0:0|0:0,0:0:0:0:
495,136,62767,1,0,0:0:0:0:
507,161,62855,6,0,P|467:170|377:137,1,107.999996704102,0|2,0:0|0:0,0:0:0:0:
167,173,63208,2,0,P|207:182|297:149,1,107.999996704102,8|0,0:0|0:0,0:0:0:0:
512,187,63561,2,0,P|472:196|382:163,1,107.999996704102,2|0,0:0|0:0,0:0:0:0:
172,199,63914,2,0,P|212:208|302:175,1,107.999996704102,0|2,0:0|0:0,0:0:0:0:
512,209,64267,2,0,P|472:218|382:185,1,107.999996704102,2|0,0:0|0:0,0:0:0:0:
172,221,64620,2,0,P|212:230|302:197,1,107.999996704102,8|2,0:0|0:0,0:0:0:0:
251,54,64973,1,0,0:0:0:0:
145,203,65149,1,0,0:0:0:0:
453,268,65326,6,0,P|402:251|351:262,1,107.999996704102,2|0,0:0|0:0,0:0:0:0:
234,364,65679,1,0,0:0:0:0:
397,346,65855,1,0,0:0:0:0:
228,282,66032,1,8,0:0:0:0:
365,235,66208,1,0,0:0:0:0:
208,194,66384,1,2,0:0:0:0:
379,158,66561,1,2,0:0:0:0:
234,364,66737,6,0,P|179:351|146:295,1,107.999996704102,0|2,0:0|0:0,0:0:0:0:
190,110,67090,5,2,0:0:0:0:
228,282,67267,1,0,0:0:0:0:
121,43,67443,5,8,0:0:0:0:
59,302,67620,1,0,0:0:0:0:
206,85,67796,5,2,0:0:0:0:
324,324,67973,1,0,0:0:0:0:
347,337,68061,1,0,0:0:0:0:
372,345,68149,6,0,P|346:273|276:346,1,215.999993408203,2|0,0:0|0:0,0:0:0:0:
447,275,68679,1,0,0:0:0:0:
225,233,68855,2,0,P|197:281|196:354,1,107.999996704102,8|0,0:0|0:0,0:0:0:0:
333,234,69208,1,2,0:0:0:0:
177,153,69384,1,0,0:0:0:0:
334,97,69561,6,0,L|352:162,1,53.9999983520508,0|0,0:0|0:0,0:0:0:0:
265,49,69737,2,0,L|249:109,1,53.9999983520508,2|0,0:0|0:0,0:0:0:0:
193,10,69914,1,2,0:0:0:0:
334,97,70090,6,0,L|352:162,1,53.9999983520508,0|0,0:0|0:0,0:0:0:0:
265,49,70266,2,0,L|249:109,1,53.9999983520508,8|0,0:0|0:0,0:0:0:0:
193,10,70443,1,2,0:0:0:0:
265,49,70620,1,0,0:0:0:0:
334,97,70796,1,0,0:0:0:0:
88,127,70973,6,0,P|183:112|224:227,1,215.999993408203,2|0,0:0|0:0,0:0:0:0:
220,372,71502,1,0,0:0:0:0:
47,233,71679,2,0,P|94:206|146:191,1,107.999996704102,8|0,0:0|0:0,0:0:0:0:
310,272,72032,1,2,0:0:0:0:
148,223,72208,1,0,0:0:0:0:
327,174,72384,6,0,P|375:199|403:244,1,107.999996704102,0|2,0:0|0:0,0:0:0:0:
403,244,72649,2,0,L|424:184,1,53.9999983520508,0|2,0:0|0:0,0:0:0:0:
436,369,72914,6,0,L|452:317,1,53.9999983520508,0|0,0:0|0:0,0:0:0:0:
326,323,73090,2,0,L|309:271,1,53.9999983520508,8|0,0:0|0:0,0:0:0:0:
485,243,73267,1,0,0:0:0:0:
327,174,73443,6,0,B|304:141|304:141|287:83,1,101.250003862381
287,83,73796,5,2,0:0:0:0:
458,37,73973,1,0,0:0:0:0:
483,72,74061,1,0,0:0:0:0:
458,107,74149,1,0,0:0:0:0:
416,93,74237,1,0,0:0:0:0:
416,50,74326,2,0,L|443:0,1,53.9999983520508,2|0,0:0|0:0,0:0:0:0:
509,180,74502,2,0,P|458:196|408:180,1,107.999996704102,8|0,0:0|0:0,0:0:0:0:
263,90,74855,1,2,0:0:0:0:
262,257,75032,1,0,0:0:0:0:
339,130,75208,6,0,P|322:181|343:237,1,107.999996704102,0|2,0:0|0:0,0:0:0:0:
417,263,75473,1,0,0:0:0:0:
452,251,75561,2,0,P|412:234|335:264,1,107.999996704102,2|0,0:0|0:0,0:0:0:0:
315,328,75826,1,0,0:0:0:0:
284,345,75914,2,0,P|237:346|183:306,1,107.999996704102,8|2,0:0|0:0,0:0:0:0:
105,83,76267,2,0,P|132:138|130:202,1,107.999996704102,0|0,0:0|0:0,0:0:0:0:
48,335,76620,5,2,0:0:0:0:
31,313,76708,1,0,0:0:0:0:
15,290,76796,1,0,0:0:0:0:
204,100,76973,5,0,0:0:0:0:
284,345,77149,1,0,0:0:0:0:
105,83,77326,5,8,0:0:0:0:
61,357,77502,1,0,0:0:0:0:
236,104,77679,5,2,0:0:0:0:
316,351,77855,1,0,0:0:0:0:
74,74,78032,6,0,L|50:195,1,107.999996704102,0|2,0:0|0:0,0:0:0:0:
36,269,78384,5,2,0:0:0:0:
201,197,78737,5,0,0:0:0:0:
364,121,79090,5,0,0:0:0:0:
503,53,79443,5,2,0:1:0:0:
503,53,79796,5,2,0:1:0:0:
364,121,79973,1,2,0:1:0:0:
364,121,80326,5,2,0:1:0:0:
503,53,80502,1,2,0:1:0:0:
503,53,80855,6,0,L|491:127,1,45,2|0,0:1|0:0,0:0:0:0:
481,175,81032,1,2,0:1:0:0:
364,121,81208,2,0,L|352:195,1,45,2|0,0:1|0:0,0:0:0:0:
342,243,81385,1,2,0:1:0:0:
201,197,81561,5,2,0:1:0:0:
198,210,81649,1,0,0:0:0:0:
193,236,81737,1,2,0:1:0:0:
186,262,81826,1,0,0:0:0:0:
175,305,81914,5,2,0:1:0:0:
218,293,82002,1,0,0:0:0:0:
186,262,82090,1,2,0:1:0:0:
143,277,82179,1,0,0:0:0:0:
128,319,82267,6,0,P|231:312|308:340,1,180,2|0,0:0|0:0,0:0:0:0:
383,377,82796,1,0,0:0:0:0:
383,377,83149,1,0,0:0:0:0:
422,295,83326,2,0,L|465:203,1,90,2|0,0:0|0:0,0:0:0:0:
496,130,83679,5,0,0:0:0:0:
371,217,83855,1,2,0:0:0:0:
357,68,84032,1,2,0:0:0:0:
411,138,84208,1,0,0:0:0:0:
281,223,84384,6,0,P|247:227|130:214,1,135.000005149842,4|0,0:0|0:0,0:0:0:0:
57,208,84737,6,0,P|119:217|153:218,1,90,0|0,0:0|0:0,0:0:0:0:
217,148,85090,5,2,0:0:0:0:
43,74,85267,2,0,L|46:184,1,90,0|0,0:0|0:0,0:0:0:0:
57,208,85532,1,0,0:0:0:0:
57,208,85620,2,0,L|57:266,1,45,0|0,0:0|0:0,0:0:0:0:
32,372,85796,6,0,B|60:348|60:348|170:351,1,135.000005149842,4|0,0:0|0:0,0:0:0:0:
246,346,86149,6,0,B|225:353|225:353|158:350,1,90,2|0,0:0|0:0,0:0:0:0:
249,199,86502,5,0,0:0:0:0:
333,315,86679,1,2,0:0:0:0:
196,271,86855,1,2,0:0:0:0:
333,221,87032,1,0,0:0:0:0:
164,190,87208,6,0,P|110:139|182:125,1,180,4|0,0:0|0:0,0:0:0:0:
306,124,87561,6,0,P|244:101|181:125,1,135,0|0,0:0|0:0,0:0:0:0:
182,124,87914,5,2,0:0:0:0:
333,221,88090,1,0,0:0:0:0:
354,212,88179,1,0,0:0:0:0:
372,199,88267,1,0,0:0:0:0:
388,183,88355,1,0,0:0:0:0:
398,163,88443,2,0,L|404:92,1,45,0|0,0:0|0:0,0:0:0:0:
385,11,88620,6,0,B|364:22|367:42|367:42|426:19|483:75,1,135.000005149842,4|0,0:0|0:0,0:0:0:0:
468,200,88973,5,2,0:0:0:0:
306,124,89149,2,0,L|261:121,1,45,0|0,0:0|0:0,0:0:0:0:
170,118,89326,5,0,0:0:0:0:
273,253,89502,2,0,L|255:188,1,45,2|0,0:0|0:0,0:0:0:0:
215,49,89679,5,2,0:0:0:0:
157,251,89855,2,0,L|175:186,1,45,0|0,0:0|0:0,0:0:0:0:
216,29,90032,6,0,B|263:10|263:10|347:14,1,135.000005149842,4|2,0:0|0:0,0:0:0:0:
450,114,90384,5,0,0:0:0:0:
306,124,90561,1,0,0:0:0:0:
395,271,90737,6,0,L|380:182,1,90,2|0,0:0|0:0,0:0:0:0:
366,199,91002,1,0,0:0:0:0:
347,211,91090,1,0,0:0:0:0:
326,220,91179,1,0,0:0:0:0:
303,223,91267,2,0,L|254:223,1,45,0|0,0:0|0:0,0:0:0:0:
97,233,91443,6,0,B|108:200|126:199|126:199|145:231|125:319,1,135.000005149842,4|0,0:0|0:0,0:0:0:0:
90,126,91796,6,0,P|139:118|194:148,1,90,2|0,0:0|0:0,0:0:0:0:
281,302,92149,5,0,0:0:0:0:
216,130,92326,1,2,0:0:0:0:
127,313,92502,1,2,0:0:0:0:
175,131,92679,1,0,0:0:0:0:
295,344,92855,6,0,L|281:302,1,45,0|0,0:0|0:0,0:0:0:0:
253,128,93032,2,0,L|234:191,1,45,0|0,0:0|0:0,0:0:0:0:
112,355,93208,2,0,L|126:312,1,45,2|0,0:0|0:0,0:0:0:0:
135,130,93384,2,0,L|157:193,1,45,0|0,0:0|0:0,0:0:0:0:
206,321,93561,5,2,0:0:0:0:
240,171,93737,1,0,0:0:0:0:
126,312,93914,2,0,P|64:318|27:286,1,90,0|0,0:0|0:0,0:0:0:0:
41,117,94267,2,0,L|83:229,1,90,8|0,0:0|0:0,0:0:0:0:
81,222,94532,1,0,0:0:0:0:
90,242,94620,1,2,0:0:0:0:
264,258,94796,2,0,L|324:216,1,45,0|0,0:0|0:0,0:0:0:0:
346,74,94973,6,0,P|334:118|345:172,1,90,0|2,0:0|0:0,0:0:0:0:
382,230,95237,1,0,0:0:0:0:
382,230,95326,2,0,L|444:260,1,45,2|0,0:0|0:0,0:0:0:0:
512,167,95502,2,0,L|467:197,1,45,0|0,0:0|0:0,0:0:0:0:
340,307,95679,2,0,P|300:318|243:295,1,90,8|2,0:0|0:0,0:0:0:0:
169,301,95943,2,0,P|209:290|266:313,1,90,0|0,0:0|0:0,0:0:0:0:
97,348,96208,2,0,P|86:324|85:285,1,45,0|0,0:0|0:0,0:0:0:0:
120,139,96384,6,0,P|133:181|123:225,1,90,2|0,0:0|0:0,0:0:0:0:
38,229,96649,2,0,P|80:215|124:225,1,90,0|0,0:0|0:0,0:0:0:0:
97,348,96914,2,0,P|86:324|85:285,1,45,0|0,0:0|0:0,0:0:0:0:
214,177,97090,2,0,L|314:166,1,90,8|0,0:0|0:0,0:0:0:0:
326,165,97355,1,0,0:0:0:0:
348,163,97443,1,2,0:0:0:0:
503,141,97620,2,0,L|427:149,1,45,0|0,0:0|0:0,0:0:0:0:
424,300,97796,6,0,L|413:210,1,90,0|2,0:0|0:0,0:0:0:0:
393,99,98061,1,0,0:0:0:0:
393,99,98149,2,0,L|385:31,1,45,2|0,0:0|0:0,0:0:0:0:
246,27,98326,1,0,0:0:0:0:
226,37,98414,1,0,0:0:0:0:
205,45,98502,2,0,P|163:55|112:46,1,90,8|0,0:0|0:0,0:0:0:0:
37,25,98767,1,0,0:0:0:0:
37,25,98855,2,0,P|37:71|72:118,1,90,0|0,0:0|0:0,0:0:0:0:
191,167,99208,5,2,0:0:0:0:
45,194,99384,1,0,0:0:0:0:
117,47,99561,2,0,P|137:76|143:123,1,45,0|0,0:0|0:0,0:0:0:0:
128,233,99737,1,0,0:0:0:0:
59,107,99914,1,8,0:0:0:0:
191,167,100090,2,0,L|255:177,1,45,0|0,0:0|0:0,0:0:0:0:
369,117,100267,1,2,0:0:0:0:
230,89,100443,1,0,0:0:0:0:
326,192,100620,6,0,P|376:203|421:186,1,90,0|2,0:0|0:0,0:0:0:0:
430,179,100884,1,0,0:0:0:0:
443,160,100973,1,2,0:0:0:0:
346,31,101149,2,0,P|325:40|307:54,1,45,0|0,0:0|0:0,0:0:0:0:
272,269,101326,1,8,0:0:0:0:
369,117,101502,1,2,0:0:0:0:
366,277,101679,1,0,0:0:0:0:
348,152,101855,1,0,0:0:0:0:
243,289,102032,6,0,L|153:277,1,90,2|0,0:0|0:0,0:0:0:0:
76,154,102384,1,0,0:0:0:0:
208,205,102561,1,0,0:0:0:0:
66,241,102737,1,8,0:0:0:0:
164,130,102914,2,0,P|192:120|235:120,1,45,0|0,0:0|0:0,0:0:0:0:
348,152,103090,2,0,P|398:160|454:140,1,90,2|0,0:0|0:0,0:0:0:0:
288,83,103443,5,0,0:0:0:0:
208,205,103620,2,0,L|242:282,1,45,2|0,0:0|0:0,0:0:0:0:
264,330,103796,5,2,0:0:0:0:
390,230,103973,2,0,L|356:307,1,45,0|0,0:0|0:0,0:0:0:0:
255,364,104149,5,10,0:0:0:0:
309,187,104326,1,0,0:0:0:0:
445,336,104502,2,0,L|486:250,1,90,2|0,0:0|0:0,0:0:0:0:
380,140,104855,6,0,L|240:137,2,135.000005149842,2|0|0,0:0|0:0|0:0,0:0:0:0:
452,102,105737,1,0,0:0:0:0:
452,102,105914,2,0,P|430:76|401:61,1,67.5000025749208,0|0,0:0|0:0,0:0:0:0:
314,50,106267,6,0,P|248:63|178:44,1,135.000005149842,0|0,0:0|0:0,0:0:0:0:
104,304,106973,2,0,P|170:291|240:310,1,135.000005149842,8|0,0:1|0:0,0:0:0:0:
420,119,107679,6,0,B|399:157|399:157|390:268,2,135.000005149842,2|0|0,0:1|0:0|0:0,0:0:0:0:
457,46,108562,1,0,0:0:0:0:
457,46,108738,2,0,P|424:38|389:43,1,67.5000025749208,0|0,0:0|0:0,0:0:0:0:
274,101,109090,6,0,P|307:109|342:104,1,67.5000025749208,0|0,0:0|0:0,0:0:0:0:
211,34,109443,2,0,P|178:26|143:31,1,67.5000025749208,0|0,0:0|0:0,0:0:0:0:
145,178,109796,2,0,P|178:186|165:115,1,135.000005149842,8|0,0:1|0:0,0:0:0:0:
92,111,110326,1,0,0:0:0:0:
168,264,110502,6,0,L|142:168,1,90,10|0,0:0|0:0,0:0:0:0:
247,318,110855,2,0,L|273:222,1,90,8|0,0:0|0:0,0:0:0:0:
365,256,111208,2,0,L|339:160,1,90,8|0,0:0|0:0,0:0:0:0:
444,310,111561,2,0,L|470:214,1,90,8|0,0:0|0:0,0:0:0:0:
451,94,111914,5,10,0:0:0:0:
341,169,112090,1,0,0:0:0:0:
425,73,112267,1,8,0:0:0:0:
487,200,112443,1,0,0:0:0:0:
484,12,112620,6,0,L|343:32,1,135,8|0,0:0|0:0,0:0:0:0:
415,9,112973,2,0,L|319:22,1,90,8|0,0:0|0:0,0:0:0:0:
292,256,113326,5,10,0:0:0:0:
381,98,113502,1,10,0:0:0:0:
160,176,113678,1,10,0:0:0:0:
341,180,113855,1,10,0:0:0:0:
124,92,114032,6,0,L|48:92,1,45,10|10,0:0|0:0,0:0:0:0:
199,255,114208,2,0,L|216:324,1,45,10|10,0:0|0:0,0:0:0:0:
296,101,114384,2,0,L|318:42,1,45,10|10,0:0|0:0,0:0:0:0:
160,176,114561,2,0,L|115:216,1,45,10|10,0:0|0:0,0:0:0:0:
42,199,115090,5,2,0:1:0:0:
22,282,115267,2,0,L|14:317,1,22.5,2|0,0:1|0:0,0:0:0:0:
13,326,115443,1,2,0:1:0:0:
106,255,115620,2,0,L|113:292,1,22.5,2|0,0:1|0:0,0:0:0:0:
115,298,115796,1,2,0:1:0:0:
139,375,115973,1,2,0:1:0:0:
301,343,116149,6,0,P|357:315|481:371,1,202.500007724762,2|0,0:0|0:0,0:0:0:0:
480,262,116502,6,0,P|493:314|477:365,1,107.999996704102
395,212,116855,2,0,P|382:264|397:315,1,107.999996704102,8|0,0:0|0:0,0:0:0:0:
483,159,117208,2,0,P|496:211|480:262,1,107.999996704102,2|0,0:0|0:0,0:0:0:0:
392,109,117561,2,0,P|378:161|395:212,1,107.999996704102,0|2,0:0|0:0,0:0:0:0:
486,56,117914,2,0,P|499:108|483:159,1,107.999996704102,2|0,0:0|0:0,0:0:0:0:
389,6,118267,2,0,P|375:58|392:109,1,107.999996704102,8|2,0:0|0:0,0:0:0:0:
480,261,118620,1,0,0:0:0:0:
486,56,118796,1,0,0:0:0:0:
240,203,118973,5,2,0:0:0:0:
322,58,119149,1,0,0:0:0:0:
322,255,119326,1,0,0:0:0:0:
156,154,119502,1,0,0:0:0:0:
339,240,119678,1,8,0:0:0:0:
228,81,119855,1,0,0:0:0:0:
359,221,120031,1,2,0:0:0:0:
322,58,120208,1,0,0:0:0:0:
239,294,120384,6,0,P|272:333|354:346,1,107.999996704102,0|2,0:0|0:0,0:0:0:0:
293,146,120737,1,2,0:0:0:0:
202,306,120914,1,0,0:0:0:0:
264,131,121090,1,8,0:0:0:0:
322,255,121267,1,0,0:0:0:0:
322,58,121443,1,2,0:0:0:0:
244,208,121620,1,0,0:0:0:0:
136,27,121796,6,0,B|154:45|154:45|185:183,1,135.000005149842,2|0,0:0|0:0,0:0:0:0:
160,233,122061,1,0,0:0:0:0:
136,249,122149,6,0,P|83:255|44:291,1,107.999996704102,0|2,0:0|0:0,0:0:0:0:
230,297,122502,2,0,P|282:291|322:255,1,107.999996704102,8|0,0:0|0:0,0:0:0:0:
112,260,122855,2,0,P|62:280|34:325,1,107.999996704102,2|0,0:0|0:0,0:0:0:0:
256,284,123208,2,0,P|305:263|333:218,1,107.999996704102,0|2,0:0|0:0,0:0:0:0:
91,281,123561,2,0,P|48:313|33:364,1,107.999996704102,2|0,0:0|0:0,0:0:0:0:
289,269,123914,2,0,P|331:236|346:185,1,107.999996704102,8|2,0:0|0:0,0:0:0:0:
289,17,124267,1,0,0:0:0:0:
259,183,124443,1,0,0:0:0:0:
482,3,124620,6,0,P|439:35|424:86,1,107.999996704102,2|0,0:0|0:0,0:0:0:0:
480,256,124973,1,0,0:0:0:0:
510,86,125149,1,0,0:0:0:0:
448,256,125326,1,8,0:0:0:0:
424,85,125502,1,0,0:0:0:0:
424,264,125678,1,2,0:0:0:0:
339,105,125855,1,2,0:0:0:0:
466,342,126031,6,0,P|416:351|360:324,1,107.999996704102,0|2,0:0|0:0,0:0:0:0:
273,163,126384,5,2,0:0:0:0:
424,264,126561,1,0,0:0:0:0:
190,208,126737,5,8,0:0:0:0:
509,228,126914,1,0,0:0:0:0:
267,263,127090,5,2,0:0:0:0:
512,140,127267,1,0,0:0:0:0:
501,115,127355,1,0,0:0:0:0:
487,91,127443,6,0,B|471:60|436:54|436:54|419:98|359:129|306:95,1,215.999993408203,2|0,0:0|0:0,0:0:0:0:
144,42,127973,1,0,0:0:0:0:
353,18,128149,2,0,P|302:8|235:50,1,107.999996704102,8|0,0:0|0:0,0:0:0:0:
158,179,128502,1,2,0:0:0:0:
310,97,128678,1,0,0:0:0:0:
397,242,128855,6,0,L|443:313,1,53.9999983520508,0|0,0:0|0:0,0:0:0:0:
316,264,129032,2,0,L|318:324,1,53.9999983520508,2|0,0:0|0:0,0:0:0:0:
234,242,129208,1,2,0:0:0:0:
397,242,129384,6,0,L|443:313,1,53.9999983520508,0|0,0:0|0:0,0:0:0:0:
316,264,129561,2,0,L|318:324,1,53.9999983520508,8|0,0:0|0:0,0:0:0:0:
234,242,129737,1,2,0:0:0:0:
296,178,129914,1,0,0:0:0:0:
316,264,130090,1,0,0:0:0:0:
87,128,130267,6,0,B|163:111|209:160|209:160|172:194|131:172,1,215.999993408203,2|0,0:0|0:0,0:0:0:0:
225,56,130796,1,0,0:0:0:0:
384,204,130973,2,0,P|450:209|495:169,1,107.999996704102,8|0,0:0|0:0,0:0:0:0:
512,6,131326,1,2,0:0:0:0:
423,131,131502,1,0,0:0:0:0:
225,56,131678,6,0,L|75:48,1,107.999996704102,0|2,0:0|0:0,0:0:0:0:
117,50,131943,2,0,L|170:31,1,53.9999983520508,0|2,0:0|0:0,0:0:0:0:
294,128,132208,6,0,L|243:145,1,53.9999983520508,0|0,0:0|0:0,0:0:0:0:
112,154,132384,2,0,L|185:179,1,53.9999983520508,8|0,0:0|0:0,0:0:0:0:
302,216,132561,1,0,0:0:0:0:
81,233,132737,6,0,B|135:252|135:252|172:301,1,101.250003862381,0|0,0:0|0:0,0:0:0:0:
161,287,133090,5,2,0:0:0:0:
28,307,133267,2,0,L|92:331,1,53.9999983520508,0|0,0:0|0:0,0:0:0:0:
162,374,133443,2,0,L|231:348,1,53.9999983520508,0|0,0:0|0:0,0:0:0:0:
275,289,133620,2,0,L|345:315,1,53.9999983520508,2|0,0:0|0:0,0:0:0:0:
481,260,133796,2,0,P|434:289|435:353,1,107.999996704102,8|0,0:0|0:0,0:0:0:0:
483,177,134149,1,2,0:0:0:0:
329,225,134326,1,0,0:0:0:0:
368,70,134502,6,0,P|399:113|397:166,1,107.999996704102,0|2,0:0|0:0,0:0:0:0:
316,140,134767,1,0,0:0:0:0:
289,145,134855,2,0,P|245:186|243:248,1,107.999996704102,2|0,0:0|0:0,0:0:0:0:
289,305,135120,1,0,0:0:0:0:
311,322,135208,2,0,P|264:320|206:348,1,107.999996704102,8|2,0:0|0:0,0:0:0:0:
5,196,135561,2,0,L|36:89,1,107.999996704102,0|0,0:0|0:0,0:0:0:0:
282,120,135914,5,2,0:0:0:0:
289,145,136002,1,0,0:0:0:0:
295,171,136090,1,0,0:0:0:0:
55,16,136267,5,0,0:0:0:0:
281,38,136443,1,0,0:0:0:0:
87,191,136620,5,8,0:0:0:0:
357,79,136796,1,0,0:0:0:0:
116,71,136973,5,2,0:0:0:0:
359,0,137149,1,0,0:0:0:0:
150,252,137326,6,0,B|185:235|185:235|253:245,1,107.999996704102,0|2,0:0|0:0,0:0:0:0:
465,259,137679,6,0,P|412:267|360:251,1,107.999996704102,2|0,0:0|0:0,0:0:0:0:
375,74,138032,2,0,P|408:115|420:167,1,107.999996704102,8|0,0:0|0:0,0:0:0:0:
253,245,138384,2,0,P|272:194|311:158,1,107.999996704102,2|0,0:0|0:0,0:0:0:0:
465,259,138737,5,2,0:0:0:0:
449,268,139090,1,0,0:0:0:0:
434,278,139443,1,0,0:0:0:0:
419,288,139796,1,0,0:0:0:0:
239,328,140149,5,2,0:1:0:0:
255,319,140502,1,0,0:0:0:0:
270,309,140855,1,0,0:0:0:0:
285,299,141208,1,0,0:0:0:0:
409,167,141561,5,2,0:1:0:0:
393,176,141914,1,0,0:0:0:0:
378,186,142267,1,0,0:0:0:0:
363,196,142620,1,0,0:0:0:0:
184,237,142973,5,2,0:1:0:0:
200,228,143326,1,0,0:0:0:0:
215,218,143679,1,0,0:0:0:0:
230,208,144032,1,0,0:0:0:0:
256,32,144384,5,2,0:1:0:0:
256,58,144737,1,0,0:0:0:0:
256,84,145090,1,0,0:0:0:0:
256,111,145443,1,0,0:0:0:0:
256,352,145796,5,2,0:1:0:0:
256,326,146149,1,0,0:0:0:0:
256,300,146502,1,0,0:0:0:0:
256,273,146855,1,0,0:0:0:0:
32,192,147208,5,2,0:1:0:0:
212,193,147561,5,8,0:0:0:0:
212,193,147649,1,8,0:0:0:0:
212,193,147737,1,8,0:0:0:0:
121,193,147914,1,8,0:0:0:0:
121,193,148267,5,8,0:0:0:0:
212,193,148443,1,8,0:0:0:0:
302,193,148620,1,8,0:0:0:0:
391,193,148796,1,8,0:0:0:0:
391,193,149149,5,8,0:0:0:0:
302,193,149326,2,0,L|274:193,4,16.8750006437302,8|8|8|8|8,0:0|0:0|0:0|0:0|0:0,0:0:0:0:
391,193,149679,2,0,L|475:193,1,67.5000025749208,8|8,0:0|0:0,0:0:0:0:
323,37,150032,6,0,P|234:47|157:111,1,180,10|0,0:0|0:0,0:0:0:0:
316,23,150561,2,0,P|227:33|150:97,1,180,8|0,0:0|0:0,0:0:0:0:
140,274,151090,2,0,P|154:224|144:156,1,90,8|0,0:0|0:0,0:0:0:0:
61,344,151443,6,0,P|144:314|250:361,1,180,10|0,0:0|0:0,0:0:0:0:
385,337,151973,2,0,P|439:318|467:278,2,90,8|8|0,0:0|0:1|0:0,0:0:0:0:
311,209,152502,2,0,P|353:220|385:252,1,90,8|0,0:0|0:0,0:0:0:0:
290,354,152855,6,0,P|237:306|308:298,1,180,10|0,0:0|0:0,0:0:0:0:
275,366,153384,2,0,P|226:317|310:288,1,180,8|0,0:0|0:0,0:0:0:0:
472,245,153913,2,0,P|429:258|384:252,1,90,8|0,0:0|0:0,0:0:0:0:
378,93,154267,6,0,B|408:46|408:46|420:169,1,180,10|0,0:0|0:0,0:0:0:0:
244,153,154796,2,0,L|234:62,2,90,8|8|0,0:0|0:1|0:0,0:0:0:0:
172,345,155326,1,8,0:0:0:0:
156,164,155502,1,8,0:0:0:0:
262,336,155679,6,0,L|351:326,1,90,10|0,0:0|0:0,0:0:0:0:
253,247,156032,2,0,L|262:336,1,90,10|0,0:0|0:0,0:0:0:0:
342,237,156384,2,0,L|252:246,1,90,10|0,0:0|0:0,0:0:0:0:
351,327,156737,2,0,L|341:237,1,90,10|0,0:0|0:0,0:0:0:0:
326,53,157090,6,0,L|336:156,1,90,10|0,0:0|0:0,0:0:0:0:
234,63,157443,2,0,L|244:163,1,90,10|0,0:0|0:0,0:0:0:0:
146,73,157796,2,0,L|157:186,1,90,10|0,0:0|0:0,0:0:0:0:
56,79,158149,2,0,L|67:192,1,90,10|0,0:0|0:0,0:0:0:0:
212,333,158502,5,10,0:0:0:0:
205,243,158679,1,10,0:0:0:0:
122,339,158855,1,10,0:0:0:0:
116,250,159032,1,10,0:0:0:0:
229,346,159208,5,10,0:0:0:0:
218,221,159385,1,10,0:0:0:0:
105,357,159561,1,10,0:0:0:0:
96,227,159738,1,10,0:0:0:0:
294,279,159914,5,10,0:0:0:0:
40,295,160090,1,10,0:0:0:0:
287,155,160267,1,10,0:0:0:0:
24,174,160443,1,10,0:0:0:0:
316,289,160620,5,10,0:0:0:0:
22,309,160796,1,10,0:0:0:0:
308,141,160973,1,10,0:0:0:0:
0,161,161149,1,10,0:0:0:0:
113,154,161679,5,0,0:0:0:0:
109,154,161855,1,0,0:0:0:0:
107,151,162032,1,0,0:0:0:0:
109,148,162208,1,0,0:0:0:0:
113,148,162384,1,0,0:0:0:0:
114,151,162561,1,0,0:0:0:0:
65,71,162737,6,0,B|99:72|99:72|131:63,1,67.5,0|0,0:0|0:0,0:0:0:0:
131,63,163090,5,2,0:1:0:0:
207,39,163267,2,0,L|242:35,1,22.5,2|0,0:1|0:0,0:0:0:0:
192,117,163443,1,2,0:1:0:0:
272,95,163620,2,0,L|307:91,1,22.5,2|0,0:1|0:0,0:0:0:0:
253,178,163796,1,2,0:1:0:0:
331,155,163973,1,2,0:1:0:0:
94,285,164149,6,0,P|187:259|260:323,1,202.500007724762,2|0,0:0|0:0,0:0:0:0:
164,355,164502,6,0,P|206:324|260:323,1,107.999996704102,0|0,0:0|0:0,0:0:0:0:
447,318,164855,2,0,P|409:356|359:374,1,107.999996704102,8|0,0:0|0:0,0:0:0:0:
446,214,165208,2,0,P|459:269|441:323,1,107.999996704102,2|0,0:0|0:0,0:0:0:0:
358,157,165561,2,0,P|408:175|446:214,1,107.999996704102,0|2,0:0|0:0,0:0:0:0:
359,266,165914,2,0,B|359:158,1,107.999996704102,2|0,0:0|0:0,0:0:0:0:
359,374,166267,2,0,B|359:266,1,107.999996704102,8|2,0:0|0:0,0:0:0:0:
355,54,166620,1,0,0:0:0:0:
446,214,166796,1,0,0:0:0:0:
206,51,166973,5,2,0:0:0:0:
104,198,167149,1,0,0:0:0:0:
277,105,167326,1,0,0:0:0:0:
132,0,167502,1,0,0:0:0:0:
229,179,167679,1,8,0:0:0:0:
81,72,167855,1,0,0:0:0:0:
177,246,168031,1,2,0:0:0:0:
32,146,168208,1,0,0:0:0:0:
122,317,168384,6,0,P|164:337|232:315,1,107.999996704102,0|2,0:0|0:0,0:0:0:0:
343,128,168737,1,2,0:0:0:0:
360,299,168914,1,0,0:0:0:0:
305,120,169090,1,8,0:0:0:0:
241,299,169267,1,0,0:0:0:0:
380,135,169443,1,2,0:0:0:0:
400,309,169620,1,0,0:0:0:0:
191,142,169796,6,0,B|200:123|222:113|222:113|236:164|216:202,1,135.000005149842,2|0,0:0|0:0,0:0:0:0:
131,208,170061,1,0,0:0:0:0:
115,185,170149,6,0,P|87:231|85:284,1,107.999996704102,0|2,0:0|0:0,0:0:0:0:
261,352,170502,2,0,P|288:305|290:252,1,107.999996704102,8|0,0:0|0:0,0:0:0:0:
290,144,170855,2,0,L|290:252,1,107.999996704102,2|0,0:0|0:0,0:0:0:0:
376,197,171208,2,0,P|345:149|289:144,1,116.999994644165,0|2,0:0|0:0,0:0:0:0:
290,252,171561,2,0,P|348:244|370:163,1,116.999994644165,2|0,0:0|0:0,0:0:0:0:
289,252,171914,2,0,P|332:301|403:341,1,116.999994644165,8|2,0:0|0:0,0:0:0:0:
471,182,172267,1,0,0:0:0:0:
289,144,172443,1,0,0:0:0:0:
455,372,172620,6,0,P|467:325|443:268,1,107.999996704102,2|0,0:0|0:0,0:0:0:0:
248,243,172973,1,0,0:0:0:0:
374,329,173149,1,0,0:0:0:0:
258,224,173326,1,8,0:0:0:0:
445,271,173502,1,0,0:0:0:0:
264,200,173678,1,2,0:0:0:0:
471,182,173855,1,2,0:0:0:0:
183,188,174032,5,0,0:0:0:0:
291,361,174208,1,2,0:0:0:0:
264,176,174384,5,2,0:0:0:0:
180,328,174561,1,0,0:0:0:0:
213,33,174737,5,8,0:0:0:0:
288,324,174914,1,0,0:0:0:0:
215,112,175090,5,2,0:0:0:0:
74,337,175267,1,0,0:0:0:0:
49,347,175355,1,0,0:0:0:0:
23,355,175443,6,0,B|-16:313|17:248|17:248|82:214|145:257,1,215.999993408203,2|0,0:0|0:0,0:0:0:0:
288,324,175973,1,0,0:0:0:0:
215,112,176149,2,0,P|192:158|208:224,1,107.999996704102,8|0,0:0|0:0,0:0:0:0:
384,288,176502,1,2,0:0:0:0:
278,172,176678,1,0,0:0:0:0:
388,63,176855,6,0,L|465:33,1,53.9999983520508,0|0,0:0|0:0,0:0:0:0:
444,134,177031,2,0,L|518:146,1,53.9999983520508,2|0,0:0|0:0,0:0:0:0:
455,222,177208,1,2,0:0:0:0:
388,63,177384,6,0,L|465:33,1,53.9999983520508,0|0,0:0|0:0,0:0:0:0:
444,134,177560,2,0,L|518:146,1,53.9999983520508,8|0,0:0|0:0,0:0:0:0:
455,222,177737,1,2,0:0:0:0:
444,134,177914,1,0,0:0:0:0:
388,63,178090,1,0,0:0:0:0:
142,156,178267,6,0,B|104:195|116:223|116:223|177:165|243:188|276:238,1,215.999993408203,2|0,0:0|0:0,0:0:0:0:
359,354,178796,1,0,0:0:0:0:
307,159,178973,2,0,P|264:127|213:112,1,107.999996704102,8|0,0:0|0:0,0:0:0:0:
191,286,179326,1,2,0:0:0:0:
325,194,179502,1,0,0:0:0:0:
143,66,179678,6,0,B|105:80|105:80|25:140,1,107.999996704102,0|2,0:0|0:0,0:0:0:0:
50,120,179943,2,0,L|45:62,1,53.9999983520508,0|2,0:0|0:0,0:0:0:0:
141,155,180208,6,0,L|98:187,1,53.9999983520508,0|0,0:0|0:0,0:0:0:0:
12,312,180384,2,0,L|55:343,1,53.9999983520508,8|0,0:0|0:0,0:0:0:0:
204,295,180561,1,0,0:0:0:0:
31,222,180737,6,0,B|45:244|45:244|108:286,1,101.250003862381,0|0,0:0|0:0,0:0:0:0:
108,286,181090,5,2,0:0:0:0:
274,237,181267,1,0,0:0:0:0:
317,237,181355,1,0,0:0:0:0:
359,245,181443,1,0,0:0:0:0:
397,263,181531,1,0,0:0:0:0:
432,288,181620,2,0,L|368:297,1,53.9999983520508,2|0,0:0|0:0,0:0:0:0:
204,295,181796,2,0,P|184:245|196:193,1,107.999996704102,8|0,0:0|0:0,0:0:0:0:
296,79,182149,1,2,0:0:0:0:
274,237,182326,1,0,0:0:0:0:
208,98,182502,6,0,P|148:113|101:166,1,107.999996704102,0|2,0:0|0:0,0:0:0:0:
115,234,182767,1,0,0:0:0:0:
86,231,182855,2,0,P|35:190|28:128,1,107.999996704102,2|0,0:0|0:0,0:0:0:0:
20,58,183120,1,0,0:0:0:0:
54,61,183208,2,0,P|114:46|161:-7,1,107.999996704102,8|2,0:0|0:0,0:0:0:0:
458,61,183561,2,0,P|398:46|351:-7,1,107.999996704102,0|0,0:0|0:0,0:0:0:0:
138,129,183914,5,2,0:0:0:0:
140,155,184002,1,0,0:0:0:0:
143,181,184090,1,0,0:0:0:0:
390,347,184267,5,0,0:0:0:0:
331,113,184443,1,0,0:0:0:0:
154,345,184620,5,8,0:0:0:0:
215,112,184796,1,0,0:0:0:0:
410,358,184973,5,2,0:0:0:0:
350,97,185149,1,0,0:0:0:0:
122,356,185326,6,0,L|21:289,1,107.999996704102,0|2,0:0|0:0,0:0:0:0:
133,93,185679,6,0,P|133:140|170:188,1,90,2|0,0:0|0:0,0:0:0:0:
377,202,186032,2,0,P|336:178|276:186,1,90,2|0,0:1|0:0,0:0:0:0:
164,355,186384,2,0,P|204:331|227:275,1,90,2|0,0:1|0:0,0:0:0:0:
133,93,186737,5,2,0:1:0:0:
